#VERSION:0.83;
#TITLE:作品;
#ARTIST:f-ZUKIN;
#TITLETRANSLIT:opus;
#BANNER:opus.png;
#BACKGROUND:opus-bg.png;
#JACKET:opus-jacket.png;
#MUSIC:opus.ogg;
#OFFSET:1.549947;
#SAMPLESTART:12.661;
#SAMPLELENGTH:15;
#BPMS:0=152;

//---------------dance-single - NewbStepper-ESP----------------
#NOTEDATA:;
#CHARTNAME:NewbStepper-ESP;
#STEPSTYPE:dance-single;
#DESCRIPTION:NewbStepper-ESP;
#DIFFICULTY:Hard;
#METER:16;
#RADARVALUES:0.808000,0.905305,0.603537,0.103463,0.581982,656,586,70,12,0,0,0,0,0,0.808000,0.905305,0.603537,0.103463,0.581982,656,586,70,12,0,0,0,0,0;
#CREDIT:NewbStepper;
#NOTES:
0000
0000
0000
0000
,
0000
0000
0000
0000
,
0000
0000
0000
0000
,
0000
0000
0000
0000
,
0000
0000
0000
0000
,
2200
0300
3002
0203
,
0320
0000
0000
0030
,
1000
1000
0100
0100
0010
0010
0001
0001
,
1000
0001
1000
0010
0100
0001
0010
0100
1000
0001
0010
0100
1000
0001
0100
0010
,
1000
0001
0100
0001
1000
0000
0100
0000
0011
0000
0100
1000
0010
0000
0100
0000
,
0101
0000
0001
0000
0011
0000
0010
0000
1010
0000
0010
0001
0100
0000
0001
0000
,
1000
0100
0010
0100
1000
0000
0100
0000
0101
0000
0100
0000
1100
0000
1000
0000
,
1010
0000
0010
0100
0001
0000
0010
0000
0110
0000
1100
0000
1001
0000
0000
0000
,
0001
1000
0010
1000
0001
0000
0100
0000
1000
0000
0100
0010
1000
0000
0100
0000
,
0001
0100
1000
0001
0100
0000
0010
0000
1010
0000
1000
0000
1001
0000
0000
0000
,
0010
0001
1000
0001
0010
0000
0100
0000
0100
0000
0100
0000
0100
0000
0010
0000
,
0001
0000
0100
0000
1000
0000
0100
0000
0001
1000
0010
0100
0001
0010
0100
1000
,
0001
1000
0100
1000
0001
0000
0100
0000
1010
0000
0100
0001
0010
0000
0100
0000
,
1100
0000
1000
0000
1010
0000
0010
0000
0011
0000
0010
1000
0100
0000
1000
0000
,
0001
0100
0010
0100
0001
0000
0100
0000
1100
0000
0100
0000
0101
0000
0001
0000
,
0011
0000
0010
0100
1000
0000
0010
0000
0110
0000
0101
0000
1001
0000
0000
0000
,
1000
0001
0010
0001
1000
0000
0100
0000
0001
0000
0100
0010
0001
0000
0100
0000
,
1000
0100
0001
1000
0100
0000
0010
0000
0011
0000
0001
0000
1001
0000
0000
0000
,
0010
1000
0001
1000
0010
0000
0100
0000
0100
0000
0100
0000
0100
0000
0010
0000
,
1000
0000
0100
0000
0001
0000
0100
0000
1000
0001
0010
0100
1000
0010
0100
0001
,
0020
0000
0000
0000
,
0230
0000
0000
0000
,
2300
0000
0000
0000
,
3002
0000
0000
0000
,
1003
0100
0001
0100
1000
0010
1000
0001
,
0100
0101
0010
1010
0100
0110
1001
0000
,
0001
0100
1000
0100
0001
0010
0001
1000
,
0100
1100
0010
0011
0100
0110
1001
0000
,
1000
0100
0001
0000
0100
0000
0010
0001
0100
0000
0101
0000
0010
0000
1001
0000
,
0010
1000
0100
0000
0001
0000
1000
0000
0010
0001
1000
0010
0100
0000
0000
0000
,
0001
0100
1000
0000
0100
0000
0010
1000
0100
0000
1100
0000
0010
0000
1001
0000
,
0001
0100
0001
1000
0001
0010
0100
1000
0001
0100
1000
0100
0001
0010
0100
1000
,
0001
0100
0010
0000
1000
0000
0001
0100
1000
0100
0001
0000
0010
0001
0100
0000
,
0010
1010
0010
0011
0010
0110
1001
0000
,
1000
0100
0010
0000
0001
0000
1000
0100
0001
0100
1000
0000
0010
1000
0100
0000
,
0010
0000
0001
0000
0010
0000
1000
0000
0010
0000
0001
0100
0001
0000
1000
0100
,
1000
0000
0001
0100
0010
0000
1000
0000
1010
0000
0010
0000
0110
0000
0000
0000
,
1000
0100
0001
0000
1000
0010
0001
0000
0100
0000
0010
0000
1000
0000
1001
0000
,
0001
0100
1000
0000
0001
0010
1000
0000
0100
0000
0010
0000
0001
0000
1001
0000
,
1000
0000
0010
0000
0001
0000
0010
0000
1000
0000
0001
0000
1000
0000
0100
0010
,
0100
1000
0010
0001
0010
1000
0100
0000
,
2002
0000
0000
3003
,
0100
0001
0010
1000
0010
0001
0100
0000
,
0001
0100
0010
1000
0100
0010
0001
0100
0010
1000
0100
0010
0001
0100
0010
1000
,
0001
1000
0100
1000
0001
0000
0100
0000
1010
0000
0100
0001
0010
0000
0100
0000
,
1100
0000
1000
0000
1010
0000
0010
0000
0011
0000
0010
1000
0100
0000
1000
0000
,
0001
0100
0010
0100
0001
0000
0100
0000
1100
0000
0100
0000
0101
0000
0001
0000
,
0011
0000
0010
0100
1000
0000
0010
0000
0110
0000
0101
0000
1001
0000
0000
0000
,
1000
0001
0010
0001
1000
0000
0100
0000
0001
0000
0100
0010
0001
0000
0100
0000
,
1000
0100
0001
1000
0100
0000
0010
0000
0011
0000
0001
0000
1001
0000
0000
0000
,
0010
1000
0001
1000
0010
0000
0100
0000
0100
0000
0100
0000
0100
0000
0010
0000
,
1000
0000
0100
0000
0001
0000
0100
0000
1000
0001
0010
0100
1000
0010
0100
0001
,
1000
0001
0100
0001
1000
0000
0100
0000
0011
0000
0100
1000
0010
0000
0100
0000
,
0101
0000
0001
0000
0011
0000
0010
0000
1010
0000
0010
0001
0100
0000
0001
0000
,
1000
0100
0010
0100
1000
0000
0100
0000
0101
0000
0100
0000
1100
0000
1000
0000
,
1010
0000
0010
0100
0001
0000
0010
0000
0110
0000
1100
0000
1001
0000
0000
0000
,
0001
1000
0010
1000
0001
0000
0100
0000
1000
0000
0100
0010
1000
0000
0100
0000
,
0001
0100
1000
0001
0100
0000
0010
0000
1010
0000
1000
0000
1001
0000
0000
0000
,
0010
0001
1000
0001
0010
0000
0100
0000
0100
0000
0100
0000
0100
0000
0010
0000
,
0001
0000
0100
0000
1000
0000
0100
0000
0001
1000
0010
0100
0001
0010
0100
1000
,
0010
1000
0001
1000
0010
0000
0100
0000
0100
0000
0100
0000
0100
0000
0010
0000
,
1000
0000
0100
0000
0001
0000
0100
0000
1000
0001
0100
0010
1000
0100
0010
0001
,
0100
0001
1000
0001
0100
0000
0010
0000
0010
0000
0010
0000
0010
0000
1000
0000
,
0001
0100
0010
0100
1000
0100
0010
0100
0001
1000
0100
0010
0100
0001
0100
1000
,
0020
0000
0000
0000
,
0030
0000
0000
0000
;

//---------------dance-single - NewbStepper-DSP----------------
#NOTEDATA:;
#CHARTNAME:NewbStepper-DSP;
#STEPSTYPE:dance-single;
#DESCRIPTION:NewbStepper-DSP;
#DIFFICULTY:Medium;
#METER:12;
#RADARVALUES:0.480366,0.543183,0.094841,0.120707,0.068976,390,379,11,14,0,0,0,0,0,0.480366,0.543183,0.094841,0.120707,0.068976,390,379,11,14,0,0,0,0,0;
#CREDIT:NewbStepper;
#NOTES:
0000
0000
0000
0000
,
0000
0000
0000
0000
,
0000
0000
0000
0000
,
0000
0000
0000
0000
,
0000
0000
0000
0000
,
0002
0000
0013
0100
,
2000
0000
0000
3000
,
0001
0100
1000
0010
,
0001
0100
0010
0100
1000
0100
0001
0000
,
1000
0000
0100
0000
0001
0000
0000
0000
0100
0000
0000
1000
0100
0000
0000
0000
,
0001
0000
0100
0000
1000
0000
0000
0000
0100
0000
0000
0001
0100
0000
0000
0000
,
1000
0000
0010
0000
0001
0000
0000
0000
0010
0000
0000
1000
0010
0000
0000
0000
,
0001
0000
0010
0000
1000
0000
0000
0000
0010
0000
0000
0001
0010
0000
0000
0000
,
1000
0000
0001
0100
1000
0100
0001
1000
,
0100
0001
0100
1000
0010
0100
0001
0000
,
1000
0010
0100
0010
0001
0010
0100
0010
,
1000
1000
0001
0001
0010
0010
0110
0000
,
0001
0000
0100
0000
1000
0000
0000
0000
0100
0000
0000
0001
0100
0000
0000
0000
,
1000
0000
0100
0000
0001
0000
0000
0000
0100
0000
0000
1000
0100
0000
0000
0000
,
0001
0000
0010
0000
1000
0000
0000
0000
0010
0000
0000
0001
0010
0000
0000
0000
,
1000
0000
0010
0000
0001
0000
0000
0000
0010
0000
0000
1000
0010
0000
0000
0000
,
0001
0000
1000
0100
0001
0100
1000
0001
,
0100
1000
0100
0001
0010
0100
1000
0000
,
0001
0010
0100
0010
1000
0010
0100
0010
,
0001
0001
1000
1000
0010
0010
0100
0100
,
0002
0000
0000
0000
,
2003
0000
0000
0000
,
3020
0000
0000
0000
,
0230
0000
0000
0000
,
0301
0100
1000
0100
,
0001
1000
0010
0000
1000
0001
0010
0100
,
1000
0100
0001
0100
,
1000
0001
0010
0000
0001
1000
0010
0100
,
0001
0100
0001
0100
1000
0100
1000
0100
,
0001
0010
0001
0010
1000
0010
1000
0010
,
0001
1000
0100
0001
1000
0010
0001
0100
,
0220
0000
0000
0330
,
1000
0100
0010
0100
1000
0100
0001
0000
,
0100
0010
1000
0010
0001
0100
0010
0000
,
0100
0001
0010
0001
0100
1000
0100
0000
,
0001
0100
0010
0100
1000
0100
0001
0010
,
0100
1000
0010
0001
1000
0100
0001
0010
,
0001
0100
0010
1000
0100
0001
0100
1000
,
0001
0100
1000
0000
0001
0010
1000
0000
,
0001
0001
1000
1000
,
0010
0010
0100
0100
0110
0000
1001
0000
,
0202
0000
0000
0303
,
0010
0000
1100
0000
0010
0001
0100
0000
,
2002
0000
0000
3003
,
0001
0000
0100
0000
1000
0000
0000
0000
0100
0000
0000
0001
0100
0000
0000
0000
,
1000
0000
0100
0000
0001
0000
0000
0000
0100
0000
0000
1000
0100
0000
0000
0000
,
0001
0000
0010
0000
1000
0000
0000
0000
0010
0000
0000
0001
0010
0000
0000
0000
,
1000
0000
0010
0000
0001
0000
0000
0000
0010
0000
0000
1000
0010
0000
0000
0000
,
0001
0000
1000
0100
0001
0100
1000
0001
,
0100
1000
0100
0001
0010
0100
1000
0000
,
0001
0010
0100
0010
1000
0010
0100
0010
,
0001
0001
1000
1000
0010
0010
0110
0000
,
1000
0000
0100
0000
0001
0000
0000
0000
0100
0000
0000
1000
0100
0000
0000
0000
,
0001
0000
0100
0000
1000
0000
0000
0000
0100
0000
0000
0001
0100
0000
0000
0000
,
1000
0000
0010
0000
0001
0000
0000
0000
0010
0000
0000
1000
0010
0000
0000
0000
,
0001
0000
0010
0000
1000
0000
0000
0000
0010
0000
0000
0001
0010
0000
0000
0000
,
1000
0000
0001
0100
1000
0100
0001
1000
,
0100
0001
0100
1000
0010
0100
0001
0000
,
1000
0010
0100
0010
0001
0010
0100
0010
,
1000
1000
0010
0010
0100
0100
0110
0000
,
0001
0010
0100
0010
1000
0010
0100
0010
,
0001
0001
1000
1000
0010
0010
0110
0000
,
1000
0100
0001
1000
0010
0001
0100
1000
,
0001
0010
1000
1000
0010
0010
0100
0100
,
2002
0000
0000
0000
,
3003
0000
0000
0000
;

//---------------dance-single - NewbStepper-BSP----------------
#NOTEDATA:;
#CHARTNAME:NewbStepper-BSP;
#STEPSTYPE:dance-single;
#DESCRIPTION:NewbStepper-BSP;
#DIFFICULTY:Easy;
#METER:9;
#RADARVALUES:0.370744,0.416440,0.293146,0.163817,0,301,267,34,19,0,0,0,0,0,0.370744,0.416440,0.293146,0.163817,0,301,267,34,19,0,0,0,0,0;
#CREDIT:NewbStepper;
#NOTES:
0000
0000
0000
0000
,
0000
0000
0000
0000
,
0000
0000
0000
0000
,
0000
0000
0000
0000
,
0000
0000
0000
0000
,
1000
0000
0000
0000
,
0001
0000
0000
0000
,
0020
0000
0000
0000
,
0200
0000
0000
0330
,
1010
0000
1000
0000
0001
0100
0010
0000
,
0110
0000
0001
0000
1000
0100
0010
0000
,
0011
0000
0001
0000
1000
0100
0001
0000
,
0101
0000
1000
0000
0010
1000
0100
0000
,
0110
0000
0001
0100
0001
0000
0010
0000
,
1000
0100
1000
0000
0010
0000
0001
0000
,
0100
0000
0010
1000
0001
1000
0010
0000
,
2002
0000
0000
3003
,
0011
0000
0001
0000
1000
0100
0010
0000
,
0110
0000
1000
0000
0001
0100
0010
0000
,
1010
0000
1000
0000
0001
0100
1000
0000
,
1100
0000
0001
0000
0010
0001
0100
0000
,
0110
0000
1000
0100
1000
0000
0010
0000
,
0001
0100
0001
0000
0010
0000
1000
0000
,
0100
0000
0010
0001
1000
0001
0010
0000
,
2002
0000
0000
3003
,
0100
0000
0000
0000
,
0010
0000
0000
0000
,
1000
0000
0000
0000
,
0100
0000
0000
0000
,
0010
0001
0010
0000
0001
0000
0101
0000
,
0010
1000
0010
0000
1000
0000
1100
0000
,
0010
0001
1000
0000
0010
0000
1001
0000
,
0010
1000
0001
0000
0010
0000
1001
0000
,
1000
0100
0001
0000
0100
0010
0001
0000
,
0001
0100
1000
0000
0100
0010
1000
0000
,
0001
1000
0010
0000
1000
0001
0010
0000
,
2002
0000
0000
3003
,
0010
0001
0010
0001
0010
0000
0100
0000
,
0010
1000
0010
1000
0010
0000
0100
0000
,
1000
0001
1000
0001
1000
0000
0010
0000
,
0001
1000
0001
1000
0001
0000
0010
0000
,
1000
0100
0001
1000
,
0010
0101
0010
1100
,
0010
0001
0100
0000
0010
1000
0100
0000
,
0010
0010
0001
0001
,
1000
1000
0010
0010
,
0200
0000
0000
0300
,
0001
0100
0010
1000
,
2002
0000
0000
3003
,
0011
0000
0001
0000
1000
0100
0010
0000
,
0110
0000
1000
0000
0001
0100
0010
0000
,
1010
0000
1000
0000
0001
0100
1000
0000
,
1100
0000
0001
0000
0010
0001
0100
0000
,
0110
0000
1000
0100
1000
0000
0010
0000
,
0001
0100
0001
0000
0010
0000
1000
0000
,
0100
0000
0010
0001
1000
0001
0010
0000
,
2002
0000
0000
3003
,
1010
0000
1000
0000
0001
0100
0010
0000
,
0110
0000
0001
0000
1000
0100
0010
0000
,
0011
0000
0001
0000
1000
0100
0001
0000
,
0101
0000
1000
0000
0010
1000
0100
0000
,
0110
0000
0001
0100
0001
0000
0010
0000
,
1000
0100
1000
0000
0010
0000
0001
0000
,
0100
0000
0010
1000
0001
1000
0010
0000
,
2002
0000
0000
3003
,
0100
0000
0010
0001
1000
0001
0010
0000
,
2002
0000
0000
3003
,
1000
0100
1000
0100
0010
0001
0010
0001
,
2000
3100
0002
0013
,
1001
0000
0000
0000
;

//---------------dance-single - NewbStepper-bSP----------------
#NOTEDATA:;
#CHARTNAME:NewbStepper-bSP;
#STEPSTYPE:dance-single;
#DESCRIPTION:NewbStepper-bSP;
#DIFFICULTY:Beginner;
#METER:4;
#RADARVALUES:0.167512,0.237966,0.060354,0.103463,0,136,129,7,12,0,0,0,0,0,0.167512,0.237966,0.060354,0.103463,0,136,129,7,12,0,0,0,0,0;
#CREDIT:NewbStepper;
#NOTES:
0000
0000
0000
0000
,
0000
0000
0000
0000
,
0000
0000
0000
0000
,
0000
0000
0000
0000
,
0000
0000
0000
0000
,
0001
0000
0000
0000
,
0000
0000
0000
0000
,
2000
0000
0000
0000
,
3000
0000
0000
0000
,
0001
0000
0000
0000
,
0100
0100
0100
0000
,
1000
0000
0000
0000
,
0100
0100
0100
0000
,
0001
0000
0001
0000
,
1000
0000
1000
0000
,
0010
0010
0010
0010
,
0020
0000
0030
0000
,
1000
0000
0000
0000
,
0100
0100
0100
0000
,
0001
0000
0000
0000
,
0100
0100
0100
0000
,
1000
0000
1000
0000
,
0001
0000
0001
0000
,
0010
0010
0010
0010
,
0020
0000
0030
0000
,
1001
0000
0000
0000
,
0000
0000
0000
0000
,
0000
0000
0000
0000
,
0000
0000
0000
0000
,
1000
0100
1000
0000
,
0001
0100
0001
0000
,
0010
0100
0010
0000
,
0001
1000
0001
0000
,
1000
1000
0100
0000
,
0001
0001
0100
0000
,
0100
0100
0010
0000
,
2002
0000
3003
0000
,
0001
0100
0000
0100
,
1000
0100
0000
0001
,
0100
0001
0000
1000
,
0100
1000
0000
0001
,
0100
0000
1001
0000
,
0100
0000
1001
0000
,
0010
0000
1001
0000
,
0001
0000
0001
0000
,
1000
0000
1000
0000
,
0020
0000
0030
0000
,
1000
0000
0000
0000
,
2002
0000
3003
0000
,
1000
0000
0000
0000
,
0010
0010
0010
0000
,
0001
0000
0000
0000
,
0010
0010
0010
0000
,
1000
0000
1000
0000
,
0001
0000
0001
0000
,
0100
0100
0100
0100
,
0200
0000
0300
0000
,
0001
0000
0000
0000
,
0010
0010
0010
0000
,
1000
0000
0000
0000
,
0010
0010
0010
0000
,
0001
0000
0001
0000
,
1000
0000
1000
0000
,
0100
0100
0100
0100
,
0200
0000
0300
0000
,
0001
0001
0001
0001
,
0002
0000
0003
0000
,
1000
1000
1000
1000
,
2000
0000
3000
0000
,
1001
0000
0000
0000
;

//---------------dance-double - NewbStepper-EDP----------------
#NOTEDATA:;
#CHARTNAME:NewbStepper-EDP;
#STEPSTYPE:dance-double;
#DESCRIPTION:NewbStepper-EDP;
#DIFFICULTY:Hard;
#METER:16;
#RADARVALUES:0.772281,0.875128,0.465585,0.103463,0.530250,627,573,54,12,0,0,0,0,0,0.772281,0.875128,0.465585,0.103463,0.530250,627,573,54,12,0,0,0,0,0;
#CREDIT:NewbStepper;
#NOTES:
// measure 0
00000000
00000000
00000000
00000000
,  // measure 1
00000000
00000000
00000000
00000000
,  // measure 2
00000000
00000000
00000000
00000000
,  // measure 3
00000000
00000000
00000000
00000000
,  // measure 4
00000000
00000000
00000000
00000000
,  // measure 5
00002200
00000300
00003002
00000203
,  // measure 6
00002300
00000000
00000000
00003000
,  // measure 7
00010000
00001000
00100000
00010000
00001000
00000100
00000010
00001000
,  // measure 8
00010000
00001000
00100000
00001000
00010000
00100000
01000000
00010000
10000000
01000000
00100000
00010000
10000000
00100000
01000000
00010000
,  // measure 9
00100000
00001000
00010000
00001000
00100000
00000000
00010000
00000000
01000000
00000000
00100000
10000000
01000000
00000000
00010000
00000000
,  // measure 10
00011000
00011000
00000100
00000010
00000110
00000110
00001001
00000000
,  // measure 11
00001000
00000100
00000010
00000100
00001000
00000000
00000001
00000000
00000101
00000000
00000100
00000000
00001100
00000000
00001000
00000000
,  // measure 12
00011000
00000000
00010000
00000100
00001000
00000000
00000010
00000000
00010000
00000000
00100000
00000000
10000000
00000000
00000000
00000000
,  // measure 13
00010000
10000000
01000000
10000000
00010000
00000000
01000000
00000000
00100000
00000000
00010000
00001000
00000010
00000000
00000100
00000000
,  // measure 14
00010000
00000010
00000100
00001000
00010000
00000000
00001000
00000000
00000010
00000000
00000100
00000000
00001001
00000000
00000000
00000000
,  // measure 15
00000010
00001000
00000001
00001000
00000010
00000000
00000100
00000000
00000100
00000000
00001000
00000000
00001000
00000000
00010000
00000000
,  // measure 16
00100000
00000000
10000000
00000000
01000000
00000000
00100000
00000000
00010000
01000000
00010000
00100000
00001000
00010000
00000100
00001000
,  // measure 17
00000010
00010000
00001000
00010000
00000010
00000000
00001000
00000000
00000100
00000000
00000010
00000001
00000100
00000000
00001000
00000000
,  // measure 18
00011000
00011000
01000000
00100000
01100000
01100000
10010000
00000000
,  // measure 19
00010000
01000000
00100000
01000000
00010000
00000000
10000000
00000000
11000000
00000000
01000000
00000000
01010000
00000000
00010000
00000000
,  // measure 20
00011000
00000000
00001000
01000000
00010000
00000000
00100000
00000000
00001000
00000000
00000010
00000000
00000001
00000000
00000000
00000000
,  // measure 21
00001000
00000001
00000100
00000001
00001000
00000000
00000100
00000000
00000010
00000000
00001000
00010000
00100000
00000000
01000000
00000000
,  // measure 22
00001000
00100000
01000000
00010000
00001000
00000000
00010000
00000000
00100000
00000000
01000000
00000000
10010000
00000000
00000000
00000000
,  // measure 23
00100000
00010000
10000000
00010000
00100000
00000000
01000000
00000000
01000000
00000000
00010000
00000000
00010000
00000000
00001000
00000000
,  // measure 24
00001000
00000000
00000010
00000000
00000001
00000000
00000010
00000000
00001000
00010000
00001000
01000000
00010000
00100000
01000000
10000000
,  // measure 25
00200000
00000000
00000000
00000000
,  // measure 26
00320000
00000000
00000000
00000000
,  // measure 27
00032000
00000000
00000000
00000000
,  // measure 28
00003020
00000000
00000000
00000000
,  // measure 29
00000031
00000100
00001000
00010000
00000100
00000010
00000100
00010000
,  // measure 30
00011000
00001000
00101000
01000000
11000000
00100000
01010000
00000000
,  // measure 31
10000000
01000000
00010000
00001000
01000000
00100000
01000000
00001000
,  // measure 32
00011000
00010000
00010010
00000100
00000101
00000010
00001001
00000000
,  // measure 33
00000001
00000100
00001000
00000000
00000100
00000000
00000010
00010000
00001000
00000000
00000010
00000000
00000100
00000000
00010000
00000000
,  // measure 34
00001000
00100000
00010000
00000000
00001000
00000000
00000100
00000010
00001000
00000000
00010000
00000000
00100000
00000000
10000000
00000000
,  // measure 35
00010000
01000000
00010000
00000000
00100000
00000000
01000000
00010000
00001000
00000000
00000100
00000000
00001000
00000000
00010000
00000000
,  // measure 36
00001000
00100000
01000000
00010000
00001000
01000000
00010000
00100000
00001000
00010000
00100000
01000000
00001000
00010000
00000100
00000000
,  // measure 37
00001000
00000010
00000100
00000000
00000001
00000000
00000010
00001000
00010000
00000000
00000100
00000000
00000010
00001000
00010000
00000000
,  // measure 38
01000000
00010000
00100000
00000000
10000000
00000000
00100000
00010000
00100000
00000000
00001000
00000000
01000000
00010000
10000000
00000000
,  // measure 39
00010000
00100000
01000000
00000000
10000000
00000000
00100000
00010000
00001000
00000000
01000000
00000000
00100000
00010000
00001000
00000000
,  // measure 40
00000100
00000000
00010000
00000000
00001000
00000000
00000010
00000000
00000001
00000000
00000100
00000000
00001000
00000000
00010000
00100000
,  // measure 41
00010000
00001000
00100000
01000000
11000000
10000000
10100000
00000000
,  // measure 42
00010000
00100000
00001000
00000100
00000010
00000100
00001000
00000100
,  // measure 43
00000110
00000001
00000101
00000010
00001100
00000010
00001000
00010000
,  // measure 44
01100000
10000000
11000000
00100000
01010000
00100000
00010000
00001000
,  // measure 45
00000010
00000001
00000100
00001000
00010000
01000000
00010000
00000000
,  // measure 46
00022000
00000000
00000000
00033000
,  // measure 47
01000000
10000000
00100000
00010000
00001000
00000010
00000001
00000100
,  // measure 48
00000010
00001000
00000100
00010000
00001000
00100000
00010000
01000000
00100000
10000000
00010000
00100000
00001000
00010000
00000100
00001000
,  // measure 49
00000010
00010000
00001000
00010000
00000010
00000000
00001000
00000000
00000100
00000000
00000010
00000001
00000100
00000000
00001000
00000000
,  // measure 50
00011000
00011000
01000000
00100000
01100000
01100000
10010000
00000000
,  // measure 51
00010000
01000000
00100000
01000000
00010000
00000000
10000000
00000000
11000000
00000000
01000000
00000000
01010000
00000000
00010000
00000000
,  // measure 52
00011000
00000000
00001000
01000000
00010000
00000000
00100000
00000000
00001000
00000000
00000010
00000000
00000001
00000000
00000000
00000000
,  // measure 53
00001000
00000001
00000100
00000001
00001000
00000000
00000100
00000000
00000010
00000000
00001000
00010000
00100000
00000000
01000000
00000000
,  // measure 54
00001000
00100000
01000000
00010000
00001000
00000000
00010000
00000000
00100000
00000000
01000000
00000000
10010000
00000000
00000000
00000000
,  // measure 55
00100000
00010000
10000000
00010000
00100000
00000000
01000000
00000000
01000000
00000000
00010000
00000000
00010000
00000000
00001000
00000000
,  // measure 56
00000010
00000000
00000001
00000000
00000100
00000000
00000010
00000000
00001000
00000100
00001000
00000010
00010000
00001000
01000000
00010000
,  // measure 57
00100000
00001000
00010000
00001000
00100000
00000000
00010000
00000000
01000000
00000000
00100000
10000000
01000000
00000000
00010000
00000000
,  // measure 58
00011000
00011000
00000100
00000010
00000110
00000110
00001001
00000000
,  // measure 59
00001000
00000100
00000010
00000100
00001000
00000000
00000001
00000000
00000101
00000000
00000100
00000000
00001100
00000000
00001000
00000000
,  // measure 60
00011000
00000000
00010000
00000100
00001000
00000000
00000010
00000000
00010000
00000000
00100000
00000000
10000000
00000000
00000000
00000000
,  // measure 61
00010000
10000000
01000000
10000000
00010000
00000000
01000000
00000000
00100000
00000000
00010000
00001000
00000010
00000000
00000100
00000000
,  // measure 62
00010000
00000010
00000100
00001000
00010000
00000000
00001000
00000000
00000010
00000000
00000100
00000000
00001001
00000000
00000000
00000000
,  // measure 63
00000010
00001000
00000001
00001000
00000010
00000000
00000100
00000000
00000100
00000000
00001000
00000000
00001000
00000000
00010000
00000000
,  // measure 64
00010000
00000000
00100000
00000000
10000000
00000000
00100000
00000000
00010000
00001000
00010000
00000010
00001000
00000100
00010000
00001000
,  // measure 65
00100000
00010000
10000000
00010000
00100000
00000000
01000000
00000000
01000000
00000000
00010000
00000000
00010000
00000000
00001000
00000000
,  // measure 66
00001000
00000000
00000010
00000000
00000001
00000000
00000010
00000000
00001000
00010000
00001000
00100000
00010000
01000000
00001000
00010000
,  // measure 67
00000010
00001000
00000001
00001000
00000010
00000000
00000100
00000000
00000100
00000000
00001000
00000000
00001000
00000000
00010000
00000000
,  // measure 68
00010000
00001000
01000000
00010000
01000000
00001000
00010000
00100000
10000000
00010000
00100000
00001000
00010000
00001000
00000010
00000001
,  // measure 69
00000200
00000000
00000000
00000000
,  // measure 70
00000300
00000000
00000000
00000000
;

//---------------dance-double - NewbStepper-DDP----------------
#NOTEDATA:;
#CHARTNAME:NewbStepper-DDP;
#STEPSTYPE:dance-double;
#DESCRIPTION:NewbStepper-DDP;
#DIFFICULTY:Medium;
#METER:12;
#RADARVALUES:0.472976,0.543183,0.068976,0.120707,0.068976,384,376,8,14,0,0,0,0,0,0.472976,0.543183,0.068976,0.120707,0.068976,384,376,8,14,0,0,0,0,0;
#CREDIT:NewbStepper;
#NOTES:
// measure 0
00000000
00000000
00000000
00000000
,  // measure 1
00000000
00000000
00000000
00000000
,  // measure 2
00000000
00000000
00000000
00000000
,  // measure 3
00000000
00000000
00000000
00000000
,  // measure 4
00000000
00000000
00000000
00000000
,  // measure 5
20000000
00000000
30100000
01000000
,  // measure 6
00020000
00000000
00000000
00030000
,  // measure 7
10000000
01000000
00010000
00001000
,  // measure 8
00000100
00000010
00001000
00000100
00000001
00000100
00001000
00000000
,  // measure 9
00000001
00000000
00000100
00000000
00001000
00000000
00000000
00000000
00010000
00000000
00000000
00100000
00010000
00000000
00000000
00000000
,  // measure 10
00001000
00000000
00100000
00000000
01000000
00000000
00000000
00000000
00010000
00000000
00000000
00001000
00010000
00000000
00000000
00000000
,  // measure 11
00100000
00000000
00010000
00000000
00001000
00000000
00000000
00000000
00100000
00000000
00000000
00010000
00100000
00000000
00000000
00000000
,  // measure 12
00010000
00000000
01000000
00000000
10000000
00000000
00000000
00000000
01000000
00000000
00000000
00100000
01000000
00000000
00000000
00000000
,  // measure 13
00010000
00000000
00100000
00001000
00010000
01000000
00100000
01000000
,  // measure 14
00010000
00001000
00000100
00000010
00001000
00000001
00000010
00000000
,  // measure 15
00001000
00010000
00000010
00010000
00001000
00100000
00001000
00010000
,  // measure 16
00100000
00100000
01000000
01000000
00010000
00010000
10010000
00000000
,  // measure 17
10000000
00000000
01000000
00000000
00010000
00000000
00000000
00000000
00001000
00000000
00000000
00000010
00001000
00000000
00000000
00000000
,  // measure 18
00010000
00000000
00000010
00000000
00000100
00000000
00000000
00000000
00001000
00000000
00000000
00010000
00001000
00000000
00000000
00000000
,  // measure 19
00000010
00000000
00001000
00000000
00010000
00000000
00000000
00000000
00000010
00000000
00000000
00001000
00000010
00000000
00000000
00000000
,  // measure 20
00001000
00000000
00000100
00000000
00000001
00000000
00000000
00000000
00000100
00000000
00000000
00000010
00000100
00000000
00000000
00000000
,  // measure 21
00001000
00000000
00000010
00010000
00001000
00000100
00000010
00000100
,  // measure 22
00001000
00010000
01000000
00100000
00010000
10000000
00100000
00000000
,  // measure 23
00010000
00001000
00100000
00001000
00010000
00000010
00010000
00001000
,  // measure 24
00000010
00000010
00000100
00000100
00001000
00001000
00000001
00000001
,  // measure 25
00000020
00000000
00000000
00000000
,  // measure 26
00002030
00000000
00000000
00000000
,  // measure 27
00023000
00000000
00000000
00000000
,  // measure 28
00230000
00000000
00000000
00000000
,  // measure 29
10300000
01000000
00010000
01000000
,  // measure 30
10000000
00010000
00100000
00000000
01000000
00010000
00001000
00000010
,  // measure 31
00000001
00000100
00001000
00000100
,  // measure 32
00000001
00001000
00000010
00000000
00000100
00001000
00010000
00100000
,  // measure 33
10000000
01000000
10000000
01000000
00010000
00001000
00010000
00001000
,  // measure 34
00000100
00000001
00000100
00000001
00000010
00001000
00000010
00001000
,  // measure 35
00010000
00100000
00010000
00100000
10000000
00010000
10000000
01000000
,  // measure 36
02200000
00000000
00000000
03300000
,  // measure 37
00010000
00001000
00100000
00001000
00010000
00000010
00010000
00000000
,  // measure 38
00000100
00000010
00001000
00000010
00000001
00000100
00000010
00000000
,  // measure 39
00001000
00000100
00000010
00001000
00010000
00100000
01000000
00000000
,  // measure 40
00010000
00100000
01000000
10000000
00100000
00010000
00001000
00100000
,  // measure 41
00010000
01000000
00100000
00010000
00001000
00100000
00001000
00010000
,  // measure 42
00000010
00000100
00000001
00000100
00001000
00010000
00001000
00000010
,  // measure 43
00000100
00010000
00001000
00000000
01000000
00001000
00010000
00000000
,  // measure 44
00100000
00100000
00010000
00010000
,  // measure 45
00001000
00001000
00000100
00000100
,  // measure 46
00000220
00000000
00000000
00000330
,  // measure 47
00000001
00001000
00010000
10000000
,  // measure 48
02200000
00000000
00000000
03300000
,  // measure 49
10000000
00000000
01000000
00000000
00010000
00000000
00000000
00000000
00001000
00000000
00000000
00000010
00001000
00000000
00000000
00000000
,  // measure 50
00010000
00000000
00000010
00000000
00000100
00000000
00000000
00000000
00001000
00000000
00000000
00010000
00001000
00000000
00000000
00000000
,  // measure 51
00000010
00000000
00001000
00000000
00010000
00000000
00000000
00000000
00000010
00000000
00000000
00001000
00000010
00000000
00000000
00000000
,  // measure 52
00001000
00000000
00000100
00000000
00000001
00000000
00000000
00000000
00000100
00000000
00000000
00000010
00000100
00000000
00000000
00000000
,  // measure 53
00001000
00000000
00000010
00010000
00001000
00000100
00000010
00000100
,  // measure 54
00001000
00010000
01000000
00100000
00010000
10000000
00100000
00000000
,  // measure 55
00010000
00001000
00100000
00001000
00010000
00000010
00010000
00001000
,  // measure 56
00000010
00000010
00000100
00000100
00001000
00001000
00001001
00000000
,  // measure 57
00000001
00000000
00000100
00000000
00001000
00000000
00000000
00000000
00010000
00000000
00000000
00100000
00010000
00000000
00000000
00000000
,  // measure 58
00001000
00000000
00100000
00000000
01000000
00000000
00000000
00000000
00010000
00000000
00000000
00001000
00010000
00000000
00000000
00000000
,  // measure 59
00100000
00000000
00010000
00000000
00001000
00000000
00000000
00000000
00100000
00000000
00000000
00010000
00100000
00000000
00000000
00000000
,  // measure 60
00010000
00000000
01000000
00000000
10000000
00000000
00000000
00000000
01000000
00000000
00000000
00100000
01000000
00000000
00000000
00000000
,  // measure 61
00010000
00000000
00100000
00001000
00010000
01000000
00100000
01000000
,  // measure 62
00010000
00001000
00000100
00000010
00001000
00000001
00000010
00000000
,  // measure 63
00001000
00010000
00000010
00010000
00001000
00100000
00001000
00010000
,  // measure 64
00100000
00100000
01000000
01000000
00010000
00010000
10010000
00000000
,  // measure 65
10000000
01000000
00100000
01000000
00010000
00001000
00000100
00000001
,  // measure 66
00000010
00000010
00000100
00000100
00001000
00001000
00001001
00000000
,  // measure 67
00000010
00000001
00000100
00001000
00000001
00000010
00001000
00000100
,  // measure 68
00010000
00001000
00000010
00000100
00010000
00001000
01000000
00100000
,  // measure 69
02200000
00000000
00000000
00000000
,  // measure 70
03300000
00000000
00000000
00000000
;

//---------------dance-double - NewbStepper-BDP----------------
#NOTEDATA:;
#CHARTNAME:NewbStepper-BDP;
#STEPSTYPE:dance-double;
#DESCRIPTION:NewbStepper-BDP;
#DIFFICULTY:Easy;
#METER:9;
#RADARVALUES:0.370744,0.416440,0.293146,0.163817,0,301,267,34,19,0,0,0,0,0,0.370744,0.416440,0.293146,0.163817,0,301,267,34,19,0,0,0,0,0;
#CREDIT:NewbStepper;
#NOTES:
// measure 0
00000000
00000000
00000000
00000000
,  // measure 1
00000000
00000000
00000000
00000000
,  // measure 2
00000000
00000000
00000000
00000000
,  // measure 3
00000000
00000000
00000000
00000000
,  // measure 4
00000000
00000000
00000000
00000000
,  // measure 5
10000000
00000000
00000000
00000000
,  // measure 6
00010000
00000000
00000000
00000000
,  // measure 7
00200000
00000000
00000000
00000000
,  // measure 8
02000000
00000000
00000000
03300000
,  // measure 9
01010000
00000000
00001000
00000000
00010000
00001000
00000010
00000000
,  // measure 10
00001100
00000000
00010000
00000000
00001000
00010000
00100000
00000000
,  // measure 11
01100000
00000000
00010000
00000000
10000000
01000000
00010000
00000000
,  // measure 12
00000110
00000000
00001000
00000000
00000001
00000100
00001000
00000000
,  // measure 13
00011000
00000000
00100000
01000000
00100000
00000000
10000000
00000000
,  // measure 14
00010000
01000000
00010000
00000000
00100000
00000000
01000000
00000000
,  // measure 15
00010000
00000000
00001000
00000010
00000100
00000010
00000100
00000000
,  // measure 16
00002002
00000000
00000000
00003003
,  // measure 17
00001100
00000000
00010000
00000000
00001000
00010000
00100000
00000000
,  // measure 18
01010000
00000000
00001000
00000000
00010000
00001000
00000010
00000000
,  // measure 19
00000110
00000000
00001000
00000000
00000001
00000100
00001000
00000000
,  // measure 20
01100000
00000000
00010000
00000000
10000000
01000000
00010000
00000000
,  // measure 21
00011000
00000000
00000010
00000100
00000010
00000000
00000001
00000000
,  // measure 22
00001000
00000100
00001000
00000000
00000010
00000000
00000100
00000000
,  // measure 23
00001000
00000000
00010000
00100000
01000000
00100000
01000000
00000000
,  // measure 24
20020000
00000000
00000000
30030000
,  // measure 25
10000000
00000000
00000000
00000000
,  // measure 26
01000000
00000000
00000000
00000000
,  // measure 27
00100000
00000000
00000000
00000000
,  // measure 28
00010000
00000000
00000000
00000000
,  // measure 29
00100000
00001000
00100000
00000000
00001000
00000000
00011000
00000000
,  // measure 30
00000010
00010000
00000010
00000000
00010000
00000000
00011000
00000000
,  // measure 31
00000010
00000001
00000100
00000000
00001000
00000000
00011000
00000000
,  // measure 32
00100000
10000000
01000000
00000000
00010000
00000000
00011000
00000000
,  // measure 33
00001000
00000010
00000001
00000000
00000010
00000100
00001000
00000000
,  // measure 34
00000100
00000010
00001000
00000000
00010000
00001000
00100000
00000000
,  // measure 35
00010000
01000000
10000000
00000000
01000000
00100000
01000000
00000000
,  // measure 36
20020000
00000000
00000000
30030000
,  // measure 37
00100000
10000000
00100000
10000000
00100000
00000000
01000000
00000000
,  // measure 38
00001000
00010000
00001000
00010000
00001000
00000000
00000100
00000000
,  // measure 39
00000010
00001000
00000010
00001000
00000010
00000000
00000100
00000000
,  // measure 40
00000001
00001000
00000001
00001000
00000001
00000000
00000010
00000000
,  // measure 41
00001000
00010000
01000000
10000000
,  // measure 42
00100000
11000000
00100000
01010000
,  // measure 43
10000000
00100000
00010000
00000000
00001000
00000010
00000001
00000000
,  // measure 44
00000100
00000100
00001000
00001000
,  // measure 45
00010000
00010000
01000000
01000000
,  // measure 46
00200000
00000000
00000000
00300000
,  // measure 47
00001000
00010000
00000100
00000010
,  // measure 48
00000220
00000000
00000000
00000330
,  // measure 49
00001100
00000000
00010000
00000000
00001000
00010000
00100000
00000000
,  // measure 50
01010000
00000000
00001000
00000000
00010000
00001000
00000010
00000000
,  // measure 51
00000110
00000000
00001000
00000000
00000001
00000100
00001000
00000000
,  // measure 52
01100000
00000000
00010000
00000000
10000000
01000000
00010000
00000000
,  // measure 53
00011000
00000000
00000010
00000100
00000010
00000000
00000001
00000000
,  // measure 54
00001000
00000100
00001000
00000000
00000010
00000000
00000100
00000000
,  // measure 55
00001000
00000000
00010000
00100000
01000000
00100000
01000000
00000000
,  // measure 56
20020000
00000000
00000000
30030000
,  // measure 57
01010000
00000000
00001000
00000000
00010000
00001000
00000010
00000000
,  // measure 58
00001100
00000000
00010000
00000000
00001000
00010000
00100000
00000000
,  // measure 59
01100000
00000000
00010000
00000000
10000000
01000000
00010000
00000000
,  // measure 60
00000110
00000000
00001000
00000000
00000001
00000100
00001000
00000000
,  // measure 61
00011000
00000000
00100000
01000000
00100000
00000000
10000000
00000000
,  // measure 62
00010000
01000000
00010000
00000000
00100000
00000000
01000000
00000000
,  // measure 63
00010000
00000000
00001000
00000010
00000100
00000010
00000100
00000000
,  // measure 64
00000220
00000000
00000000
00000330
,  // measure 65
00001000
00000000
00010000
00100000
01000000
00100000
01000000
00000000
,  // measure 66
02200000
00000000
00000000
03300000
,  // measure 67
10000000
01000000
10000000
01000000
00100000
00010000
00100000
00010000
,  // measure 68
00200000
00301000
00000020
00001030
,  // measure 69
00011000
00000000
00000000
00000000
;
