#TITLE:not eternity;
#ARTIST:猫叉Master;
#ARTISTTRANSLIT:Nekomata Master;
#BANNER:not eternity.png;
#BACKGROUND:not eternity-bg.png;
#MUSIC:not eternity.ogg;
#OFFSET:-0.368;
#SAMPLESTART:59.064;
#SAMPLELENGTH:15;
#BPMS:0=92;

//---------------dance-single - Marten-ESP----------------
#NOTES:
     dance-single:
     Marten:
     Hard:
     9:
     0.311074,0.304673,0.206102,0.663112,0.017922,243,220,23,74,0,0,0.311074,0.304673,0.206102,0.663112,0.017922,243,220,23,74,0,0:
// measure 0
0000
0000
0000
0000
,  // measure 1
0000
0000
0000
0000
0000
0000
0000
0001
,  // measure 2
1000
0000
1010
0000
1001
0000
0010
0001
,  // measure 3
1000
0000
0010
1000
0001
0000
0100
0000
,  // measure 4
0001
0000
0011
0000
1001
0000
1000
0100
,  // measure 5
0001
0100
1000
0010
0200
0000
0300
0001
,  // measure 6
0200
0000
0302
0000
2003
0000
3001
0010
,  // measure 7
1000
0000
1000
0010
0001
0000
1000
0000
,  // measure 8
0020
0000
2030
0000
3002
0000
0013
0001
,  // measure 9
0100
1000
0100
0001
2000
0000
0000
3000
,  // measure 10
2020
3030
0202
0303
,  // measure 11
0001
1000
0100
0001
0000
0100
1000
0001
,  // measure 12
1000
0010
0001
0010
0000
0100
0001
1000
,  // measure 13
0001
0010
1000
0010
0000
0100
1000
0001
,  // measure 14
0100
1000
0100
0001
0000
1000
1001
0000
,  // measure 15
0020
0100
0230
0001
0302
1000
2003
3200
,  // measure 16
0320
0000
1000
0000
0031
0000
0001
0010
,  // measure 17
0021
0100
0230
1000
2300
0001
3001
0100
,  // measure 18
1000
0100
0002
0000
1000
0000
0203
0000
,  // measure 19
0302
0000
0000
0010
0000
0000
0023
0000
0000
1000
0000
0000
2030
0000
0000
0010
0000
0000
3000
0000
0000
0010
0000
0001
,  // measure 20
2000
0000
0010
0000
0100
0000
3001
1000
,  // measure 21
1200
0010
0320
1000
2030
0010
3020
0001
,  // measure 22
0032
1003
0020
0230
,  // measure 23
1300
0100
0001
1000
0100
0001
0100
1000
,  // measure 24
0001
0000
0000
0100
0000
0010
0200
0000
0000
0000
0000
0000
0300
0000
0000
0000
0000
0000
0001
0000
0000
0010
0000
0000
,  // measure 25
1000
0010
0001
1000
0010
0001
0010
1000
,  // measure 26
0001
0000
0000
0010
0000
0100
1000
0000
0000
0000
0000
0000
2000
0000
0000
0000
0000
0000
3200
0000
0000
0000
0000
0000
,  // measure 27
0301
0100
1000
0001
0100
1000
0100
0010
,  // measure 28
1000
0000
0000
0001
0000
0010
0002
0000
0000
0000
0000
0000
1003
0000
0000
0000
0000
0000
0010
0000
0000
1000
0000
0000
,  // measure 29
0001
0010
0100
0001
0200
0000
1300
0000
,  // measure 30
2200
3300
0220
0330
0022
0033
1000
0010
,  // measure 31
0002
0003
0001
0010
2000
0000
3001
0000
,  // measure 32
0202
0303
0220
0330
2020
3030
0001
0010
,  // measure 33
1000
0001
1000
0010
0002
0000
1003
0010
,  // measure 34
2020
3030
0220
0330
0202
0303
1000
0100
,  // measure 35
0002
0003
0001
0100
2000
0000
3001
0000
,  // measure 36
0202
0303
0220
0330
2020
3030
0001
0100
,  // measure 37
1000
0001
1000
0100
0002
0000
1003
0100
,  // measure 38
0010
0001
0200
0000
0000
0300
0220
0330
,  // measure 39
2002
0000
0000
0000
,  // measure 40
3003
0000
0000
0000
;

//---------------dance-single - Marten-DSP----------------
#NOTES:
     dance-single:
     Marten:
     Medium:
     7:
     0.245787,0.250907,0.062727,0.492854,0,192,185,7,55,0,0,0.245787,0.250907,0.062727,0.492854,0,192,185,7,55,0,0:
0000
0000
0000
0000
,
0000
0000
0000
0000
0000
0000
0000
1000
,
0100
0000
1100
0000
1001
0000
0001
0100
,
0001
0000
1000
0100
1000
0000
0010
0000
,
0100
0000
0101
0000
1001
0000
0001
0100
,
0001
0000
0010
0100
1000
0000
0000
0010
,
2000
0000
3002
0000
2003
0000
3100
1000
,
0200
0000
0310
0001
0020
0000
0130
0000
,
2000
0000
3020
0000
0230
0000
0301
0100
,
0001
1000
0100
1000
0200
0000
0300
0000
,
0022
0033
2200
3300
,
1000
0010
0000
0100
0000
0001
0000
1000
,
0100
1000
0000
0001
0000
0010
0000
0100
,
1000
0100
0000
0010
0000
0001
0000
1000
,
0010
1000
0000
0001
0000
0010
0000
0100
,
2000
0000
3002
0000
2003
0000
3010
0100
,
0002
0000
1000
0000
0103
0000
0001
1000
,
0020
0000
2030
0000
3200
0000
1300
0001
,
0100
0001
2000
0000
0000
0000
3020
0000
,
0230
0000
0302
0000
2003
0000
3100
1000
,
0020
0000
1000
0000
0130
0000
0010
1000
,
0002
0023
0230
2300
,
3002
0003
2000
3002
,
1003
0100
1000
0001
0100
0001
1000
0000
,
0010
0010
0200
0000
0300
0000
0001
1000
,
0001
0010
0001
1000
0010
1000
0001
0000
,
0010
0010
0100
0000
2000
0000
3002
0000
,
1003
0001
1000
0010
0100
0010
0100
0000
,
0001
0001
2000
0000
3001
0000
1000
0100
,
0010
0001
2000
3001
,
0200
0000
0302
0000
2003
0000
3010
1000
,
0010
0000
0100
0001
0100
0000
0001
0000
,
0200
0000
0302
0000
2003
0000
3001
0010
,
0001
0000
1000
0001
0020
0000
0030
0010
,
0200
0000
2300
0000
3002
0000
0013
0001
,
0010
0000
0100
1000
0100
0000
1000
0000
,
0200
0000
2300
0000
3002
0000
1003
0010
,
1000
0000
0001
1000
0020
0000
0030
0100
,
0010
0100
0002
0000
0000
0000
1003
0000
,
0220
0000
0000
0000
,
0330
0000
0000
0000
;

//---------------dance-single - Marten-BSP----------------
#NOTES:
     dance-single:
     Marten:
     Easy:
     5:
     0.180500,0.179219,0.044805,0.528697,0,141,136,5,59,0,0,0.180500,0.179219,0.044805,0.528697,0,141,136,5,59,0,0:
0000
0000
0000
0000
,
0000
0000
0000
0000
,
1000
1000
1000
0001
,
0200
0300
0002
0003
,
0001
0001
0001
1000
,
0100
0010
0002
0003
,
1000
0010
0010
0100
,
0002
0003
2000
3000
,
0001
0010
0100
0010
,
0001
0100
0020
0030
,
2020
3030
0202
0303
,
0000
0001
0000
0001
0000
1000
0000
1000
,
0000
0001
0000
1000
0000
0010
0000
0100
,
0000
0001
0000
0001
0000
1000
0000
1000
,
0000
0001
0000
0010
0000
0100
0000
1000
,
2000
3002
0203
0301
,
0020
0100
0130
1000
,
0020
2030
3002
0103
,
0010
0200
0310
0002
,
2003
3200
0320
0130
,
0020
0001
0031
1000
,
0020
2030
3002
0203
,
0302
1003
0020
0230
,
0301
0010
0100
0001
,
0100
2000
3000
1000
,
1000
0010
0100
1000
,
0100
0001
2000
3002
,
0013
0001
0100
1000
,
0100
0002
0003
1000
,
0001
0010
0100
1000
,
0002
2003
3002
0103
,
0002
0013
0002
0203
,
0302
2003
3002
0013
,
0100
1000
2002
3003
,
2000
3002
2003
3100
,
2000
3010
2000
3200
,
2300
3002
2003
3010
,
0100
0001
2002
3003
,
0010
0200
0000
0310
,
2002
0000
0000
0000
,
3003
0000
0000
0000
;

//---------------dance-single - Marten-bSP----------------
#NOTES:
     dance-single:
     Marten:
     Beginner:
     2:
     0.094730,0.107532,0.008961,0.215063,0,74,73,1,24,0,0,0.094730,0.107532,0.008961,0.215063,0,74,73,1,24,0,0:
0000
0000
0000
0000
,
0000
0000
0000
0000
,
0001
0000
0000
0000
,
1000
0000
0000
0000
,
0010
0000
0000
0000
,
0100
0000
0000
0000
,
0002
0003
0001
0000
,
2000
3000
1000
0000
,
0200
0300
0100
0000
,
0020
0000
0000
0030
,
0200
0300
0200
0300
,
0000
1000
0000
1000
,
0000
0001
0000
0001
,
0000
0100
0000
0100
,
0000
0010
0000
0010
,
0010
0000
1000
0000
,
0002
0000
0000
0003
,
0010
0000
0001
0000
,
0100
0200
0000
0300
,
0010
0000
1000
0000
,
0002
0000
0000
0003
,
0010
0000
0100
0000
,
2000
3000
0001
0001
,
1000
0000
0010
0000
,
0100
0200
0000
0300
,
0001
0000
0010
0000
,
0100
0200
0000
0300
,
1000
0000
0001
0000
,
1000
2000
0000
3000
,
0010
0000
0100
0000
,
0001
0001
0001
0000
,
2000
3000
0002
0003
,
1000
1000
1000
0000
,
0002
0003
0200
0300
,
0010
0010
0010
0000
,
0200
0300
0020
0030
,
0100
0100
0100
0000
,
0020
0030
0200
0300
,
0001
0002
0000
0003
,
2002
0000
0000
0000
,
3003
0000
0000
0000
;

//---------------dance-double - NewbStepper-EDP----------------
#NOTES:
     dance-double:
     NewbStepper:
     Hard:
     9:
     0.286751,0.286751,0.062727,0.421166,0.017922,224,217,7,47,0,0,0.286751,0.286751,0.062727,0.421166,0.017922,224,217,7,47,0,0:
00000000
00000000
00000000
00000000
,
00000000
00000000
00000000
00000000
00000000
00000000
00000000
00010000
,
00001000
00000000
00000010
00000000
00000011
00000000
00000001
00000100
,
00001000
00000000
00010000
01000000
10000000
00000000
00100000
00000000
,
10000000
00000000
01000000
00000000
00010000
00000000
00001000
00000100
,
00000001
00000010
00000001
00000100
00002000
00000000
00003000
00010000
,
00002000
00000000
00203000
00000000
00320000
00000000
10030000
01000000
,
00010000
00000000
00001000
00000100
00000001
00000000
00000010
00000000
,
00000001
00000000
00000100
00000000
00001000
00000000
00010000
01000000
,
10000000
00100000
10000000
01000000
00020000
00000000
00030000
00000000
,
00022000
00033000
00002020
00003030
,
00000001
00001000
00000100
00010000
00000000
00000100
00000010
00001000
,
00010000
00100000
10000000
00100000
00000000
01000000
00001000
00010000
,
01000000
10000000
01000000
00100000
00000000
00001000
00100000
00010000
,
00001000
00000100
00000010
00001000
00000000
00010000
00011000
00000000
,
00002000
00000100
00003200
00000001
00000302
00001000
00002003
00003200
,
00000320
00000000
00000001
00000000
00001030
00000000
00010000
00001000
,
00021000
01000000
02030000
10000000
23000000
00010000
30010000
01000000
,
00001000
00010000
00000200
00000000
00001000
00000000
00000320
00000000
,
00000032
00000000
00000000
00000100
00000000
00000000
00000203
00000000
00000000
00001000
00000000
00000000
00002300
00000000
00000000
00010000
00000000
00000000
00003000
00000000
00000000
00010000
00000000
00001000
,
02000000
00000000
00100000
00000000
00001000
00000000
03010000
10000000
,
20010000
01000000
32000000
00010000
03020000
00001000
00032000
00000010
,
00003020
00000031
00000200
00002300
,
00013000
01000000
10000000
00010000
01000000
10000000
01000000
00010000
,
00100000
00000000
00000000
00001000
00000000
00010000
00002000
00000000
00000000
00000000
00000000
00000000
00003000
00000000
00000000
00000000
00000000
00000000
00010000
00000000
00000000
00001000
00000000
00000000
,
00000010
00001000
00010000
00000010
00001000
00010000
00001000
00000010
,
00000100
00000000
00000000
00000001
00000000
00001000
00000100
00000000
00000000
00000000
00000000
00000000
00000200
00000000
00000000
00000000
00000000
00000000
00020300
00000000
00000000
00000000
00000000
00000000
,
00031000
00000100
00000001
00001000
00000100
00000001
00000100
00001000
,
00000010
00000000
00000000
00010000
00000000
00001000
00020000
00000000
00000000
00000000
00000000
00000000
00030000
00000000
00000000
00000000
00000000
00000000
00001000
00000000
00000000
00010000
00000000
00000000
,
00100000
10000000
00010000
00100000
00002000
00000000
00013000
00000000
,
00200000
00000000
00302000
00000000
00003020
00000000
00000031
00000100
,
00001000
00000000
00010000
01000000
10000000
00000000
00100000
00000000
,
10000000
00000000
01000000
00000000
00010000
00000000
00001000
00000100
,
00000001
00000010
00000001
00000100
00002000
00000000
00003000
00010000
,
00002000
00000000
00203000
00000000
00320000
00000000
10030000
01000000
,
00010000
00000000
00001000
00000100
00000001
00000000
00000010
00000000
,
00000001
00000000
00000100
00000000
00001000
00000000
00010000
01000000
,
10000000
00100000
10000000
01000000
00020000
00000000
00030000
00001000
,
00010000
00000100
00002000
00000000
00000000
00000000
00003010
00000000
,
00000220
00000000
00000000
00000000
,
00000330
00000000
00000000
00000000
;

//---------------dance-double - NewbStepper-DDP----------------
#NOTES:
     dance-double:
     NewbStepper:
     Medium:
     7:
     0.238106,0.250907,0.026883,0.340517,0,186,183,3,38,0,0,0.238106,0.250907,0.026883,0.340517,0,186,183,3,38,0,0:
00000000
00000000
00000000
00000000
,
00000000
00000000
00000000
00000000
00000000
00000000
00000000
10000000
,
01000000
00000000
00010000
00000000
00001000
00000000
00000010
00000100
,
00000010
00000000
00000001
00000100
00000001
00000000
00001000
00000000
,
00000001
00000000
00000100
00000000
00001000
00000000
00010000
01000000
,
10000000
00010000
01000000
00100000
00010000
00000000
00000000
00001000
,
00020000
00000000
02030000
00000000
23000000
00000000
30100000
01000000
,
00100000
00000000
10000000
01000000
10000000
00000000
00010000
00000000
,
10000000
00000000
01000000
00000000
00010000
00000000
00001000
00000100
,
00000001
00001000
00000100
00000010
00002000
00000000
00003000
00000000
,
00020200
00030300
00202000
00303000
,
00010000
01000000
00000000
00100000
00000000
10000000
00000000
01000000
,
00100000
01000000
00000000
00010000
00000000
00001000
00000000
00000100
,
00000010
00000100
00000000
00000001
00000000
00000010
00000000
00001000
,
00010000
00001000
00000000
00010000
00000000
01000000
00000000
10000000
,
00020000
00000000
20030000
00000000
30020000
00000000
00130000
01000000
,
20000000
00000000
00010000
00000000
31000000
00000000
00100000
00010000
,
00002000
00000000
00023000
00000000
02030000
00000000
03100000
00010000
,
01000000
00001000
00020000
00000000
00000000
00000000
00030200
00000000
,
00002300
00000000
00003002
00000000
00000023
00000000
00000130
00010000
,
00002000
00000000
00100000
00000000
00013000
00000000
01000000
00100000
,
20000000
32000000
03020000
00032000
,
00023000
00030000
00000020
00002030
,
00003001
00000100
00000010
00010000
00001000
00100000
00010000
00000000
,
10000000
10000000
00200000
00000000
00300000
00000000
10000000
00010000
,
10000000
01000000
00100000
00001000
00010000
00000010
00001000
00000000
,
00000001
00000001
00000020
00000000
00000032
00000000
00002003
00000000
,
00003001
00000010
00000100
00010000
00001000
01000000
00010000
00000000
,
10000000
10000000
02000000
00000000
03000000
00000000
10000000
00010000
,
10000000
01000000
00010000
00001000
,
00000100
00000000
00000001
00000000
00001000
00000000
00000100
00010000
,
00000100
00000000
00010000
00001000
00010000
00000000
00100000
00000000
,
10000000
00000000
01000000
00000000
00010000
00000000
00001000
00100000
,
00001000
00000000
01000000
00000000
00020000
00000000
00030000
00100000
,
01000000
00000000
10000000
00000000
00010000
00000000
01000000
00001000
,
01000000
00000000
00001000
00010000
00001000
00000000
00000010
00000000
,
00000001
00000000
00000100
00000000
00001000
00000000
00010000
00000010
,
00010000
00000000
00000100
00000000
00002000
00000000
00003000
00000001
,
00000100
00000010
00020000
00000000
00000000
00000000
00031000
00000000
,
00022000
00000000
00000000
00000000
,
00033000
00000000
00000000
00000000
;

//---------------dance-double - NewbStepper-BDP----------------
#NOTES:
     dance-double:
     NewbStepper:
     Easy:
     5:
     0.180500,0.179219,0.044805,0.510776,0,141,136,5,57,0,0,0.180500,0.179219,0.044805,0.510776,0,141,136,5,57,0,0:
00000000
00000000
00000000
00000000
,
00000000
00000000
00000000
00000000
,
10000000
10000000
10000000
00010000
,
02000000
03000000
00002000
00003000
,
00010000
00010000
00010000
00000010
,
00001000
00000001
00000200
00000300
,
00001000
01000000
01000000
00010000
,
20000000
30000000
00020000
00030000
,
10000000
00100000
01000000
00001000
,
00010000
00000010
00002000
00003000
,
00000220
00000330
00002002
00003003
,
00000000
00000001
00000000
00000001
00000000
00001000
00000000
00001000
,
00000000
00000100
00000000
00010000
00000000
01000000
00000000
00100000
,
00000000
00001000
00000000
00001000
00000000
00100000
00000000
00100000
,
00000000
00010000
00000000
10000000
00000000
00100000
00000000
00010000
,
00020000
00032000
00203000
00310000
,
02000000
00001000
03001000
00010000
,
00000020
00002030
00003002
00000103
,
00000010
00020000
00031000
00200000
,
00320000
20030000
30200000
00310000
,
00002000
01000000
01003000
00010000
,
20000000
30200000
00320000
00032000
,
00203000
00301000
00020000
00030020
,
00001030
00000010
00000100
00000001
,
00000100
00002000
00003000
00010000
,
00010000
00100000
10000000
00100000
,
01000000
00010000
20000000
30020000
,
00130000
00001000
00010000
00000100
,
00000010
00002000
00003000
00010000
,
00000100
00001000
00000010
00000100
,
00002000
00023000
00032000
01003000
,
00002000
00103000
00002000
00023000
,
00230000
20300000
31000000
00100000
,
00001000
00010000
00022000
00033000
,
00020000
00032000
00023000
00030100
,
00020000
00030010
00020000
00032000
,
00003020
00000032
00000103
00000010
,
00010000
00001000
00022000
00033000
,
00100000
02000000
00000000
03100000
,
20020000
00000000
00000000
00000000
,
30030000
00000000
00000000
00000000
;
