#VERSION:0.83;
#TITLE:nightbird lost wing(XX-Special);
#ARTIST:猫叉Master+;
#ARTISTTRANSLIT:Nekomata Master+;
#BANNER:nightbird lost wing(XX-Special).png;
#BACKGROUND:nightbird lost wing(XX-Special)-bg.png;
#JACKET:nightbird lost wing(XX-Special)-jacket.png;
#MUSIC:nightbird lost wing(XX-Special).ogg;
#SAMPLESTART:44.21;
#SAMPLELENGTH:15;
#DISPLAYBPM:190;
#BPMS:0=190.476,4=189.655,15=190.476,27=189.999;
#STOPS:15=1.26,19=1.267,23=1.267,27=1.267,187=1.26;

//---------------dance-single - Talkion-CSP----------------
#NOTEDATA:;
#CHARTNAME:Talkion-CSP;
#STEPSTYPE:dance-single;
#DESCRIPTION:Talkion-CSP;
#DIFFICULTY:Challenge;
#METER:15;
#CREDIT:Talkion;
#NOTES:
0000
0000
0000
0000
,
0000
0000
0000
0000
,
0000
0000
0000
0000
,
0001
0010
0100
0001
0200
0010
0000
0000
,
1300
0000
0010
0000
0100
0000
1000
0000
0200
0000
0010
0000
0000
0000
0301
1000
,
0001
0000
0010
0000
0100
0000
0001
0000
0200
0000
0010
0000
0000
0000
1300
0001
,
1000
0000
0010
0000
0100
0000
1000
0000
0200
0000
0010
0000
0000
0000
0301
1000
,
0001
0010
0001
1000
0001
0100
0010
1000
,
0001
1000
0100
0010
0002
0000
1003
0000
,
2010
3001
0012
1003
,
2100
0000
0000
0000
3001
0000
0000
0000
0102
0000
0000
0000
1003
0000
0010
0100
,
0001
1000
0100
1000
0001
1000
0010
0100
,
0001
0000
1000
0000
0001
0000
0010
0000
0100
0000
0001
0100
0010
0000
0100
0000
,
1000
1000
0001
0001
0100
0100
0010
0010
,
2000
0000
0100
0000
3001
0000
0010
0100
2000
0000
0000
0000
3001
0000
0000
0000
,
1002
0000
0103
0010
1000
0010
0100
0000
,
1000
0000
0100
0010
2000
0000
3000
0000
1000
0000
0100
0010
2000
0000
3000
0000
,
1020
0000
0130
0001
0100
0010
0001
0000
,
1002
0000
0000
0203
0000
0000
0320
0000
0000
1030
0001
0010
,
0200
0000
1300
0001
0010
0001
2000
0010
,
3001
1000
0002
0010
1003
0001
2000
0100
,
3001
1000
0002
0100
0013
0100
2000
0100
,
3010
0000
0100
0000
0001
0000
0001
0000
1000
0100
0010
0100
1000
0000
0000
0000
,
2001
0000
3010
0100
0001
0100
0010
0000
,
0001
0000
0000
0001
0010
0000
0000
0010
1000
0000
0010
0100
0001
0000
0010
0100
,
2000
0000
3100
0001
0100
0010
0001
1000
,
0020
0000
0000
0230
0000
0000
0302
0000
0000
0103
0010
1000
,
0002
0000
0013
0100
1000
0100
0020
0001
,
0130
1000
0200
1000
0310
0001
0200
0001
,
0310
1000
0020
0001
0130
0010
0200
1000
,
0310
0000
0001
0000
0020
0000
0000
0000
0130
0000
0001
0100
0010
0000
0010
0000
,
2000
0000
3100
0102
0000
0013
2010
0000
,
3001
0000
0100
0000
0010
0000
0100
0000
1000
0000
0100
0010
1000
0000
0001
0000
,
0012
0000
0103
2100
0000
3010
0012
0000
,
1003
0000
0100
0000
0010
0000
1000
0000
0001
0000
0100
0000
0010
0000
0001
1000
,
0002
0000
0013
2010
0000
3100
0201
0000
,
0001
0000
0310
0010
1000
0001
0001
1000
,
2100
0000
3010
0012
0000
0103
1200
0000
,
1000
0000
0310
0010
0001
1000
0010
0100
,
0002
0000
0103
2100
0000
3010
0020
0000
,
0000
0000
0031
0000
0010
0000
0100
0000
0001
0100
0010
0100
1000
0000
0001
0000
,
0102
0000
0013
2010
0000
3100
0200
0000
,
0000
0000
0301
0000
0100
0000
0010
0000
0001
0000
1000
0000
0100
0010
0100
0001
,
2000
0000
3100
0102
0000
0013
0020
0000
,
0000
0000
0000
0000
2030
0000
0000
0000
3010
0100
0001
0000
0001
0000
1000
0000
,
1200
0000
0310
1020
0000
0130
1200
0000
,
0000
0000
0000
0300
,
1000
0100
1000
0001
1000
0010
0100
0001
,
1000
0001
0010
0100
2000
0000
3001
0000
,
0102
1003
2100
3001
,
0012
0000
0000
0000
1003
0000
0000
0000
2010
0000
0000
0000
3001
0000
0100
0010
,
1000
0001
0010
0001
1000
0001
0100
0010
,
1000
0000
0001
0000
1000
0000
0100
0000
0010
0000
1000
0010
0100
0000
0010
0000
,
0001
0001
1000
1000
0010
0010
0100
0100
,
0001
1000
0100
1000
0001
0000
0001
0000
0100
0000
0000
0100
0010
0000
1000
0000
,
1001
0000
0000
0001
0010
0000
0000
0010
1000
0000
0010
0100
0020
0000
0000
0000
,
0031
0000
0001
0000
1000
0000
0010
0100
0001
0000
0010
0100
1000
0000
0000
0000
,
2001
0000
3010
0100
1000
0100
0020
0000
,
1030
1000
0001
0010
0100
0010
0001
1000
,
0100
0000
0000
0100
1000
0000
0000
1000
0010
0000
0100
0010
0002
0000
0000
0000
,
0013
0000
0010
0000
1000
0000
0001
0000
0010
0100
1000
0100
0010
0000
0000
0000
,
1001
0000
0000
0000
0100
1000
0010
0000
0000
0000
0010
1000
0100
0000
0000
0000
,
1000
0000
1000
0000
0001
0000
0100
0010
1000
0001
0100
0001
1000
0000
0000
0000
,
1001
0000
0000
1000
0010
0000
0000
0010
0001
0000
1000
0100
0020
0000
0000
0000
,
1030
0000
1000
0000
0001
0000
0010
0100
1000
0000
0010
0100
0001
0000
0000
0000
,
1002
0000
0013
0100
0001
0100
0020
0000
,
0031
0001
1000
0010
0100
0010
1000
0001
,
0100
0000
0000
0100
0001
0000
0000
0001
0010
0000
0100
0010
2000
0000
0000
0000
,
3010
0000
0010
0000
0001
0000
1000
0000
0010
0100
0001
0100
0010
0000
0000
0000
,
1001
0000
0000
0000
1000
0100
0001
0000
0000
0000
0001
0100
2000
0000
0000
0000
,
3001
0000
0001
0000
0100
0000
0010
0100
0001
1000
0010
1000
0001
0000
0000
0000
,
1002
0000
0013
0000
0002
0010
1003
0000
,
2000
0100
3001
0000
0002
0100
1003
0000
,
2001
0000
3100
0000
0020
0100
0031
0000
,
1002
0103
2010
3100
,
0012
0000
0103
0000
0002
0100
1003
0000
,
2000
0010
3001
0000
0002
0010
1003
0000
,
2001
3100
0012
0103
,
2010
3100
0110
1001
;

//---------------dance-double - RGTM-CDP----------------
#NOTEDATA:;
#CHARTNAME:RGTM-CDP;
#STEPSTYPE:dance-double;
#DESCRIPTION:RGTM-CDP;
#DIFFICULTY:Challenge;
#METER:16;
#CREDIT:RGTM;
#NOTES:
00000000
00000000
00000000
00000000
,
00000000
00000000
00000000
00000000
,
00000000
00000000
00000000
00000000
,
00000001
00000100
00000010
00010000
00002000
00000010
00000000
00000000
,
10003000
01000000
00100000
00001000
00020000
00100000
00000000
00000000
,
00030001
00000010
00000100
00010000
00002000
00000100
00000000
00000000
,
10003000
00000000
00100000
00000000
01000000
00000000
00001000
00000000
00020000
00000000
00100000
00000000
00000000
00000000
00031000
00010000
,
00001000
00000010
00000100
00000010
00000001
00000100
00000010
00000100
,
00001000
00010000
00001000
00100000
02000000
00000000
13000000
00000000
,
20100000
30010000
00120000
01030000
,
02010000
00000000
00000000
00000000
03001000
00000000
00000000
00000000
00012000
00000000
00000000
00000000
00003010
00000000
00000100
00001000
,
00000001
00000100
00000010
00001000
00000100
00000010
00001000
00010000
,
00001000
00000000
01000000
00000000
00100000
00000000
10000000
00000000
01000000
00000000
00010000
01000000
00100000
00000000
00001000
00000000
,
00010000
00010000
00000010
00000010
00000100
00000100
00000001
00000001
,
00002000
00000000
00000100
00000000
00003001
00000000
00000010
00000100
00020000
00000000
00000000
00000000
00031000
00000000
00000000
00000000
,
00012000
00000000
00103000
01000000
10000000
01000000
00100000
00000000
,
10000000
00000000
00100000
00010000
02000000
00000000
00000000
00000000
13000000
00000000
01000000
00010000
00200000
00000000
00000000
00000000
,
00302000
00000000
00013000
00000100
00000010
00000001
00000100
00000000
,
00000120
00000000
00000000
00002030
00000000
00000000
00003200
00000000
00000000
00000300
00000010
00001000
,
00020000
00000000
00130000
10000000
01000000
00100000
00002000
00010000
,
00103000
00001000
00020000
00001000
00030010
00010000
00002000
00010000
,
01003000
00001000
00020000
00001000
00030100
00010000
00002000
00010000
,
00103000
00000000
00001000
00000000
00010000
00000000
00010000
00000000
00001000
00010000
01000000
00010000
00001000
00000000
00000000
00000000
,
00021000
00000000
00030010
00000100
00000001
00000100
00000010
00000000
,
00000001
00000000
00000000
00000001
00000010
00000000
00000000
00000010
00001000
00000000
00000100
00000010
00001000
00000000
00010000
00001000
,
02000000
00000000
03100000
00010000
00001000
00010000
00100000
10000000
,
00020000
00000000
00000000
00230000
00000000
00000000
02300000
00000000
00000000
03000000
00010000
01000000
,
10000000
00100000
01000000
00010000
00100000
01000000
00020000
00001000
,
00130000
00010000
00002000
00010000
00003010
00001000
00020000
00001000
,
01030000
00010000
00002000
00010000
00003100
00001000
00020000
00100000
,
00031000
00000000
00010000
00000000
00000200
00000000
00000000
00000000
00000310
00000000
00000100
00001000
00000001
00000000
00000000
00000000
,
00000012
00000000
00000103
00002100
00000000
00003010
00000012
00000000
,
00000103
00000000
00001000
00000000
00010000
00000000
01000000
00000000
00100000
00000000
00001000
00010000
00100000
00000000
10000000
00000000
,
20100000
00000000
31000000
01020000
00000000
00130000
20100000
00000000
,
31000000
00000000
00010000
00000000
00001000
00000000
00000100
00000000
00000010
00000000
00001000
00000000
00000100
00000000
00000010
00000001
,
00002000
00000000
00003100
00000102
00000000
00000013
00002010
00000000
,
00000001
00000000
00003100
00000100
00010000
00001000
00001000
00100000
,
00120000
00000000
01030000
21000000
00000000
30100000
00120000
00000000
,
00000000
00000000
01000000
00000000
01030000
00000000
00001000
00000000
00010000
00000000
00000100
00000000
00001000
00000000
00000010
00000100
,
00000002
00000000
00000013
00002010
00000000
00003100
00000200
00000000
,
00000000
00000000
00000301
00000000
00000100
00000000
00001000
00000000
00010000
00001000
00100000
00010000
01000000
00000000
00100000
00000000
,
20100000
00000000
30100000
00120000
00000000
01030000
02000000
00000000
,
00000000
00000000
13000000
00000000
01000000
00000000
00100000
00000000
00001000
00000000
00010000
00000000
00000010
00001000
00000100
00000010
,
00000002
00000000
00000103
00002100
00000000
00003010
00000020
00000000
,
00000000
00000000
00000000
00000000
00000032
00000000
00000000
00000000
00001003
00000100
00010000
00000000
00001000
00000000
01000000
00000000
,
01020000
00000000
00130000
20100000
00000000
31000000
01020000
00000000
,
00000000
00000000
00000000
00030000
,
10000000
01000000
00100000
00010000
10000000
00100000
01000000
00001000
,
00010000
00000100
00000010
00000001
00002000
00000000
00003001
00000000
,
00000012
00001003
00002100
00003010
,
00001020
00000000
00000000
00000000
00010030
00000000
00000000
00000000
00210000
00000000
00000000
00000000
00301000
00000000
01000000
00100000
,
10000000
01000000
00010000
01000000
00100000
00001000
00010000
00000010
,
00000100
00000000
00001000
00000000
00000100
00000000
00000010
00000000
00010000
00000000
00001000
00000010
00000001
00000000
00000100
00000000
,
00000010
00000010
00010000
00010000
00001000
00001000
00100000
00100000
,
01000000
10000000
00100000
01000000
00010000
00000000
00100000
00000000
00001000
00000000
00000000
00010000
00000010
00000000
00000100
00000000
,
00001001
00000000
00000000
00000001
00000010
00000000
00000000
00000010
00001000
00000000
00000010
00000100
00000020
00000000
00000000
00000000
,
00000031
00000000
00000001
00000000
00001000
00000000
00000010
00010000
00001000
00000000
00000010
00000100
00010000
00000000
00001000
00000000
,
00021000
00000000
00130000
10000000
01000000
00010000
00002000
00000000
,
00013000
00010000
00001000
00000100
00000001
00000010
00001000
00010000
,
01000000
00000000
00000000
01000000
10000000
00000000
00000000
10000000
00100000
00000000
01000000
00100000
00020000
00000000
00000000
00000000
,
00031000
00000000
00001000
00000000
00010000
00000000
00000100
00000000
00000010
00001000
00010000
00001000
00000010
00000000
00000001
00000000
,
00002001
00000000
00000000
00000000
00003010
00001000
00000200
00000000
00000000
00000000
00000310
00000001
00000200
00000000
00000000
00000000
,
00000010
00000000
00000000
00000000
00001300
00000000
00000100
00001000
00010000
00001000
00010000
01000000
00100000
00000000
00000000
00000000
,
10010000
00000000
00000000
10000000
00100000
00000000
00000000
00100000
00010000
00000000
10000000
01000000
00200000
00000000
00000000
00000000
,
01300000
00000000
01000000
00000000
00010000
00000000
00100000
00001000
00010000
00000000
00100000
01000000
00001000
00000000
00010000
00000000
,
00012000
00000000
00003010
00000001
00000100
00001000
00020000
00000000
,
00031000
00001000
00010000
01000000
10000000
00100000
00010000
00001000
,
00000100
00000000
00000000
00000100
00000001
00000000
00000000
00000001
00000010
00000000
00000100
00000010
00002000
00000000
00000000
00000000
,
00013000
00000000
00010000
00000000
00001000
00000000
01000000
00000000
00100000
00010000
00001000
00010000
00100000
00000000
00000000
00000000
,
10020000
00000000
00000000
00000000
00130000
00010000
02000000
00000000
00000000
00000000
03100000
10000000
02000000
00000000
00000000
00000000
,
00100000
00000000
00000000
00000000
03010000
00000000
01000000
00010000
00001000
00010000
00001000
00000100
00000010
00000000
00000000
00000000
,
00001002
00000000
00000013
00000000
00000001
00000010
00002000
00000000
,
00013000
00001000
00000020
00000000
00001030
00010000
01000000
00000000
,
20010000
00000000
30100000
00000000
10000000
00100000
00010000
00000000
,
00002000
00103000
00210000
00301000
,
00021000
00000000
00030100
00000000
00000100
00001000
00000001
00000000
,
00001002
00000000
00000103
00000000
00000100
00000010
00010000
00000000
,
00012000
00103000
01200000
00310000
,
10020000
01030000
01100000
00011000
;
