#TITLE:neu;
#ARTIST:少年ラジオ;
#ARTISTTRANSLIT:Shounen Radio;
#BANNER:neu.png;
#BACKGROUND:neu-bg.png;
#MUSIC:neu.ogg;
#OFFSET:-2.392474;
#SAMPLESTART:24.101;
#SAMPLELENGTH:15;
#BPMS:0=99.5,20=199;

//---------------dance-single - Marten-ESP----------------
#NOTES:
     dance-single:
     Marten:
     Hard:
     15:
     0.698624,0.819610,0.045492,0.530737,0.231250,645,639,6,70,0,0,0.698624,0.819610,0.045492,0.530737,0.231250,645,639,6,70,0,0:
0000
0000
0000
0000
,
0000
0000
0002
0000
0023
0000
0130
1000
,
0002
0000
0103
0010
2000
0000
3000
0001
,
0011
0000
0000
1000
1010
0000
0010
1000
,
0100
0000
0010
0000
0001
0000
0010
1000
0000
0010
0001
0100
0010
0100
0100
0000
,
1001
0000
0001
0000
0101
0000
0001
0010
,
1000
0010
0001
0000
1001
0000
0010
0000
,
1010
0000
0010
1000
0100
0000
0010
1000
,
0010
0001
0100
0010
0100
0000
0001
0000
,
1000
0100
0010
0100
1000
0001
0100
1000
,
0100
0010
1000
0001
0010
0100
0010
0001
,
1000
0100
0001
0100
1000
0010
0100
0020
,
0000
0000
0000
0030
,
1000
0000
0010
0000
0100
0000
0010
0000
1000
0001
1000
0000
0010
0000
0100
0000
,
0001
0000
0100
0000
0010
0000
1000
0000
0001
0010
0001
0000
0100
0000
0001
0000
,
1000
0000
0100
0010
0100
0000
1000
0000
0010
0100
0010
0000
1000
0000
0001
0000
,
0010
0000
0001
0100
0001
0000
0100
0000
0010
0000
1000
0001
1000
0000
0100
0000
,
0010
0000
1000
0000
0010
0000
0001
0000
0100
0001
0100
0000
0010
0000
1000
0000
,
0001
0000
0010
0100
0010
0000
0001
0000
0100
0010
0100
0000
0001
0000
1000
0000
,
0010
0000
0100
0001
0100
0000
0010
0000
1000
0100
1000
0000
0001
0000
1000
0000
,
0001
0100
0001
0100
0010
0100
0010
1000
0010
1000
0100
0010
,
0002
0100
0203
0000
,
0001
0302
0000
0010
,
0023
0000
1000
2030
,
0000
0010
3020
0000
,
0100
0230
0000
1000
,
2300
0000
0001
3001
,
1000
0000
0100
1000
0100
0000
0020
0000
,
1000
0000
0031
0000
0001
0000
0100
0001
,
0100
0020
0001
1030
,
1000
0000
0010
1000
0010
0000
0200
0000
,
1000
0000
0301
0000
0001
0000
0010
0001
,
0010
0200
0001
1300
,
0020
1000
0230
0302
,
0013
0010
0200
2300
,
3020
0032
2003
3200
,
0302
1000
0023
0032
,
1003
0000
0001
0000
0100
0001
0010
0100
,
1000
0000
0100
1000
0010
0100
0001
0000
,
2000
0000
3100
1000
0020
0000
0230
0000
,
0301
0000
0010
0000
0100
1000
0001
0010
,
0100
0010
0001
0000
0100
0010
0100
0000
,
0002
0000
1003
0001
0020
0000
0230
0000
,
1300
0000
0001
0000
1000
0000
0000
0010
,
0010
0000
0100
0010
0100
1000
0100
0001
,
1000
0100
0100
1000
0010
0010
0100
1000
,
1000
0100
0001
0001
0010
0001
0100
0010
,
1000
0001
0001
0010
0100
0100
0001
0100
,
0100
0010
1000
1000
0010
0001
0100
0010
,
1000
0010
0010
0001
0010
0010
0100
0001
,
0001
0010
0100
0100
0001
0100
1000
0001
,
0100
1000
1000
0100
0010
0010
0100
0001
,
0001
0010
0100
0100
0001
0100
1000
0000
,
0001
0000
0100
0001
0100
0000
0001
0000
0010
0001
0010
0000
0001
0000
0100
0001
,
0100
0000
0001
0000
0010
0001
0010
0000
0100
0000
1000
0000
0001
0000
0000
0000
,
1000
0000
0100
1000
0100
0000
1000
0000
0010
1000
0010
0000
1000
0000
0100
1000
,
0100
0000
1000
0000
0010
1000
0010
0000
0100
0000
0001
0000
1000
0000
0000
0000
,
0010
0000
1000
0001
1000
0000
0100
0000
1000
0010
1000
0000
0001
0000
0010
0001
,
0010
0000
0100
0000
1000
0100
1000
0000
0001
0000
0100
0001
0100
0000
0010
0100
,
0010
0000
1000
0001
1000
0000
0100
0000
0010
0001
0010
0000
0100
0000
1000
0001
,
1000
0000
0010
0000
0100
0001
0100
0000
0001
0000
0010
0000
0100
0000
1000
0000
,
0002
0010
1000
0203
,
0320
0001
1000
0100
,
2030
0001
0100
3020
,
0230
1000
0001
0310
,
1000
0001
0010
0000
0001
1000
0010
0000
,
0100
0001
1000
0000
0100
1000
0001
0000
,
1000
0100
1000
0100
0001
0100
0001
0100
,
1000
0010
0001
1000
0100
0001
1000
0001
,
0010
0000
0001
0000
0100
0000
0010
0000
1000
0000
0100
0000
1000
0001
1000
0000
,
0100
0000
1000
0000
0010
0000
0100
0000
0001
0000
0010
0000
0001
1000
0001
0000
,
0010
0000
0100
0000
0001
0000
1000
0000
0010
0000
0100
0000
1000
0100
1000
0000
,
0001
0000
0100
0000
0010
0000
0001
0000
1000
0000
0100
0000
0010
0100
0010
0000
,
1000
0000
0100
0000
0001
0000
0100
0000
0010
0000
0001
0000
0100
0010
0100
0000
,
0001
0000
0100
0000
1000
0000
0100
0000
0010
0000
1000
0000
0100
0010
0100
0000
,
1000
0000
0001
0100
0001
0000
1000
0000
0100
1000
0100
0000
0010
0000
0001
1000
,
0001
0000
0100
0000
0010
0100
0010
0000
1000
0000
0010
0000
0001
0000
0010
0000
,
1000
0002
0023
2030
,
3002
0000
0203
0000
2300
0000
3001
0100
,
0001
0010
0200
0000
2300
0000
3020
0000
,
0230
2300
3200
0302
,
2003
0100
3100
0020
0001
0031
0200
0310
,
2000
3010
0002
0013
2000
3100
0002
0203
,
0320
0031
0002
0103
0200
0310
0020
1030
,
2000
3100
0200
0310
0020
0000
0030
0000
,
0001
0100
0010
0001
0010
0100
0001
0010
,
0100
0001
0100
1000
0010
0100
0010
1000
,
0100
0001
0100
0010
0001
0100
1000
0100
,
0010
1000
0001
0010
0100
1000
0001
1000
,
0010
0000
1000
0001
1000
0000
0100
0000
0010
0001
0010
0000
0100
0000
1000
0000
,
0001
0000
0100
0010
0100
0000
0001
0000
1000
0100
1000
0000
0010
0000
1000
0000
,
0100
0000
0010
0001
0010
0000
0100
0000
1000
0001
1000
0000
0010
0000
0100
0000
,
0001
0100
0001
0000
1000
0100
1000
0000
0001
0010
0001
0000
1000
0010
1000
0000
,
0200
0000
0000
0000
,
0300
0000
0000
0000
;

//---------------dance-single - Marten-DSP----------------
#NOTES:
     dance-single:
     Marten:
     Medium:
     12:
     0.540486,0.677069,0.075820,0.652049,0.030328,499,489,10,86,0,0,0.540486,0.677069,0.075820,0.652049,0.030328,499,489,10,86,0,0:
0000
0000
0000
0000
,
0000
0000
2000
0000
3020
0000
0130
0001
,
2000
0000
3100
1000
0002
0000
0003
0001
,
0011
0000
0000
1000
1010
0000
0010
1000
,
0100
0000
0010
0000
0001
0000
1000
0001
0000
0100
0000
0100
0010
0100
0001
0000
,
1001
1000
0200
0310
,
0002
0103
0020
2030
,
3002
0013
0010
0100
,
2000
3020
0032
0023
,
1030
0100
0010
0000
0001
0100
0010
0000
,
1000
0001
0010
0000
0001
1000
0010
0000
,
1000
0100
0010
0001
0100
0010
0100
0001
,
0000
0200
0000
0000
0000
0000
0000
0000
,
0301
0100
0010
0100
0001
0010
0100
0000
,
1000
0100
0010
0100
1000
0010
0100
0010
,
1000
0000
0001
0100
0010
0100
0001
0000
,
0010
0100
1000
0100
0010
0001
1000
0000
,
0010
1000
0100
0000
0010
0001
0100
0001
,
0010
0100
1000
0010
0001
0010
1000
0000
,
0001
0100
0010
0000
1000
0100
0010
0000
,
0001
0010
0001
0010
0000
0000
0100
1000
0100
1000
0000
0000
,
0002
0100
0203
0000
,
0010
0320
0000
1000
,
2030
0000
0001
3002
,
0000
0010
0023
0000
,
0100
0230
0000
0010
,
0320
0000
0001
0031
,
0002
0100
2003
0000
,
0010
3200
0000
0010
,
2300
0000
0010
3002
,
0000
0100
0023
0000
,
0100
0032
0000
0010
,
0203
0000
0010
0301
,
2000
0100
3020
0230
,
0301
0001
0020
0032
,
0203
0320
2030
3200
,
0320
0100
0230
2300
,
3001
0001
1000
0010
,
0001
0010
1000
1000
,
0002
0100
0023
0230
,
1300
0001
1000
0010
,
0001
0100
1000
0001
,
2000
0010
3002
0203
,
0301
0000
0001
0000
1000
0000
0000
0010
,
0010
0000
0000
0010
1000
0001
0010
0100
,
1000
0000
1000
0010
0000
0010
0001
0000
,
0001
0010
0000
0010
1000
0100
0010
0000
,
0001
0000
0001
0010
0000
0010
1000
0000
,
1000
0010
0000
0010
0001
0100
0010
0000
,
1000
0000
1000
0100
0000
0100
0001
0000
,
0001
0100
0000
0100
1000
0010
0100
0000
,
0001
0000
0001
0100
0000
0100
1000
0000
,
1000
0100
0000
0100
0001
0010
0100
0000
,
1000
0010
1000
0001
0010
0001
1000
0010
,
1000
0001
0010
0001
1000
0010
0100
0000
,
0001
0100
0001
1000
0100
1000
0001
0100
,
0001
1000
0100
1000
0001
0010
0100
0000
,
1000
0010
0100
0001
0010
0100
1000
0010
,
0100
0001
0010
0100
1000
0001
1000
0000
,
0001
0100
0010
1000
0100
0010
0001
0100
,
0010
1000
0100
0010
0002
0000
2003
0000
,
3020
0100
0100
2030
,
3002
0010
0010
0010
,
0203
0001
0001
0302
,
0023
0100
0100
0130
,
0100
1000
0010
0000
0100
0001
0010
0000
,
0001
1000
0010
0000
1000
0001
0010
0000
,
0001
0100
0001
0100
0010
1000
0010
1000
,
0100
0010
0001
0100
0010
0100
0001
0000
,
1000
0100
0010
0100
1000
0001
0100
0000
,
0001
0100
0010
0100
0001
1000
0100
0010
,
0001
0100
0010
0000
1000
0010
0100
0000
,
0001
0010
0100
0001
0100
0010
0001
0000
,
1000
0001
0100
0001
0010
0100
0010
0001
,
1000
0010
0100
0010
1000
0100
0010
0000
,
0001
1000
0010
0100
0010
0100
0001
0010
,
0100
0010
0001
1000
0100
0010
0001
0000
,
1000
0200
2300
3020
,
0230
0000
0320
0000
2030
0000
3001
0010
,
0100
0020
0032
0203
,
0320
0230
0302
2003
,
3200
0300
0000
0220
0330
0000
0020
0000
,
0032
0000
2003
0000
3020
0000
0130
0001
,
1000
1010
1001
0011
,
0110
1100
0202
0303
,
0001
0010
0100
0010
0001
0100
0010
0100
,
0002
0023
0230
1300
,
1000
0010
0100
0010
1000
0100
0010
0100
,
2000
3020
0230
0302
,
1003
0100
1000
0010
0000
0010
0100
0000
,
0010
1000
0100
0000
0010
0001
0100
0000
,
0001
0100
0010
1000
0001
0010
0100
0010
,
0001
1000
0010
0100
0010
1000
0100
0000
,
0020
0000
0000
0000
,
0030
0000
0000
0000
;

//---------------dance-single - Marten-BSP----------------
#NOTES:
     dance-single:
     Marten:
     Easy:
     8:
     0.388846,0.498893,0.159221,0.591393,0,359,338,21,78,0,0,0.388846,0.498893,0.159221,0.591393,0,359,338,21,78,0,0:
0000
0000
0000
0000
,
0000
0000
2000
0000
3002
0000
0013
0001
,
2000
0000
3010
1000
0002
0000
0003
0001
,
0101
0000
0000
1000
1100
0000
1000
0010
,
0100
0010
1000
0001
2000
0000
3000
0000
,
1001
0001
0200
0301
,
0002
0013
0200
2300
,
3002
0103
0200
0301
,
2000
3020
0230
0302
,
1003
1000
0001
0001
,
1000
0010
0100
0001
,
1000
0100
0001
0100
,
2000
0000
0000
3000
,
0001
0100
0001
0001
,
1000
0010
0100
0010
,
1000
0100
0010
0010
,
0100
1000
0001
1000
,
0010
1000
0001
0001
,
0010
0001
1000
1000
,
0100
0010
0001
1000
,
0010
0001
0010
1000
,
0001
0100
0200
0000
,
0310
0020
0000
1030
,
2000
0000
3001
0002
,
0000
0013
0020
0000
,
0130
0200
0000
0310
,
0020
0000
0031
0002
,
1003
0010
0020
0000
,
0130
0200
0000
0301
,
0002
0000
1003
2000
,
0000
3100
0200
0000
,
1300
2000
0000
3010
,
0020
0000
0130
0100
,
0002
1003
0002
0023
,
0130
0100
2000
3020
,
0230
0320
2030
3002
,
0023
0130
0020
0032
,
1003
1000
0010
0100
,
0100
0001
0010
0010
,
0002
0103
0002
2003
,
3010
0010
0100
0010
,
0010
1000
0001
0001
,
0020
0031
0020
0230
,
1300
0000
1000
0000
0001
0000
0000
1000
,
0001
1000
1000
1000
,
1001
0000
0000
1000
0000
0000
1100
0000
,
0000
0100
0000
0000
0010
0000
0001
0000
,
1001
0000
0000
0001
0000
0000
0101
0000
,
0000
0100
0000
0000
0010
0000
1000
0000
,
1001
0000
0000
1000
0000
0000
1010
0000
,
0000
0010
0000
0000
0100
0000
0001
0000
,
1001
0000
0000
0001
0000
0000
0011
0000
,
0000
0010
0000
0000
0100
0000
1000
0000
,
1001
0000
0001
0002
0000
0000
0023
0000
,
0000
0230
0000
0000
1300
0000
0001
0000
,
1001
0000
1000
2000
0000
0000
3020
0000
,
0000
0230
0000
0000
0301
0000
1000
0000
,
1001
0000
0001
0002
0000
0000
0203
0000
,
0000
0320
0000
0000
1030
0000
0001
0000
,
1001
0000
1000
2000
0000
0000
3200
0000
,
0000
0320
0000
0000
0031
0000
1000
0000
,
1002
0100
0100
0203
,
0320
1000
1000
1030
,
2000
0100
0100
3200
,
0320
0100
0130
0010
,
0001
0100
1000
0100
,
0001
0100
1000
0100
,
0001
0010
1000
0010
,
0001
0010
1000
0010
,
0001
0100
0010
0100
,
0001
0010
0100
0010
,
0001
1000
0100
0010
,
0100
1000
0010
0100
,
0010
1000
0100
0010
,
0001
0100
0010
1000
,
0001
0010
0100
1000
,
0001
0100
0010
1000
,
0002
0100
1000
1000
,
0100
0100
1003
0000
,
2000
0100
0001
0001
,
0010
0010
0001
3001
,
1001
0000
0000
0110
0000
0000
1001
0000
,
0001
0010
0100
1000
,
0020
2030
3002
0023
,
0230
1300
2002
3003
,
0001
0100
0010
0100
,
0001
0010
0200
0000
,
1300
0010
0100
0010
,
1000
0100
0010
0001
,
0100
0000
0000
0110
0000
0000
0010
0000
,
1000
0100
0010
0001
,
1000
0010
0001
0010
,
1000
0100
0001
0100
,
2000
0000
0000
0000
,
3000
0000
0000
0000
;

//---------------dance-single - Marten-bSP----------------
#NOTES:
     dance-single:
     Marten:
     Beginner:
     4:
     0.212295,0.285082,0.022746,0.227459,0,196,193,3,30,0,0,0.212295,0.285082,0.022746,0.227459,0,196,193,3,30,0,0:
0000
0000
0000
0000
,
0000
1000
1000
0000
,
0010
0010
0100
0000
,
1001
0000
1001
0000
,
0001
0001
1000
0000
,
1000
0000
1000
0000
,
0010
0000
0010
0010
,
0010
0000
0100
0000
,
0001
0001
0001
0000
,
0010
0000
0010
0000
,
0100
0000
0100
0000
,
1000
0000
0001
0000
,
2002
0000
0000
3003
,
0001
0000
0100
0000
,
0010
0000
1000
0000
,
1000
0000
0100
0000
,
0010
0000
0001
0000
,
1000
0000
0010
0000
,
0100
0000
0001
0000
,
0001
0000
0010
0000
,
0100
0000
1000
0000
,
0000
0001
0001
0000
,
1000
1000
0000
0010
,
0010
0000
0100
0100
,
0000
0010
0010
0000
,
1000
1000
0000
0001
,
0001
0000
0010
0010
,
0000
0100
0100
0000
,
0010
0010
0000
0001
,
0001
0000
0100
0100
,
0000
0010
0010
0000
,
1000
1000
0000
0001
,
0001
0000
1000
1000
,
0000
0100
0100
0000
,
1000
1000
0000
0010
,
0010
0000
0100
0100
,
0000
0001
0001
0000
,
0010
0010
0000
0100
,
0100
0000
1000
1000
,
0000
0001
0001
0000
,
0100
0100
0000
0010
,
0010
0000
1000
1000
,
0000
0100
0100
0000
,
0010
0010
0010
0000
,
0000
0000
0000
0000
,
0002
0000
0003
2000
,
0000
3000
0001
0000
,
2000
0000
3000
0002
,
0000
0003
1000
0000
,
0020
0000
0030
0200
,
0000
0300
0010
0000
,
0200
0000
0300
0020
,
0000
0030
0100
0000
,
0002
0000
0003
0020
,
0000
0030
0001
0000
,
2000
0000
3000
0020
,
0000
0030
1000
0000
,
0002
0000
0003
0200
,
0000
0300
0001
0000
,
2000
0000
3000
0200
,
0000
0300
1000
0000
,
0002
0000
0000
0003
,
2000
0000
0000
3000
,
0020
0000
0000
0030
,
0200
0000
0000
0300
,
0001
0000
0001
0000
,
1000
0000
1000
0000
,
0020
0000
0000
0030
,
0200
0000
0000
0300
,
0001
0000
0010
0000
,
0100
0000
0010
0000
,
0001
0000
0100
0000
,
0010
0000
0010
0000
,
1000
0000
0100
0000
,
0010
0000
0100
0000
,
1000
0000
0010
0000
,
0100
0000
0100
0000
,
0001
0000
0001
0000
,
1000
1000
2000
3000
,
0001
0000
0001
0000
,
0010
0010
0020
0030
,
0100
0000
0100
0000
,
0010
0000
0010
0000
,
0001
0001
0001
0000
,
1000
1000
2000
0000
,
3000
0000
0010
0000
,
0100
0100
0200
0000
,
0300
0000
0001
0000
,
1000
1000
2000
3000
,
0001
0000
0010
0000
,
0100
0000
1000
0000
,
0001
0001
0001
0000
,
1000
1000
1000
0000
,
0020
0000
0000
0000
,
0030
0000
0000
0000
;

//---------------dance-double - RGTM-EDP----------------
#NOTES:
     dance-double:
     RGTM:
     Hard:
     16:
     0.707289,0.855245,0.053074,0.621721,0.272951,653,646,7,82,0,0,0.707289,0.855245,0.053074,0.621721,0.272951,653,646,7,82,0,0:
00000000
00000000
00000000
00000000
,
00000000
00000000
00002000
00000000
00203000
00000000
00310000
10000000
,
00020000
00000000
00130000
00010000
02000000
00000000
03000000
00010000
,
10000000
00000000
00000000
01000000
00200000
00000000
01300000
10000000
,
00010000
00000000
01000000
00000000
00010000
00100000
00001000
00000000
00001000
00010000
00000010
00000000
00000110
00000100
00000001
00001001
,
00001000
00000000
00000100
00000000
00000110
00000000
00000010
00000001
,
00000100
00001000
00010000
00000000
00011000
00000000
00001000
00000000
,
00010000
00000000
01000000
00000000
01100000
00000000
00100000
00010000
,
10000000
00100000
01000000
00000000
10010000
00000000
10000000
00010000
,
10000000
01000000
00100000
00010000
00100000
01000000
00010000
00001000
,
00000100
00000001
00000010
00000100
00000010
00000001
00000100
00000010
,
00010000
00001000
00010000
01000000
10000000
00010000
10000000
00200000
,
00000000
00000000
00000000
00300000
,
01000000
00000000
00100000
00000000
10000000
00000000
01000000
00000000
00100000
00010000
00100000
00000000
01000000
00000000
00010000
00000000
,
00001000
00000000
00000100
00000000
00000010
00000000
00001000
00000000
00000100
00001000
00000100
00000000
00000010
00000000
00000001
00000000
,
00001000
00000000
00000010
00000100
00000010
00000000
00001000
00000000
00000100
00010000
00000100
00000000
00010000
00000000
00001000
00000000
,
01000000
00000000
00010000
01000000
00010000
00000000
00100000
00000000
01000000
00000000
10000000
01000000
10000000
00000000
00100000
00000000
,
10000000
00000000
00010000
00000000
00100000
00000000
01000000
00100000
01000000
00000000
00000000
00000000
10000000
00000000
00010000
01000000
,
00010000
00000000
00100000
00000000
00001000
00010000
00001000
00000000
00010000
00000000
00000100
00000000
00001000
00000100
00001000
00000000
,
00000010
00000000
00000100
00000001
00000100
00000000
00000010
00000000
00001000
00000000
00000001
00001000
00000001
00000000
00000010
00000000
,
00000100
00001000
00000100
00010000
00001000
00010000
00001000
00100000
00001000
00010000
01000000
10000000
,
00100000
00000000
02000000
00000000
03010000
20000000
00010000
00000000
,
32000000
00100000
03200000
02300000
,
23000000
30200000
00320000
00032000
,
00023000
00100000
00032000
00023000
,
00000100
00000100
00030000
00010000
,
00010000
00000000
00000100
00000100
,
00000020
00000100
00000032
00000023
,
00000100
00000100
00000032
00000203
,
00002300
00023000
00230000
01000000
,
20300000
00010000
31000000
02000000
,
00100000
03100000
00000000
10000000
,
10000000
00000000
00010000
00010000
,
20000000
00010000
30200000
20300000
,
01000000
31000000
00200000
02300000
,
03200000
00302000
00023000
00032000
,
00003200
00000001
00000310
00000020
,
00001000
00000000
00000130
00000000
00000010
00000100
00000001
00001000
,
00000100
00000000
00010000
00001000
00100000
00010000
01000000
00000000
,
00200000
01000000
10300000
20000000
,
01000000
00000000
30010000
00000000
10000000
01000000
00100000
01000000
,
00010000
00000000
00001000
00010000
00001000
00000100
00000010
00000000
,
00002000
00000100
00003002
00000023
,
00000100
00000000
00000031
00000000
00001000
00000000
00000000
00000100
,
00000100
00000000
00010000
00100000
00010000
00001000
00010000
01000000
,
10000000
00100000
00100000
01000000
00010000
00010000
00100000
00001000
,
00001000
00000000
00010000
00000000
00000010
00000000
00000010
00000000
00000100
00000000
00000001
00001000
00000001
00000000
00000010
00000000
,
00000001
00000100
00000100
00000010
00001000
00001000
00000100
00010000
,
00010000
00000000
00001000
00000000
01000000
00000000
01000000
00000000
00100000
00000000
10000000
00010000
10000000
00000000
01000000
00000000
,
10000000
00100000
00100000
00010000
00001000
00001000
00010000
01000000
,
01000000
00000000
00010000
00000000
00001000
00000000
00001000
00000000
00000100
00000000
00000010
00000100
00000010
00000000
00001000
00000000
,
00000001
00000010
00000010
00001000
00010000
00010000
00001000
00000100
,
00000100
00000000
00001000
00000000
00010000
00000000
00010000
00000000
01000000
00000000
00100000
01000000
00100000
00000000
00010000
00000000
,
10000000
00000000
01000000
00100000
01000000
00000000
10000000
00000000
00010000
00100000
00010000
00000000
01000000
00000000
00001000
00010000
,
00001000
00000000
00000100
00000000
00001000
00010000
00001000
00000000
00000100
00000000
00000001
00001000
00000001
00000000
00000010
00000000
,
00000001
00000000
00000100
00000010
00000100
00000000
00000001
00000000
00001000
00000010
00001000
00000000
00000100
00000000
00010000
00001000
,
00010000
00000000
01000000
00000000
00010000
00001000
00010000
00000000
01000000
00000000
10000000
00010000
10000000
00000000
00100000
00000000
,
10000000
00000000
00010000
00100000
00010000
00000000
01000000
00000000
00001000
00010000
00001000
00000000
00100000
00000000
01000000
10000000
,
01000000
00000000
00100000
00000000
00001000
00010000
00001000
00000000
00000100
00000000
00000010
00000000
00001000
00000100
00001000
00000000
,
00000001
00000000
00001000
00000010
00001000
00000000
00000100
00000000
00010000
00001000
00010000
00000000
00000010
00000000
00000100
00000001
,
00000100
00000000
00000010
00000000
00010000
00001000
00010000
00000000
01000000
00000000
00100000
01000000
00100000
01000000
00100000
01000000
,
20000000
00100000
00010000
32000000
,
03200000
10000000
00010000
01000000
,
00320000
10000000
00100000
02030000
,
03002000
00010000
00100000
00010000
,
00003200
00000010
00001000
00000302
,
00000023
00001000
00000100
00000031
,
00001001
00001000
00000001
00001000
00000010
00000100
00000010
00000100
,
00001000
00010000
00001000
00010000
01000000
10000000
00100000
00010000
,
00001000
00000000
00000010
00000000
00001000
00000000
00000010
00000000
00000001
00000000
00000100
00000000
00001000
00010000
00001000
00000000
,
00010000
00000000
00100000
00000000
00010000
00000000
00100000
00000000
10000000
00000000
01000000
00000000
00010000
00001000
00010000
00000000
,
00001000
00000000
00000010
00000000
00000001
00000000
00000100
00000000
00001000
00000000
00010000
00000000
00100000
01000000
00100000
00000000
,
00010000
00000000
00100000
00000000
10000000
00000000
01000000
00000000
00010000
00000000
00001000
00000000
00000010
00000100
00000010
00000000
,
00000001
00000000
00000100
00000000
00001000
00000000
00010000
00000000
00100000
00000000
10000000
00000000
00010000
01000000
00010000
00000000
,
10000000
00000000
01000000
00000000
00010000
00000000
00001000
00000000
00000010
00000000
00000001
00000000
00001000
00000100
00001000
00000000
,
00000010
00000000
00000100
00000001
00000100
00000000
00000010
00000000
00010000
00001000
00010000
00000000
00001000
00000000
01000000
00010000
,
01000000
00000000
00100000
00000000
10000000
00010000
10000000
00000000
01000000
00000000
00010000
00000000
00001000
00000000
00000100
00000000
,
00000010
00002000
00003002
00000023
,
00002030
00000000
00023000
00000000
02030000
00000000
03010000
01000000
,
10000000
00010000
02000000
00000000
03200000
00000000
00320000
00000000
,
00032000
00003020
00000230
00002300
,
00003002
00000010
00000013
00000200
00001000
00001300
00000020
00010030
,
00002000
01003000
00200000
01300000
20000000
31000000
00020000
20030000
,
30200000
01300000
02000000
03010000
00020000
00130000
00200000
01300000
,
02000000
03010000
00020000
00031000
00002000
00000000
00003000
00000000
,
00010000
01000000
10000000
00100000
00010000
00100000
10000000
01000000
,
00010000
00001000
00100000
01000000
00010000
00001000
00010000
00010000
,
00001000
00000100
00000001
00000010
00001000
00000010
00000001
00000100
,
00001000
00010000
00000010
00000100
00001000
00010000
00001000
00001000
,
00010000
00000000
01000000
00100000
01000000
00000000
10000000
00000000
00100000
01000000
00100000
00000000
00010000
00001000
00010000
00000000
,
00001000
00000000
00000100
00000010
00000100
00000000
00000001
00000000
00000010
00000100
00000010
00000000
00001000
00010000
00001000
00000000
,
00010000
00000000
01000000
00100000
01000000
00000000
00001000
00000000
00000010
00000100
00000010
00000000
00010000
00000000
00001000
00000000
,
00100000
01000000
00100000
00000000
00001000
00010000
00001000
00000000
00000100
00000010
00000100
00000000
00001000
00010000
00001000
00000000
,
00200000
00000000
00000000
00000000
,
00300000
00000000
00000000
00000000
;

//---------------dance-double - NewbStepper-DDP----------------
#NOTES:
     dance-double:
     NewbStepper:
     Medium:
     13:
     0.558899,0.712704,0.037910,0.561065,0.030328,516,511,5,74,0,0,0.558899,0.712704,0.037910,0.561065,0.030328,516,511,5,74,0,0:
00000000
00000000
00000000
00000000
,
00000000
00000000
20000000
00000000
30200000
00000000
01300000
00001000
,
00020000
00000000
00031000
00000010
00000002
00000000
00000003
00001000
,
00001010
00000000
00000000
00000001
00000011
00000000
00000010
00000100
,
00001000
00000000
00000010
00000000
00000100
00000000
00001000
00010000
00000000
00010000
00001000
00100000
00010000
10000000
00100000
00000000
,
01100000
01000000
00020000
00130000
,
20000000
30100000
00020000
02030000
,
03002000
00013000
00001000
00000010
,
00000002
00000203
00000320
00002030
,
00003001
00000100
00001000
00000000
00000100
00001000
00010000
00000000
,
00001000
00010000
01000000
00000000
00010000
01000000
10000000
00000000
,
00100000
10000000
01000000
00100000
00010000
00001000
00000100
00000010
,
00000000
00000200
00000000
00000000
00000000
00000000
00000000
00000000
,
00001300
00000100
00001000
00000001
00000100
00000010
00001000
00000001
,
00000100
00001000
00010000
01000000
10000000
00010000
01000000
00010000
,
10000000
00100000
10000000
01000000
00010000
00001000
00000100
00000001
,
00001000
00000100
00000010
00001000
00010000
00100000
01000000
00010000
,
10000000
00100000
00010000
00001000
00000010
00000001
00001000
00000000
,
00000001
00000010
00001000
00010000
00100000
10000000
00010000
00000000
,
10000000
01000000
00100000
00010000
00001000
00000100
00000010
00000001
,
00001000
00000000
00001000
00000100
00000000
00000100
00010000
00000000
00010000
00001000
00000000
00001000
,
00200000
00010000
00320000
00000000
,
10000000
20030000
00000000
01000000
,
32000000
00000000
00010000
03020000
,
00000000
00001000
00032000
00000000
,
00000100
00003200
00000000
00000001
,
00000302
00000000
00001000
00001003
,
00002000
00000100
00003002
00000000
,
00000010
00000203
00000000
00001000
,
00020300
00000000
01000000
00230000
,
00000000
10000000
00320000
00000000
,
01000000
20030000
00000000
00100000
,
32000000
00000000
00100000
03010000
,
00002000
00010000
00203000
00320000
,
00031000
00001000
00000020
00000230
,
00000302
00000023
00000230
00002300
,
00003020
00000000
00010000
00000000
00020030
00000000
00031000
00010000
,
00100000
00000000
10000000
01000000
00100000
00010000
10000000
00000000
,
01000000
00010000
00000000
00010000
00001000
00000000
00000100
00000010
,
00000000
00000010
00001000
00000000
00000100
00000000
00000020
00000000
,
00000000
00000000
00000000
00000000
00000031
00000100
00000001
00000000
,
00000100
00000000
00001000
00000000
00000000
00010000
00100000
00000000
,
10000000
01000000
00100000
00000000
00010000
00000000
00200000
00000000
,
00000000
00000000
00000000
00000000
00310000
00000000
01000000
00100000
,
10000000
00000000
01000000
00100000
00010000
10000000
01000000
00010000
,
00001000
00000000
00001000
00000010
00000000
00000010
00000001
00000000
,
00000001
00000100
00000000
00000100
00000010
00001000
00000100
00000000
,
00010000
00000000
00010000
00100000
00000000
00100000
10000000
00000000
,
10000000
01000000
00000000
01000000
00100000
00010000
01000000
00000000
,
00001000
00000000
00010000
00001000
00000000
00000010
00001000
00000000
,
00010000
00001000
00000000
00000100
00000001
00000100
00001000
00000000
,
00010000
00000000
00001000
00010000
00000000
00100000
00010000
00000000
,
00001000
00010000
00000000
01000000
10000000
01000000
00010000
00000000
,
00001000
00010000
00100000
00010000
00001000
00100000
00010000
00100000
,
00001000
00010000
00000010
00001000
00000100
00000010
00001000
00000000
,
00010000
00001000
00000010
00001000
00010000
00000010
00001000
00000010
,
00010000
00001000
00100000
00010000
01000000
00100000
00010000
00000000
,
00001000
00010000
00000100
00001000
00000010
00000100
00001000
00010000
,
00000010
00001000
00000100
00000010
00000001
00000100
00001000
00000000
,
00010000
00001000
01000000
00010000
00100000
01000000
00010000
00001000
,
00100000
00010000
01000000
00100000
20000000
00000000
32000000
00000000
,
03020000
00001000
00032000
00003020
,
00000032
00000100
00000103
00000100
,
00002000
00010000
00023000
00230000
,
20300000
01000000
01000000
31000000
,
10000000
01000000
00010000
00000000
01000000
00010000
00001000
00000000
,
00010000
00001000
00000100
00000000
00001000
00000100
00000001
00000000
,
00001000
00000100
00000010
00000001
00000100
00000010
00001000
00000001
,
00000100
00000010
00001000
00000100
00010000
00001000
00100000
00010000
,
10000000
01000000
00100000
01000000
10000000
01000000
00010000
00001000
,
00100000
00001000
00010000
00000010
00010000
00001000
00000010
00000001
,
00001000
00000010
00001000
00000100
00000010
00000001
00000100
00001000
,
00010000
00000100
00010000
00001000
00010000
00000010
00010000
00001000
,
00100000
00001000
00010000
00001000
01000000
00001000
00010000
00100000
,
10000000
01000000
00100000
01000000
00010000
00001000
00000010
00000000
,
00000001
00000100
00000010
00000100
00001000
00010000
00100000
00000000
,
10000000
01000000
00100000
00010000
00001000
00000100
00000010
00000001
,
00001000
00000002
00000203
00002300
,
00023000
02030000
23000000
00000000
,
30010000
20000000
32000000
03020000
,
00032000
00003200
00000302
00000013
,
00000001
00000000
00000100
00000010
00000000
00000010
00000100
00000000
,
00002000
00000000
00023000
00000000
00230000
00000000
10300000
01000000
,
00100000
00000000
01000000
00010000
00001000
00000000
00010000
00000010
,
00001000
00001100
00000220
00000330
,
00000001
00000100
00001000
00000100
00000010
00001000
00000100
00000010
,
00001000
00010000
00100000
01000000
00010000
10000000
01000000
00000000
,
10000000
01000000
00010000
01000000
00100000
00010000
01000000
00100000
,
00010000
00001000
00000010
00000100
00001000
00000001
00000100
00000000
,
00000001
00000000
00000010
00000100
00000000
00000100
00000010
00000000
,
00002000
00000000
00023000
00000000
00230000
00000000
10300000
01000000
,
00010000
00000000
01000000
00010000
00001000
00000000
00010000
00001000
,
00000100
00000001
00000010
00000100
00001000
00000010
00010000
00001000
,
00000200
00000000
00000000
00000000
,
00000300
00000000
00000000
00000000
;

//---------------dance-double - NewbStepper-BDP----------------
#NOTES:
     dance-double:
     NewbStepper:
     Easy:
     9:
     0.383431,0.498893,0.159221,0.553483,0,354,333,21,73,0,0,0.383431,0.498893,0.159221,0.553483,0,354,333,21,73,0,0:
00000000
00000000
00000000
00000000
,
00000000
00000000
00020000
00000000
00032000
00000000
00013000
00000010
,
00002000
00000000
00003010
00001000
00000002
00000000
00000003
00000001
,
00000101
00000000
00000000
00001000
00001100
00000000
00001000
00000010
,
00010000
00001000
00100000
00010000
20000000
00000000
30000000
00000000
,
10010000
00010000
02000000
03010000
,
00020000
00130000
02000000
23000000
,
30020000
01030000
02000000
03001000
,
00020000
00030020
00002030
00003002
,
00001003
00001000
00000001
00000001
,
00000100
00000010
00001000
00000100
,
00010000
01000000
10000000
01000000
,
00020000
00000000
00000000
00030000
,
00001000
00010000
00000010
00000010
,
00001000
00000100
00000010
00000100
,
00001000
00000001
00000100
00001000
,
00001000
00010000
01000000
10000000
,
00100000
10000000
00010000
00010000
,
00100000
00001000
00010000
00000010
,
00001000
00000001
00000001
00000100
,
00001000
00010000
01000000
10000000
,
00010000
01000000
02000000
00000000
,
03100000
00200000
00000000
00310000
,
00020000
00000000
00031000
00002000
,
00000000
00003100
00000200
00000000
,
00000310
00000020
00000000
00000031
,
00000002
00000000
00001003
00002000
,
00003001
00000010
00000020
00000000
,
00000130
00000200
00000000
00010300
,
00020000
00000000
00031000
00002000
,
00000000
00103000
00200000
00000000
,
01300000
02000000
00000000
13000000
,
20000000
00000000
30010000
00010000
,
02000000
03100000
00010000
00002000
,
00003010
00000100
00020000
00032000
,
00003020
00000230
00000320
00002030
,
00003002
00000000
00002003
00003200
,
00010300
00010000
00001000
00100000
,
00100000
00010000
01000000
01000000
,
20000000
31000000
00010000
00010000
,
00100000
00001000
00001000
00000100
,
00010000
00010000
00100000
00001000
,
00001000
00000100
00000001
00000020
,
00000001
00000000
00000031
00000000
00001000
00000000
00000000
00000001
,
00001000
00000001
00000001
00000001
,
00001001
00000000
00000000
00001000
00000000
00000000
00001100
00000000
,
00000000
00000100
00000000
00000000
00000010
00000000
00001000
00000000
,
00011000
00000000
00000000
00010000
00000000
00000000
00110000
00000000
,
00000000
00100000
00000000
00000000
01000000
00000000
00010000
00000000
,
10010000
00000000
00000000
00010000
00000000
00000000
01010000
00000000
,
00000000
01000000
00000000
00000000
00100000
00000000
00010000
00000000
,
00011000
00000000
00000000
00001000
00000000
00000000
00001010
00000000
,
00000000
00000010
00000000
00000000
00000100
00000000
00001000
00000000
,
00001001
00000000
00000000
00002000
00000000
00000000
00003020
00000000
,
00000000
00020030
00000000
00000000
00031000
00000000
00100000
00000000
,
10010000
00000000
00000000
00020000
00000000
00000000
00230000
00000000
,
00000000
00302000
00000000
00000000
00013000
00000000
00000010
00000000
,
00000110
00000000
00000000
00000200
00000000
00000000
00002300
00000000
,
00000000
00023000
00000000
00000000
01030000
00000000
00100000
00000000
,
01100000
00000000
00000000
02000000
00000000
00000000
03020000
00000000
,
00000000
00032000
00000000
00000000
00003100
00000000
00000010
00000000
,
00001002
00000100
00000100
00000203
,
00000320
00010000
00010000
00010030
,
00020000
00001000
00001000
00032000
,
00203000
01000000
01300000
00100000
,
00001000
00010000
01000000
00010000
,
00001000
00010000
00001000
00000100
,
00001000
00010000
00001000
00010000
,
00100000
00010000
00001000
00010000
,
00001000
00000010
00001000
00010000
,
00000100
00000010
00000100
00001000
,
00000001
00000100
00000010
00000100
,
00000001
00001000
00000100
00000010
,
00000100
00010000
00001000
01000000
,
00100000
01000000
00010000
10000000
,
01000000
00100000
01000000
10000000
,
00100000
01000000
00010000
00100000
,
00002000
01000000
00010000
00010000
,
00100000
00100000
00013000
00000000
,
00020000
00000100
00001000
00001000
,
00000010
00000010
00001000
00031000
,
00011000
00000000
00000000
00010010
00000000
00000000
00011000
00000000
,
00001000
00010000
01000000
10000000
,
00200000
20300000
30020000
00230000
,
00302000
00013000
00022000
00033000
,
00010000
00001000
00000100
00000001
,
00000010
00001000
00020000
00030000
,
00001000
00010000
01000000
10000000
,
00100000
00010000
00001000
00000010
,
00001000
00000000
00000000
00011000
00000000
00000000
00010000
00000000
,
01000000
10000000
00100000
00010000
,
00000010
00010000
00001000
00100000
,
00001000
00000010
00000001
00000100
,
00002000
00000000
00000000
00000000
,
00003000
00000000
00000000
00000000
;
