#VERSION:0.83;
#TITLE:neogenesis;
#ARTIST:DM Ashura;
#BANNER:neogenesis.png;
#BACKGROUND:neogenesis-bg.png;
#JACKET:neogenesis-jacket.png;
#MUSIC:neogenesis.ogg;
#OFFSET:1.009404;
#SAMPLESTART:86.209;
#SAMPLELENGTH:15;
#BPMS:0=151;
#BGCHANGES:2.75=neogenesis.avi=1=0=0=0=StretchNoLoop====,99999=-nosongbg-=1=0=0=0 // don't automatically add -songbackground-;

//---------------dance-single - NewbStepper-ESP----------------
#NOTEDATA:;
#CHARTNAME:NewbStepper-ESP;
#STEPSTYPE:dance-single;
#DESCRIPTION:NewbStepper-ESP;
#DIFFICULTY:Hard;
#METER:12;
#RADARVALUES:0.502285,0.666747,0.191630,0.174966,0.391592,422,399,23,21,0,0,0,0,0,0.502285,0.666747,0.191630,0.174966,0.391592,422,399,23,21,0,0,0,0,0;
#CREDIT:NewbStepper;
#NOTES:
0000
0000
0000
0000
,
0000
0000
0000
0000
,
0000
0000
0000
0000
,
0000
0000
0000
0000
,
0000
0000
0000
0000
0000
0000
0000
0000
0000
0000
0000
0000
0000
0000
0010
1000
,
0002
0000
0000
0000
0000
0000
0000
0000
0103
0000
0000
0010
0000
0000
1000
0000
,
0002
0000
0000
0000
0000
0000
0000
0000
0013
0000
0000
0001
0000
0000
0100
0000
,
0020
0000
0000
0030
,
0000
0000
0000
0000
0000
0000
0000
0000
0000
0000
0000
0000
0000
0000
1000
0001
,
0100
0000
0000
0000
0010
0000
0000
0000
1000
0000
0000
0001
0000
0000
1000
0000
,
0100
0000
0000
0010
0000
0000
0001
0000
0000
0000
0000
0000
0100
0000
0010
0000
,
1000
0000
0000
0100
0000
0000
0020
0000
0000
0000
0000
0000
0030
0000
0000
0000
,
0000
0000
0000
0000
0000
0000
0000
0000
0000
0000
0000
0000
0000
0000
0001
0100
,
0020
0000
0000
0000
0030
0000
0000
0000
1000
0000
0000
0001
0000
0000
0100
0000
,
0002
0000
0000
0000
0000
0000
1003
0000
0000
0000
0000
0000
0000
0000
1000
0100
,
0020
0000
0031
0100
,
1000
0000
0000
0100
0000
0000
0001
0000
0010
0000
0000
0000
0010
0000
0001
1000
,
0002
0000
0000
0003
,
0000
0000
0000
0000
,
1000
0001
1000
0100
0010
0001
1000
0010
,
0100
1000
0100
0001
0010
0100
1000
0000
,
0001
1000
0001
0100
0010
1000
0001
0010
,
0100
0001
0100
1000
0010
0100
0001
0000
,
1000
0000
0100
0000
0110
0000
0000
0000
0001
0000
0100
0000
0010
0000
1000
0010
,
1000
0000
0000
0000
0101
0000
0000
0000
1000
0000
0100
0000
1000
0000
0001
0010
,
0001
0000
1000
0000
0001
0000
1000
0010
1000
0000
0001
0000
0010
0000
0100
0010
,
0100
0000
1000
0000
0010
0100
0000
0001
0000
0100
0010
0000
1000
0001
1000
0001
,
0020
0000
0000
0000
0001
0000
0000
0000
0100
0000
0000
0000
0031
0000
1000
0001
,
0200
1000
0010
0301
,
1000
0100
0010
0001
0100
1000
0100
0001
,
0020
0000
0000
0000
0100
0000
0000
0000
1000
0000
0000
0000
0130
0000
1000
0001
,
1000
1100
0001
0101
,
0010
0000
1000
0000
0100
0000
0010
0000
0001
0000
0000
0100
0000
0000
1000
0000
,
0200
0000
0000
0000
0000
0300
0001
0020
,
0000
0000
0000
0000
0000
0000
0030
0000
0100
0000
1000
0010
1000
0000
0001
0010
,
0001
0100
0010
0000
1000
0100
0010
0000
,
0001
0100
1000
0000
1000
0100
0001
0000
,
0010
0001
0100
0000
0010
1000
0100
0000
,
0010
0000
0001
0000
0100
0000
1000
0000
0001
0000
0010
0000
1000
0000
0100
0010
,
0200
1000
0010
0001
,
0310
0000
0000
0000
0101
0000
0000
0000
0010
0000
0000
1000
0000
0000
0001
0000
,
0200
0001
0010
1000
,
0310
0000
1000
0000
0100
0000
0010
0000
0001
0000
1000
0100
1000
0000
0001
0100
,
0002
0000
0000
0000
0003
0000
1000
0010
1000
0000
0000
0100
0000
0000
0001
0000
,
0200
0000
0000
0000
0000
0000
0000
0000
0000
0000
0000
0000
0300
0000
0010
0001
,
2000
0000
0000
0000
3000
0000
0001
0010
0001
0000
0000
0100
0000
0000
1000
0000
,
0200
0000
0000
0000
0000
0000
0000
0000
0000
0000
0000
0000
0300
0000
0001
0010
,
0100
0000
0000
0000
1000
0000
0000
0001
0000
0001
0100
0000
0110
0000
1000
0001
,
1000
0000
0000
0000
0001
0000
0000
1000
0000
1000
0100
0000
0110
0000
0001
1000
,
0001
0000
0000
0000
0100
0000
0000
0010
0000
0010
1000
0000
0100
0000
0010
0001
,
0010
0000
0000
1000
0000
0000
0010
0000
0011
0000
0000
1001
0000
0000
1010
0000
,
0110
0000
0000
0001
0000
0000
0101
0000
0000
0010
0000
0000
1100
0000
0000
0001
,
0000
0000
0110
0000
0000
1000
0000
0000
1001
0000
0010
0000
0100
0000
1001
0000
,
0000
0000
0000
0000
,
0000
0000
0000
0000
0000
0000
0000
0000
0000
0000
0000
0000
0000
0000
0001
1000
,
0010
0000
0000
0010
1000
0000
0000
1000
0100
0000
0000
0100
0010
0000
0000
0010
,
0001
0000
0000
0001
0100
0000
0000
0100
0010
0000
0000
0010
1000
0000
0000
1000
,
0100
0000
0000
0100
0001
0000
0000
0001
0100
0000
0000
0100
0010
0000
0000
0010
,
0001
0000
0000
0001
0100
0000
0000
0100
0010
0000
1000
0000
0001
0000
1000
0001
,
0010
0000
0000
0010
0001
0000
0000
0001
0100
0000
0000
0100
0010
0000
0000
0010
,
1000
0000
0000
1000
0100
0000
0000
0100
0010
0000
0000
0010
0001
0000
0000
0001
,
0100
0000
0000
0100
1000
0000
0000
1000
0100
0000
0000
0100
0010
0000
0000
0010
,
1000
0000
0000
1000
0100
0000
0000
0100
0010
0000
0001
0000
1000
0000
0010
1000
,
0010
1000
0100
0001
0100
0010
0001
0100
,
0010
1000
0001
0010
1000
0010
0001
0100
,
0101
0000
0000
1010
0000
0000
1001
0000
0000
0000
1000
0000
0100
0000
0010
0000
,
0001
0000
0000
0001
0100
0000
0000
0100
0010
0000
0000
0010
1000
0000
0001
1000
,
0010
0000
1000
0000
1100
0000
0000
0000
0010
0000
0010
0000
0010
0000
0001
0100
,
0002
0000
0000
0000
0103
0000
0000
0000
0010
0000
0010
0000
0010
0000
1000
0100
,
1000
0000
0001
0000
0100
0000
0001
0100
0001
0000
1000
0000
0100
0000
1000
0010
,
0100
0000
0000
0101
0000
0000
1001
0000
0000
1010
0000
0000
0100
0000
0001
0100
,
0020
0000
0000
0000
,
0000
0000
0000
0030
;

//---------------dance-single - NewbStepper-DSP----------------
#NOTEDATA:;
#CHARTNAME:NewbStepper-DSP;
#STEPSTYPE:dance-single;
#DESCRIPTION:NewbStepper-DSP;
#DIFFICULTY:Medium;
#METER:9;
#RADARVALUES:0.328508,0.484907,0.224957,0.241620,0.070820,276,249,27,29,0,0,0,0,0,0.328508,0.484907,0.224957,0.241620,0.070820,276,249,27,29,0,0,0,0,0;
#CREDIT:NewbStepper;
#NOTES:
0000
0000
0000
0000
,
0000
0000
0000
0000
,
0000
0000
0000
0000
,
0000
0000
0000
0000
,
0000
0000
0000
0000
0000
0000
0000
1000
,
0200
0000
0000
0000
0000
0000
0000
0000
0310
0000
0000
0001
0000
0000
0100
0000
,
0020
0000
1030
0001
,
0200
0000
0000
0300
,
0000
0000
0000
0000
0000
0000
0000
0001
,
0200
0000
0000
0000
0000
0000
0000
0000
0310
0000
0000
1000
0000
0000
0010
0000
,
0100
0000
0000
0001
0000
0000
0100
0000
0000
0000
0000
0000
0010
0000
0000
0000
,
1000
0000
0000
0001
0000
0000
2000
0000
0000
0000
0000
0000
3000
0000
0000
0000
,
0000
0000
0000
0000
0000
0000
0000
0001
,
0200
0000
0000
0000
0310
0000
0000
1000
,
1000
0000
0000
0000
0010
0000
0000
0001
,
0001
0000
0000
0010
0010
0000
0000
1000
,
1000
0000
0001
0000
1000
0000
0010
0100
,
0220
0000
0000
0330
,
0000
0000
0000
0000
,
0010
0001
0100
0000
0010
1000
0100
0000
,
0010
1100
0010
0101
,
0010
1000
0100
0000
0010
0001
0100
0000
,
0010
0101
0010
1100
,
0001
0000
0100
0000
0010
1000
0010
0100
,
0010
0000
1000
0000
0100
0010
0001
0010
,
0100
1000
0001
0000
0100
0001
1000
0000
,
0001
0100
1000
0100
0001
0010
1000
0010
,
0002
0000
0000
0003
,
2000
0000
0000
3100
0000
0010
0000
0001
,
0200
0000
0000
0000
0000
0000
0310
2000
,
0000
0000
0000
0000
0000
0000
3000
0001
,
0200
0000
0000
0020
0000
0000
0300
0000
,
0000
0000
0000
0000
0030
0000
1000
0000
0100
0000
0000
0010
0000
0000
0100
0000
,
0002
0000
0000
0000
0000
0000
0103
2000
,
0000
0000
0000
0000
3001
0000
0010
0001
,
2000
0000
0000
0000
,
0000
0000
3000
0010
0100
0000
0001
0000
,
0020
0000
0000
0000
0030
0001
0100
0001
,
0000
0100
0000
0010
0000
1000
0000
0200
,
0000
0000
0000
0000
0000
0000
1300
0020
,
0000
0000
0000
0000
0030
0000
0000
0000
1000
0000
0000
0100
0000
0000
0010
0000
,
0002
0000
0000
0000
0003
0000
0100
0020
,
0000
0000
0000
0000
1030
0000
0100
1000
,
1002
0000
0000
0000
0000
0000
0100
0000
0103
0000
0000
0001
0000
0000
1000
0000
,
0020
0000
0000
0000
0130
0000
0000
0001
,
2001
0000
0000
0000
0000
0000
0100
0000
3100
0000
0000
1000
0000
0000
0001
0000
,
0020
0000
0000
0000
0130
0000
0000
1000
,
1100
0000
0011
0100
,
1010
0000
1100
0010
,
0101
0000
1001
0000
,
1000
0000
0000
1000
0000
0000
1000
0000
0001
0000
0000
0001
0000
0000
0001
0000
,
0100
0000
0000
0100
0000
0000
0100
0000
0020
0000
0000
0000
0000
0000
0000
0000
,
0000
0000
0000
0000
0030
1000
0001
1001
,
0000
0000
0000
0000
,
0000
0000
0000
0000
,
0011
0000
0101
0000
0011
0000
0100
1000
,
0001
0000
0100
0001
1000
0100
0010
0000
,
0001
0000
0000
0100
1000
0000
0000
0100
,
0001
0000
0000
0001
0000
0000
0001
0000
0010
0000
0000
0000
0100
0000
0000
0000
,
1001
0000
0000
0000
0000
0000
0000
0000
1010
0000
0000
0010
0000
0000
0100
0000
,
0101
0000
0000
0000
0000
0000
0000
0000
0011
0000
0000
0001
0000
0000
0100
0000
,
0110
0000
0000
0000
1000
0100
0001
0000
,
0100
0010
0100
0000
1000
0010
0100
0010
,
1010
0000
1100
0000
1010
0000
0100
0001
,
1000
0000
0100
1000
0001
0100
0010
0000
,
1000
0000
0000
0100
0001
0000
0000
0100
,
1000
0000
0000
1000
0000
0000
1000
0000
0010
0000
0000
0000
0100
0000
0000
0000
,
1001
0000
0000
0000
0001
0100
1000
0100
,
0001
0000
1000
0000
0100
0100
0100
0000
,
1000
0100
0001
0100
1000
0010
0001
0010
,
1000
0000
0000
1000
0000
0000
0001
0000
0000
0001
0000
0000
0100
0000
0010
0000
,
0220
0000
0000
0000
,
0000
0000
0000
0330
;

//---------------dance-single - NewbStepper-BSP----------------
#NOTEDATA:;
#CHARTNAME:NewbStepper-BSP;
#STEPSTYPE:dance-single;
#DESCRIPTION:NewbStepper-BSP;
#DIFFICULTY:Easy;
#METER:4;
#RADARVALUES:0.172586,0.272760,0.033327,0.166635,0,145,141,4,20,0,0,0,0,0,0.172586,0.272760,0.033327,0.166635,0,145,141,4,20,0,0,0,0,0;
#CREDIT:NewbStepper;
#NOTES:
0000
0000
0000
0000
,
0000
0000
0000
0000
,
0000
0000
0000
0000
,
0000
0000
0000
0000
,
0000
0000
0000
0000
,
0001
0000
0000
0000
,
1000
0000
0000
0000
,
0001
0000
0000
0000
,
0000
0000
0000
0000
,
1000
0000
1000
0100
,
0010
0000
0000
0000
,
0001
0000
0001
0100
,
0010
0000
0000
0000
,
1000
0000
0001
0100
,
0001
0000
0010
0000
,
0001
0000
1000
0100
,
0010
0001
1000
0010
,
0220
0000
0000
0330
,
0000
0000
0000
0000
,
0001
0100
0010
1000
,
0001
0100
0010
0000
,
1000
0100
0010
0001
,
1000
0100
0010
0000
,
0001
0100
1000
0100
,
0001
0100
0010
0000
,
1000
0100
0001
0100
,
1000
0100
0010
0001
,
2000
0000
0000
3000
,
0002
0000
0000
0003
,
2000
0000
0000
3000
,
0020
0000
0000
0030
,
0200
0000
0301
0000
,
0020
0000
1030
0000
,
0200
0000
0301
0000
,
0020
0000
1030
0000
,
0002
0000
0000
0003
,
2000
0000
0000
3000
,
0002
0000
0000
0003
,
0200
0000
0000
0300
,
0020
0000
0000
0030
,
2000
0000
3001
0100
,
0002
0000
0000
0003
,
1000
0100
0001
0100
,
1000
0000
0000
0000
,
0000
0000
0000
0000
,
0001
0000
0000
0000
,
0000
0000
0000
0000
,
1000
0000
0100
0100
,
0010
0000
0001
0001
,
0100
0000
0010
0000
,
1001
0000
1001
0000
,
2002
0000
0000
0000
,
0000
0000
0000
3003
,
0000
0000
0000
0000
,
0000
0000
0000
0000
,
0010
0010
0010
0001
,
0100
0010
1000
0000
,
0010
0000
1000
0000
,
0100
0001
0100
0000
,
0010
0000
0001
0100
,
0001
0000
1000
0100
,
1000
0000
0001
0000
,
1000
0001
1000
0000
,
0010
0010
0010
1000
,
0100
0010
0001
0000
,
0010
0000
0001
0000
,
0100
1000
0100
0000
,
0010
0000
1000
0100
,
1000
0000
0001
0100
,
0001
1000
0100
1000
,
0001
0010
1000
0010
,
0002
0000
0000
0000
,
0000
0000
0000
0003
;

//---------------dance-single - NewbStepper-bSP----------------
#NOTEDATA:;
#CHARTNAME:NewbStepper-bSP;
#STEPSTYPE:dance-single;
#DESCRIPTION:NewbStepper-bSP;
#DIFFICULTY:Beginner;
#METER:1;
#RADARVALUES:0.069034,0.177466,0.049990,0.066654,0,58,52,6,8,0,0,0,0,0,0.069034,0.177466,0.049990,0.066654,0,58,52,6,8,0,0,0,0,0;
#CREDIT:NewbStepper;
#NOTES:
0000
0000
0000
0000
,
0000
0000
0000
0000
,
0000
0000
0000
0000
,
0000
0000
0000
0000
,
0000
0000
0000
0000
,
1000
0000
0000
0000
,
0001
0000
0000
0000
,
1000
0000
0000
0000
,
0000
0000
0000
0000
,
0001
0000
0000
0000
,
0000
0000
0000
0000
,
1000
0000
0000
0000
,
0000
0000
0000
0000
,
0001
0000
0000
0000
,
0000
0000
0000
0000
,
1000
0000
0000
0000
,
0010
0000
0010
0000
,
0010
0000
0000
0000
,
0000
0000
0000
0000
,
1000
0000
0000
0000
,
0100
0000
0000
0000
,
0010
0000
0000
0000
,
0001
0000
0000
0000
,
1000
0000
0000
0000
,
0001
0000
0000
0000
,
1000
0000
0000
0000
,
0010
0000
0000
0000
,
2000
0000
0000
0000
,
3000
0000
0000
0000
,
0002
0000
0000
0000
,
0003
0000
0000
0000
,
0200
0000
0000
0000
,
0300
0000
0000
0000
,
0020
0000
0000
0000
,
0030
0000
0000
0000
,
2000
0000
0000
0000
,
3000
0000
0000
0000
,
0002
0000
0000
0000
,
0003
0000
0000
0000
,
0200
0000
0000
0000
,
0300
0000
0000
0000
,
0020
0000
0000
0000
,
0030
0000
0000
0000
,
1001
0000
0000
0000
,
0000
0000
0000
0000
,
1001
0000
0000
0000
,
0000
0000
0000
0000
,
0110
0000
0000
0000
,
0110
0000
0000
0000
,
0110
0000
0000
0000
,
0001
0000
1000
0000
,
0001
0000
0000
0000
,
0000
0000
0000
0000
0000
0000
0000
1001
,
0000
0000
0000
0000
,
0000
0000
0000
0000
,
0010
0000
0010
0000
,
1000
0000
0000
0000
,
0001
0000
0000
0000
,
0000
0000
0000
0000
,
0010
0000
0000
0000
,
0001
0000
1000
0000
,
0001
0000
0000
0000
,
0000
0000
0000
0000
,
0010
0000
0010
0000
,
0001
0000
0000
0000
,
1000
0000
0000
0000
,
0000
0000
0000
0000
,
0010
0000
0000
0000
,
1000
0000
0000
0000
,
0001
0000
0000
0000
,
0100
0000
0000
0000
,
0001
0000
0000
0000
;

//---------------dance-double - NewbStepper-EDP----------------
#NOTEDATA:;
#CHARTNAME:NewbStepper-EDP;
#STEPSTYPE:dance-double;
#DESCRIPTION:NewbStepper-EDP;
#DIFFICULTY:Hard;
#METER:13;
#RADARVALUES:0.502285,0.697054,0.199962,0.174966,0.383260,422,398,24,21,0,0,0,0,0,0.502285,0.697054,0.199962,0.174966,0.383260,422,398,24,21,0,0,0,0,0;
#CREDIT:NewbStepper;
#NOTES:
// measure 0
00000000
00000000
00000000
00000000
,  // measure 1
00000000
00000000
00000000
00000000
,  // measure 2
00000000
00000000
00000000
00000000
,  // measure 3
00000000
00000000
00000000
00000000
,  // measure 4
00000000
00000000
00000000
00000000
00000000
00000000
00000000
00000000
00000000
00000000
00000000
00000000
00000000
00000000
00010000
00001000
,  // measure 5
00200000
00000000
00000000
00000000
00000000
00000000
00000000
00000000
00310000
00000000
00000000
10000000
00000000
00000000
01000000
00000000
,  // measure 6
00020000
00000000
00000000
00000000
00000000
00000000
00000000
00000000
00031000
00000000
00000000
00000100
00000000
00000000
00001000
00000000
,  // measure 7
00020000
00000000
00000000
00030000
,  // measure 8
00000000
00000000
00000000
00000000
00000000
00000000
00000000
00000000
00000000
00000000
00000000
00000000
00000000
00000000
00001000
00010000
,  // measure 9
00000020
00000000
00000000
00000000
00000030
00000000
00000000
00000000
00001000
00000000
00000000
00000001
00000000
00000000
00000010
00000000
,  // measure 10
00001000
00000000
00000000
00010000
00000000
00000000
00100000
00000000
00000000
00000000
00000000
00000000
10000000
00000000
00100000
00000000
,  // measure 11
01000000
00000000
00000000
00010000
00000000
00000000
00200000
00000000
00000000
00000000
00000000
00000000
00000000
00000000
00300000
00000000
,  // measure 12
00000000
00000000
00000000
00000000
00000000
00000000
00000000
00000000
00000000
00000000
00000000
00000000
00000000
00000000
00001000
00010000
,  // measure 13
00000020
00000000
00000000
00000000
00000030
00000000
00000000
00000000
00001000
00000000
00000000
00000001
00000000
00000000
00000100
00000000
,  // measure 14
00002000
00000000
00000000
00000000
00000000
00000000
00013000
00000000
00000000
00000000
00000000
00000000
00000000
00000000
01000000
00010000
,  // measure 15
00002000
00000000
00013000
00100000
,  // measure 16
10000000
00000000
00000000
01000000
00000000
00000000
00010000
00000000
00001000
00000000
00000000
00000000
00000010
00000000
00000001
00001000
,  // measure 17
00000002
00000000
00000000
00000003
,  // measure 18
00000000
00000000
00000000
00000000
,  // measure 19
00001000
00000001
00001000
00000100
00000010
00000001
00000100
00001000
,  // measure 20
00010000
01000000
10000000
00100000
01000000
00010000
10000000
00000000
,  // measure 21
00010000
10000000
00010000
01000000
00100000
10000000
01000000
00010000
,  // measure 22
00001000
00000100
00000001
00000010
00000100
00001000
00000001
00000000
,  // measure 23
00001000
00000000
00000000
00000000
00001100
00000000
00000000
00000000
00000010
00000000
00000001
00000000
00000100
00000000
00001000
00010000
,  // measure 24
00001000
00000000
00000000
00000000
01010000
00000000
00000000
00000000
00100000
00000000
10000000
00000000
01000000
00000000
00010000
00001000
,  // measure 25
00010000
00000000
00001000
00000000
00000010
00000000
00001000
00010000
00001000
00000000
00010000
00000000
00100000
00000000
00010000
00001000
,  // measure 26
00010000
00000000
00001000
00000000
00000100
00000001
00000000
00001000
00000000
00000001
00000010
00000000
00001000
00010000
00001000
00000000
,  // measure 27
00200000
00000000
00000000
00000000
00010000
00000000
00000000
00000000
01000000
00000000
00000000
00000000
00310000
00000000
10000000
01000000
,  // measure 28
00020000
00000000
00000000
00000000
00001000
00000000
00000000
00000000
00100000
00000000
00000000
00000000
00031000
00000000
00010000
00001000
,  // measure 29
00000020
00000001
00000100
00001030
,  // measure 30
00010000
00000000
00001000
00000000
00000010
00000000
00000001
00000000
00000100
00000000
00001000
00000000
00010000
00000000
00000010
00001000
,  // measure 31
00000020
00000000
00000000
00000000
00001000
00000000
00000000
00000000
00000100
00000000
00000000
00000000
00001030
00000000
00000001
00000100
,  // measure 32
00002000
00010000
00000010
00013000
,  // measure 33
00001000
00010000
00100000
00010000
00001000
00000010
00000001
00000010
,  // measure 34
00001000
00000000
00010000
00000000
01000000
00000000
10000000
00000000
00010000
00000000
01000000
00010000
01000000
00000000
00100000
10000000
,  // measure 35
00100000
10000000
01000000
00000000
00100000
00010000
01000000
00000000
,  // measure 36
00100000
10000000
01000000
00010000
00001000
00000100
00000001
00000000
,  // measure 37
00000010
00000001
00000100
00000000
00000010
00001000
00000100
00000000
,  // measure 38
00000010
00000000
00000001
00000000
00000100
00000000
00001000
00000000
00010000
00000000
01000000
00000000
10000000
00000000
00100000
01000000
,  // measure 39
00200000
10000000
01000000
00310000
,  // measure 40
00001000
00000000
00000000
00000000
00011000
00000000
00000000
00000000
00100000
00000000
00000000
00010000
00000000
00000000
00001000
00000000
,  // measure 41
00000020
00000001
00000100
00001030
,  // measure 42
00010000
00000000
00001000
00000000
00000010
00000000
00000001
00000000
00000100
00000000
00000010
00001000
00000010
00000000
00000100
00000001
,  // measure 43
00000200
00000000
00000000
00000000
00000300
00000000
00001000
00010000
00001000
00000000
00000000
00010000
00000000
00000000
00100000
00000000
,  // measure 44
20000000
00000000
00000000
00000000
00000000
00000000
00000000
00000000
00000000
00000000
00000000
00000000
30000000
00000000
01000000
10000000
,  // measure 45
02000000
00000000
00000000
00000000
03000000
00000000
00010000
00001000
00010000
00000000
00000000
00001000
00000000
00000000
00000010
00000000
,  // measure 46
00000002
00000000
00000000
00000000
00000000
00000000
00000000
00000000
00000003
00000000
00000000
00000000
00000000
00000000
00001000
00000100
,  // measure 47
00000010
00000000
00000000
00000000
00000001
00000000
00000000
00000100
00000000
00000010
00000100
00000000
00000110
00000000
00001000
00010000
,  // measure 48
00100000
00000000
00000000
00000000
10000000
00000000
00000000
01000000
00000000
00100000
01000000
00000000
01100000
00000000
00010000
00001000
,  // measure 49
00000010
00000000
00000000
00000001
00000000
00000000
00000100
00000010
00000100
00000000
00000000
00001000
00000000
00000000
00000001
00000000
,  // measure 50
00000010
00000000
00000000
00001000
00000000
00000000
00000010
00000000
00010000
00000000
00000000
00001000
00000000
00000000
00010000
00000000
,  // measure 51
00011000
00000000
00000000
00101000
00000000
00000000
00110000
00000000
00000000
10010000
00000000
00000000
11000000
00000000
00000000
01010000
,  // measure 52
00000000
00000000
00011000
00000000
00000000
00001100
00000000
00000000
00000110
00000000
00000010
00000000
00000100
00000000
00001001
00000000
,  // measure 53
00000000
00000000
00000000
00000000
,  // measure 54
00000000
00000000
00000000
00000000
00000000
00000000
00000000
00000000
00000000
00000000
00000000
00000000
00000000
00000000
00000010
00000001
,  // measure 55
00001000
00000000
00000000
00001000
00000100
00000000
00000000
00000100
00000001
00000000
00000000
00000001
00000100
00000000
00000000
00000100
,  // measure 56
00010000
00000000
00000000
00010000
00001000
00000000
00000000
00001000
00000010
00000000
00000000
00000010
00001000
00000000
00000000
00001000
,  // measure 57
00010000
00000000
00000000
00010000
00100000
00000000
00000000
00100000
10000000
00000000
00000000
10000000
01000000
00000000
00000000
01000000
,  // measure 58
00010000
00000000
00000000
00010000
00001000
00000000
00000000
00001000
00100000
00000000
00000000
00100000
00010000
00000000
10000000
00010000
,  // measure 59
00100000
00000000
01100000
00000000
01000000
00100000
00010000
00001000
,  // measure 60
00000100
00000000
00000110
00000000
00000010
00001000
00010000
01000000
,  // measure 61
00100000
01100000
00010000
00011000
,  // measure 62
00000010
00000000
00000001
00000000
00000100
00000000
00001000
00000000
00010000
00000000
01000000
00000000
10000000
00000000
00100000
10000000
,  // measure 63
00010000
00000000
00000000
00010000
01000000
00000000
00000000
01000000
10000000
00000000
00000000
10000000
01000000
00000000
00000000
01000000
,  // measure 64
00001000
00000000
00000000
00001000
00010000
00000000
00000000
00010000
00100000
00000000
00000000
00100000
00010000
00000000
00000000
00010000
,  // measure 65
00001000
00000000
00000000
00001000
00000010
00000000
00000000
00000010
00000001
00000000
00000000
00000001
00000100
00000000
00000000
00000100
,  // measure 66
00001000
00000000
00000000
00001000
00010000
00000000
00000000
00010000
00000010
00000000
00000000
00000010
00001000
00000000
00000001
00001000
,  // measure 67
00000010
00000000
00000000
00000000
00001001
00000000
00000000
00000000
00000010
00000000
00000001
00000000
00000100
00000000
00001000
00010000
,  // measure 68
00001000
00000000
00000000
00000000
01100000
00000000
00000000
00000000
00100000
00000000
10000000
00000000
01000000
00000000
00010000
00001000
,  // measure 69
00010000
00000000
00001000
00000000
00000010
00000000
00001000
00010000
00001000
00000000
00010000
00000000
00100000
00000000
00010000
00001000
,  // measure 70
00010000
00000000
00000000
00011000
00000000
00000000
00001010
00000000
00000000
00000011
00000000
00000000
00000100
00000000
00001000
00000100
,  // measure 71
00000020
00000000
00000000
00000000
,  // measure 72
00000000
00000000
00000000
00000030
;

//---------------dance-double - NewbStepper-DDP----------------
#NOTEDATA:;
#CHARTNAME:NewbStepper-DDP;
#STEPSTYPE:dance-double;
#DESCRIPTION:NewbStepper-DDP;
#DIFFICULTY:Medium;
#METER:9;
#RADARVALUES:0.313035,0.454600,0.216625,0.241620,0.062488,263,237,26,29,0,0,0,0,0,0.313035,0.454600,0.216625,0.241620,0.062488,263,237,26,29,0,0,0,0,0;
#CREDIT:NewbStepper;
#NOTES:
00000000
00000000
00000000
00000000
,
00000000
00000000
00000000
00000000
,
00000000
00000000
00000000
00000000
,
00000000
00000000
00000000
00000000
,
00000000
00000000
00000000
00000000
00000000
00000000
00000000
00010000
,
02000000
00000000
00000000
00000000
00000000
00000000
00000000
00000000
03100000
00000000
00000000
10000000
00000000
00000000
01000000
00000000
,
00020000
00000000
00031000
00000100
,
00000020
00000000
00000000
00000030
,
00000000
00000000
00000000
00000000
00000000
00000000
00000000
00001000
,
00000200
00000000
00000000
00000000
00000000
00000000
00000000
00000000
00000310
00000000
00000000
00000001
00000000
00000000
00000100
00000000
,
00001000
00000000
00000000
00010000
00000000
00000000
01000000
00000000
00000000
00000000
00000000
00000000
00100000
00000000
00000000
00000000
,
00010000
00000000
00000000
10000000
00000000
00000000
00020000
00000000
00000000
00000000
00000000
00000000
00000000
00000000
00030000
00000000
,
00000000
00000000
00000000
00000000
00000000
00000000
00000000
10000000
,
02000000
00000000
00000000
00000000
03100000
00000000
00000000
00010000
,
00010000
00000000
00000000
00000000
00001000
00000000
00000000
00000100
,
00000100
00000000
00000000
00000010
00000010
00000000
00000000
00000001
,
00000001
00000000
00001000
00000000
00000001
00000000
00000010
00000100
,
00000220
00000000
00000000
00000330
,
00000000
00000000
00000000
00000000
,
00000010
00000001
00000100
00000000
00000010
00001000
00000100
00000000
,
00000010
00001100
00001000
00110000
,
00100000
00010000
01000000
00000000
00100000
10000000
01000000
00000000
,
00100000
01010000
00001000
00001010
,
00000001
00000000
00000100
00000000
00000010
00001000
00000010
00010000
,
00001000
00000000
00100000
00000000
00010000
01000000
00010000
10000000
,
01000000
00000000
00010000
00000000
00001000
00000100
00000001
00000000
,
00001000
00000100
00010000
00001000
00100000
00010000
01000000
00100000
,
20000000
00000000
00000000
30000000
,
00020000
00000000
00000000
01030000
00000000
00100000
00000000
00010000
,
00002000
00000000
00000000
00000000
00003000
00000000
00000010
00000200
,
00000000
00000000
00000000
00000000
00000000
00000300
00000000
00001000
,
00000002
00000000
00000000
00000200
00000000
00000000
00000003
00000000
,
00000000
00000000
00000300
00000000
00000000
00000000
00000001
00000000
00000100
00000000
00000000
00001000
00000000
00000000
00010000
00000000
,
00200000
10000000
00010000
10300000
,
02000000
00000000
00000000
00000000
03010000
00000000
00001000
00000100
,
00000002
00000000
00000000
00000000
,
00000000
00000000
00000003
00000100
00000010
00000000
00001000
00000000
,
00020000
00000000
00000000
00000000
00030000
10000000
01000000
10000000
,
00000000
01000000
00000000
00100000
00000000
00010000
00000000
00002000
,
00000000
00000000
00000000
00000000
00000000
00003000
00000001
00000020
,
00000000
00000000
00000000
00000000
00000030
00000000
00000000
00000000
00001000
00000000
00000000
00010000
00000000
00000000
00100000
00000000
,
20000000
00000000
00000000
00000000
30000000
00000000
01000000
00200000
,
00000000
00000000
00000000
00300000
00001000
00000000
00010000
00000000
,
00012000
00000000
00000000
01000000
01003000
00000000
00010000
10000000
,
00020000
00000000
00000000
00000000
00130000
00000000
00000000
00001000
,
00021000
00000000
00000000
00000100
00030100
00000000
00001000
00000001
,
00002000
00000000
00000000
00000000
00003100
00000000
00000000
00010000
,
00011000
00000000
00110000
01000000
,
10100000
00000000
11000000
00100000
,
01010000
00000000
00011000
00000000
,
00000010
00000000
00000000
00000010
00000000
00000000
00000010
00000000
00000001
00000000
00000000
00000001
00000000
00000000
00000001
00000000
,
00000100
00000000
00000000
00000100
00000000
00000000
00000100
00000000
00002000
00000000
00000000
00000000
00000000
00000000
00000000
00000000
,
00000000
00000000
00000000
00000000
00003000
00010000
00001000
00011000
,
00000000
00000000
00000000
00000000
,
00000000
00000000
00000000
00000000
,
10100000
00000000
11000000
00000000
10100000
00000000
01000000
00010000
,
10000000
00000000
01000000
00010000
00001000
00010000
00000100
00000000
,
00000010
00000000
00000000
00000001
00000100
00000000
00000000
00000100
,
00001000
00010000
00001000
00000010
,
00001001
00000000
00000000
00000000
00000000
00000000
00000000
00000000
00000010
00000000
00000000
00000001
00000000
00000000
00000100
00000000
,
00001100
00000000
00000000
00000000
00000000
00000000
00000000
00000000
00100000
00000000
00000000
10000000
00000000
00000000
01000000
00000000
,
01010000
00000000
00000000
00000000
00001000
00000100
00000001
00000000
,
00000100
00000000
00000010
00000000
00001000
00000001
00001000
00000000
,
00000011
00000000
00001100
00000000
00000011
00000000
00000100
00001000
,
00000001
00000000
00000100
00001000
00010000
00001000
01000000
00000000
,
00100000
00000000
00000000
10000000
00000000
00000000
01000000
00000000
00000000
00000000
00000000
00000000
00100000
00000000
00000000
00000000
,
10010000
00000000
00000000
10000000
01000000
00000000
00000000
01000000
,
00010000
00000000
00000000
00000000
00000000
00000000
00000000
00000000
00001000
00000000
00000000
00000010
00000000
00000000
00001000
00000000
,
00010000
00000000
00000000
00011000
00000000
00000000
00000000
00000100
,
00001000
00000000
00010000
00100000
,
10000000
00000000
00000000
10000000
00000000
00000000
00010000
00000000
00000000
00010000
00000000
00000000
00100000
00000000
01000000
00000000
,
02200000
00000000
00000000
00000000
,
00000000
00000000
00000000
03300000
;

//---------------dance-double - NewbStepper-BDP----------------
#NOTEDATA:;
#CHARTNAME:NewbStepper-BDP;
#STEPSTYPE:dance-double;
#DESCRIPTION:NewbStepper-BDP;
#DIFFICULTY:Easy;
#METER:5;
#RADARVALUES:0.173776,0.272760,0.033327,0.174966,0,146,142,4,21,0,0,0,0,0,0.173776,0.272760,0.033327,0.174966,0,146,142,4,21,0,0,0,0,0;
#CREDIT:NewbStepper;
#NOTES:
00000000
00000000
00000000
00000000
,
00000000
00000000
00000000
00000000
,
00000000
00000000
00000000
00000000
,
00000000
00000000
00000000
00000000
,
00000000
00000000
00000000
00000000
,
10000000
00000000
00000000
00000000
,
00010000
00000000
00000000
00000000
,
00001000
00000000
00000000
00000000
,
00000000
00000000
00000000
00000000
,
00000001
00000000
00000001
00000100
,
00000010
00000000
00001000
00000000
,
00001000
00000100
00000010
00000000
,
00010000
00000000
10000000
01000000
,
10000000
00000000
00100000
00000000
,
00010000
00000000
00001000
00000100
,
00000010
00001000
00000001
00000010
,
00000220
00000000
00000000
00000330
,
00000000
00000000
00000000
00000000
,
00000001
00000100
00000010
00001000
,
00010000
01000000
00100000
00000000
,
10000000
01000000
00100000
00010000
,
00001000
00000100
00000010
00000000
,
00000001
00000100
00001000
00000100
,
00000001
00000100
00001000
00000000
,
00010000
01000000
10000000
01000000
,
00010000
01000000
10000000
00100000
,
00020000
00000000
00000000
00030000
,
00002000
00000000
00000000
00003000
,
00000020
00000000
00000000
00000030
,
00002000
00000000
00000000
00003000
,
00020000
00000000
00000000
00030000
,
00200000
00000000
10300000
00000000
,
02000000
00000000
03010000
00000000
,
00002000
00000000
00003010
00000000
,
00000002
00000000
00000103
00000000
,
00002000
00000000
00000000
00003000
,
00020000
00000000
00000000
00030000
,
00200000
00000000
00000000
00300000
,
00020000
00000000
00000000
00030000
,
00002000
00000000
00000000
00003000
,
00000020
00000000
00000031
00000100
,
00000002
00000000
00000000
00000003
,
00001000
00000100
00000001
00000100
,
00001000
00000000
00000000
00000000
,
00010000
00000000
00000000
00000000
,
10000000
00000000
01000000
01000000
,
00100000
00000000
00010000
00010000
,
00001000
00000000
00000100
00000000
,
00001001
00000000
00001001
00000000
,
00002002
00000000
00000000
00000000
,
00000000
00000000
00000000
00003003
,
00000000
00000000
00000000
00000000
,
00000000
00000000
00000000
00000000
,
00000000
00000000
00000000
00000000
,
00000000
00000000
00000000
00000000
,
00100000
00100000
00100000
00010000
,
01000000
00100000
10000000
00000000
,
00100000
00000000
00010000
00000000
,
00001000
00000010
00001000
00000000
,
00010000
00000000
00001000
00010000
,
00001000
00000000
00100000
00010000
,
00100000
00000000
00010000
00000000
,
00001000
00000001
00001000
00000000
,
00000010
00000010
00000010
00001000
,
00000100
00000010
00000001
00000000
,
00000010
00000000
00001000
00000000
,
00010000
00100000
00010000
00000000
,
00001000
00000000
00010000
00001000
,
00010000
00000000
00001000
00000100
,
00001000
00000100
00000001
00000010
,
00001000
00010000
00100000
10000000
,
00020000
00000000
00000000
00000000
,
00000000
00000000
00000000
00030000
;
