#VERSION:0.83;
#TITLE:moon_child;
#ARTIST:少年ラジオ;
#ARTISTTRANSLIT:Shounen Radio;
#BANNER:moon_child.png;
#BACKGROUND:moon_child-bg.png;
#JACKET:moon_child-jacket.png;
#MUSIC:moon_child.ogg;
#OFFSET:-0.136;
#SAMPLESTART:98.761;
#SAMPLELENGTH:15;
#BPMS:0=160,103=80,105=160,293=155;
#TIMESIGNATURES:0=4=4,100=5=4,105=4=4;
#BGCHANGES:-1=moon_child.avi=1=0=0=0=StretchNoLoop====,99999=-nosongbg-=1=0=0=0 // don't automatically add -songbackground-;

//---------------dance-single - Talkion-bSP----------------
#NOTEDATA:;
#CHARTNAME:Talkion;
#STEPSTYPE:dance-single;
#DESCRIPTION:Talkion;
#DIFFICULTY:Beginner;
#METER:2;
#RADARVALUES:0.093218,0.169540,0.038841,0,0,84,79,5,0,0,0,0,0,0,0.093218,0.169540,0.038841,0,0,84,79,5,0,0,0,0,0,0;
#CREDIT:Talkion;
#NOTES:
0000
0000
0000
0000
,
0000
0000
0000
0000
,
0000
0000
0000
0000
,
0000
0000
0000
0000
,
0000
0000
0000
0000
,
0000
0000
0000
0000
,
0000
0000
0000
0000
,
0000
0000
0000
0000
,
0000
0000
0000
0000
,
0000
0000
0000
0000
,
0001
0000
0000
0000
,
0000
0000
0000
0000
,
1000
0000
0000
0000
,
0000
0000
0000
0000
,
0001
0000
0000
0000
,
0001
0000
0000
0000
,
1000
0000
0000
0000
,
1000
0000
0000
0000
,
0010
0000
0010
0000
,
0010
0000
0000
0000
,
0100
0000
0100
0000
,
0100
0000
0000
0000
,
0010
0000
0010
0000
,
0010
0000
0000
0000
,
0100
0000
0100
0000
,
0100
0000
0000
0000
,
0000
0001
0000
0000
,
0000
0001
0000
0000
,
0000
1000
0000
0000
,
0000
1000
0000
0000
,
0000
0010
0000
0000
,
0000
0010
0000
0000
,
0000
0100
0000
0000
,
0000
0100
0000
0100
,
0000
0100
0000
0100
,
0000
0001
0000
0001
,
0000
1000
0000
1000
,
0000
0010
0000
0010
,
0000
0100
0000
0000
,
0000
0010
0000
0010
,
0000
1000
0000
1000
,
0000
0001
0000
0001
,
0000
0010
0000
0000
,
0000
0100
0000
0000
,
0000
1001
0000
0000
,
0000
0010
0000
0000
,
0000
1001
0000
0000
,
0000
0100
0000
0000
,
0000
0010
0000
0000
,
0000
0100
0000
0000
,
0000
0010
0000
1001
,
0000
1001
0000
0000
,
0000
0000
0000
0110
,
0000
0000
0000
0000
,
0000
0000
0000
0000
,
0000
0000
0000
0000
,
0000
0000
0000
0000
,
0000
0001
0000
0000
,
0000
1000
0000
0000
,
0000
0001
0000
0000
,
0000
1000
0000
0000
,
0000
0010
0000
0000
,
0000
0010
0000
0010
,
0000
0100
0000
0000
,
0000
0100
0000
0100
,
0000
0001
0000
0001
,
0000
0001
0000
0001
,
0000
1000
0000
1000
,
0000
0010
0000
0000
,
0000
1000
0000
1000
,
0000
1000
0000
1000
,
0000
0001
0000
0001
,
0000
0010
0000
0100
;

//---------------dance-single - Talkion-BSP----------------
#NOTEDATA:;
#CHARTNAME:Talkion-BSP;
#STEPSTYPE:dance-single;
#DESCRIPTION:Talkion-BSP;
#DIFFICULTY:Easy;
#METER:7;
#RADARVALUES:0.287421,0.482838,0.209740,0.116522,0,259,232,27,15,0,0,0,0,0,0.287421,0.482838,0.209740,0.116522,0,259,232,27,15,0,0,0,0,0;
#CREDIT:Talkion;
#NOTES:
0000
0000
0000
0000
,
0000
0000
0000
0000
,
0000
0000
0000
0000
,
0000
0000
0000
0000
,
0000
0000
0000
0000
,
0000
0000
0000
0000
,
0000
0000
0000
0000
,
0000
0000
0000
0000
,
0000
0000
0000
0000
,
0000
0000
0000
0000
,
1000
1000
0100
0100
,
0010
0010
0001
0001
,
1000
1000
0010
0010
,
0100
0100
0001
0001
,
1000
0100
0010
0100
,
1000
0010
0100
0001
,
0001
0010
0100
0010
,
0001
0100
0010
1000
,
1000
0010
1000
0000
0010
0100
0010
0000
,
0200
0000
0000
0300
,
0001
0010
0001
0000
0010
0100
0010
0000
,
0200
0000
0000
0300
,
1000
0001
1000
0000
0010
0100
0010
0000
,
2000
0000
0000
3000
,
0001
1000
0001
0000
0010
0100
0010
0000
,
0002
0000
0000
0003
,
0000
1000
0010
1000
,
0010
0100
0010
0100
,
0010
0100
0001
0100
,
0001
1000
0001
1000
,
0001
0010
0001
0010
,
0001
0010
0100
0010
,
0100
1000
0100
1000
,
0100
0010
0110
0100
,
0110
1000
1001
0001
,
1001
0000
0100
0000
0001
0000
0100
0001
,
0100
0000
0010
0000
1000
0000
0010
1000
,
0010
0000
0100
0000
0001
0000
1000
0001
,
1000
0200
0000
0010
,
0310
0000
0001
0000
0100
0001
1000
0000
,
0001
0000
1000
0000
0100
1000
0001
0000
,
1000
0010
1001
0010
,
1001
0000
0100
0000
0010
0100
0000
1001
,
0000
0000
0001
0000
0000
0011
0000
0000
,
0110
2100
0000
0100
,
3100
0000
1000
0000
0000
1010
0000
0000
,
0110
0102
0000
0100
,
0103
0000
0001
0000
0010
0002
0000
0003
,
0001
0000
1000
0000
0010
2000
0000
3000
,
1000
0020
0000
0000
,
0000
0130
1010
0011
,
1001
0110
0000
0000
,
0000
0000
0100
1001
,
1001
0000
0000
0000
,
0000
0000
0000
0000
,
0000
0000
0000
0000
,
0000
0000
0000
0000
,
0000
0002
0010
0103
,
0000
2000
0010
3100
,
0000
0002
0100
0013
,
0000
2000
0100
3010
,
0000
0001
0001
0010
,
0010
0100
0100
1000
,
1000
0101
0101
1100
,
1100
1010
1010
0011
,
0011
0000
1000
0010
1000
0000
0010
0000
,
0100
0000
0001
0100
0001
0000
1000
0000
,
0100
0000
0010
0100
0010
0000
0100
0000
,
1000
0002
0000
0100
,
0103
0000
0010
1000
0010
0000
1000
0100
,
1000
0000
0100
0001
0100
0000
1000
0100
,
1000
0000
0001
0100
0001
0000
0100
1000
,
0100
0000
0001
0100
0001
0000
1000
0001
,
1000
0001
0000
0000
0000
0000
0000
0000
;

//---------------dance-single - Talkion-DSP----------------
#NOTEDATA:;
#CHARTNAME:Talkion-DSP;
#STEPSTYPE:dance-single;
#DESCRIPTION:Talkion-DSP;
#DIFFICULTY:Medium;
#METER:11;
#RADARVALUES:0.403943,0.511240,0.201972,0.124290,0,364,338,26,16,0,0,0,0,0,0.403943,0.511240,0.201972,0.124290,0,364,338,26,16,0,0,0,0,0;
#CREDIT:Talkion;
#NOTES:
0000
0000
0000
0000
,
0000
0000
0000
0000
,
0000
0000
0000
0000
,
0000
0000
0000
0000
,
0000
0000
0000
0000
,
0000
0000
0000
0000
,
0000
0000
0000
0000
,
0000
0000
0000
0000
,
0000
0000
0000
0000
,
0000
0000
0000
0000
,
1000
1000
0100
0100
,
0001
0001
0010
0010
,
1000
1000
0010
0010
,
0001
0001
0100
0100
,
1000
0010
1000
0000
0010
0100
0010
0000
,
0100
0001
0100
0000
0001
0010
0001
0000
,
0010
0100
0010
0000
0100
1000
0100
0000
,
1000
0001
1000
0000
0010
0100
0110
0000
,
0001
0010
0001
0010
0001
0010
0100
1000
,
0020
0100
0001
1000
,
0130
0001
0100
0001
0100
0001
0100
0010
,
2000
0001
0010
0100
,
3001
0100
0001
0100
0001
0100
0010
1000
,
0200
0010
0001
1000
,
0310
0001
0010
0001
0010
0001
0010
0100
,
2000
0001
3001
0000
,
0000
0000
1000
0000
0010
0100
0001
0000
,
1001
0000
0001
0000
0010
0100
1000
0000
,
1001
0000
0001
0000
0100
0001
0010
0000
,
0110
0000
1000
0000
0100
1000
0010
0000
,
0110
0000
0001
0000
0010
0100
1000
0000
,
1010
0000
1000
0000
0010
0100
0001
0000
,
0011
0000
0010
0000
0100
1000
0001
0000
,
1001
0110
0110
1100
,
1100
0000
0101
0000
0101
0000
1000
0001
,
1001
0000
1000
0100
0010
0100
1000
0001
,
1000
0001
0100
0010
0100
0001
0010
0100
,
0010
0100
1000
0001
0010
0001
1000
0010
,
1000
0010
0200
0000
0001
0000
0310
1000
,
0001
0000
0020
0000
0130
1000
0100
0010
,
0001
1000
0020
0000
0130
0001
0100
0010
,
1000
0001
0020
0000
0130
1000
0100
1000
,
0001
0100
0010
0000
0100
0110
0000
1001
,
0000
0000
1000
1100
0000
0100
0110
0010
,
0001
1000
0010
0000
0100
0010
1000
0000
,
0100
0000
0010
0011
0000
0001
1001
1000
,
0010
0100
0001
0000
0100
0010
1000
0000
,
0100
0000
0010
0001
0010
0200
0000
0001
,
0301
0000
0100
1000
0100
0020
0000
0001
,
0031
0200
0320
2030
,
3200
0310
1001
0110
,
1001
0200
0000
0000
,
0000
0000
0000
0010
,
0310
0000
0000
0000
,
0000
0000
0000
0000
,
0000
0000
0000
0000
,
0000
0000
0000
0000
,
0000
0000
1000
0000
0100
0000
0010
0100
,
0010
0000
0001
0000
0100
0000
0010
0100
,
0010
0000
1000
0000
0001
0000
0010
0001
,
0010
0000
0100
1000
0100
0000
1000
0001
,
1000
0010
0010
0100
,
0100
0001
0001
1000
,
1000
0000
0100
0010
0001
0010
0100
1000
,
0001
0100
0010
0100
0001
1000
0100
0010
,
0110
0000
0001
0100
0001
0100
0010
1000
,
0100
1000
0010
0100
0001
1000
0100
0010
,
0001
1000
0001
0100
1000
0100
0001
0100
,
0010
0100
0002
0000
0013
0100
1000
0001
,
1001
0000
1000
0010
1000
0010
0100
0001
,
0100
0001
1000
0100
0010
1000
0010
0100
,
1000
0001
0100
0010
1000
0100
0010
0001
,
0100
0010
1000
0001
0010
1000
0010
0001
,
0010
0100
0000
0000
0000
0000
0000
0000
;

//---------------dance-single - Talkion-ESP----------------
#NOTEDATA:;
#CHARTNAME:Talkion-ESP;
#STEPSTYPE:dance-single;
#DESCRIPTION:Talkion-ESP;
#DIFFICULTY:Hard;
#METER:15;
#RADARVALUES:0.633658,0.936158,0.194203,0.240812,0.528233,571,546,25,31,0,0,0,0,0,0.633658,0.936158,0.194203,0.240812,0.528233,571,546,25,31,0,0,0,0,0;
#CREDIT:Talkion;
#NOTES:
0000
0000
0000
0000
,
0000
0000
0000
0000
,
0000
0000
0000
0000
,
0000
0000
0000
0000
,
0000
0000
0000
0000
,
0000
0000
0000
0000
,
0000
0000
0000
0000
,
0000
0000
0000
0000
,
0000
0000
0000
0000
,
0000
0000
0000
0000
,
1000
0010
1000
0000
0010
0001
0010
0000
,
0001
0100
0001
0000
0100
1000
0100
0000
,
1000
0010
1000
0000
0100
0001
0100
0000
,
1000
0000
0001
0000
1000
0000
0000
0000
0001
0100
0001
0100
0010
0000
0000
0000
,
1000
0010
1000
0001
1000
0100
1000
0000
,
0001
0010
0001
1000
0001
0100
0001
0000
,
1000
0010
0100
0010
0001
0010
0100
0000
,
0010
0000
1000
0000
0001
0000
1000
0000
0100
0010
0100
0000
0110
0000
0000
0000
,
0010
0001
0010
0001
1000
0001
1000
0001
0100
0001
0100
0010
0100
0000
0010
0000
,
1000
1000
0001
0001
0100
0010
1010
0000
,
1000
0100
1000
0100
0010
0100
0010
0100
0010
0001
0010
0100
0010
0000
0001
0000
,
0010
0010
0100
0100
1000
0001
0101
0000
,
0100
0010
0100
0010
1000
0010
1000
0010
1000
0001
1000
0100
1000
0000
0100
0000
,
0010
0010
0100
0100
1000
0010
0110
0000
,
0100
0001
0100
0001
1000
0001
1000
0001
1000
0100
1000
0001
1000
0000
0010
0000
,
0100
0100
0010
0010
2000
0001
0002
0000
,
3003
0000
0010
0001
0100
1000
0100
0010
,
1000
0100
0010
1000
0010
0001
0010
0100
,
1000
0001
0100
0010
0001
0010
1000
0010
,
0100
0001
1000
0100
0001
0100
0010
0001
,
0100
0010
1000
0010
0100
0001
0010
1000
,
0001
0100
0010
0001
0010
0100
1000
0001
,
0100
1000
0001
0010
0100
0001
0100
0010
,
1000
0100
0010
0000
0101
0000
1100
0000
,
1001
0001
0100
0110
0010
1000
0100
0010
,
1001
0000
0000
0000
0001
0000
0100
0001
0100
0000
0010
0100
0010
0000
1000
0001
,
1000
0001
0010
0001
0100
0000
0010
1000
0010
0000
1000
0001
1000
0000
0100
0010
,
0100
0010
0001
0010
0100
0000
1000
0010
1000
0000
0010
0100
0010
0000
0100
0001
,
0100
0001
1000
0001
0020
0000
0000
0000
0130
0000
1000
0001
0100
0000
0010
0000
,
1000
0000
0100
0000
0020
0000
0000
0000
0031
0100
0010
1000
0001
0000
0010
0100
,
0010
0000
0001
0000
0100
0000
0010
0000
1000
0010
0100
0001
1000
0000
0100
0010
,
0100
0000
1000
0000
0010
0100
0010
0100
0001
1000
0001
1000
0100
0010
0100
0010
,
0001
1000
0001
0100
0010
0000
1000
0000
0001
0000
0011
0000
0000
0000
2002
0000
,
0000
0000
3003
0000
1000
0000
1010
0000
0010
0000
0110
0000
0001
0010
0100
0000
,
0010
0000
0100
1000
0010
0000
0000
0000
0100
0000
0001
0000
0100
0010
0100
0000
,
0110
0000
0000
0000
1000
0000
0100
1000
0001
0000
0100
0000
0010
0100
0001
0000
,
0010
0000
0100
1000
0010
0000
0000
0000
0100
0000
0010
0000
1000
0000
0100
0010
,
0001
0010
0100
0000
1000
0010
1000
0010
0100
0000
0102
0000
0000
0000
0013
0000
,
1001
0000
0000
0000
0001
0100
0001
0100
0010
0000
2010
0000
0000
0000
3100
0000
,
1001
0000
0000
0001
0010
1000
0010
0001
1000
0001
0100
1000
,
0100
0001
1000
0001
0000
0000
0110
0000
0000
1010
0000
0000
,
0011
2002
0000
0000
,
0000
0000
0000
0000
3003
0000
0000
0000
0100
0000
0000
0000
0001
1000
0001
0000
,
1000
0001
1000
0000
0000
0000
0000
0000
0000
0000
0000
0000
0000
0000
0000
0000
,
0000
0000
0000
0000
,
0000
0000
0000
0000
,
0000
0000
0000
0000
,
0000
0000
0000
0000
0002
0000
0000
0000
0013
0000
0100
1000
0100
0000
1000
0000
,
0001
0000
0000
0000
2000
0000
0000
0000
3010
0000
0100
0001
0100
0000
0001
0000
,
1000
0000
0000
0000
0200
0000
0000
0000
0310
0000
0001
1000
0001
0000
0100
0000
,
0010
0000
0100
0100
0010
0010
1000
0100
,
0010
0001
0010
0100
2000
0000
0000
0000
3020
0000
0000
0000
0032
0000
0000
0000
,
0203
0000
0000
0000
2300
0000
0000
0000
3002
0000
0000
0000
0103
0010
0100
0000
,
0110
0000
0000
0000
1000
0000
1000
0100
1000
0000
1000
0010
0100
0000
0100
0001
,
0010
0000
0100
0010
0100
0010
0001
0000
0001
0100
0010
0000
0010
1000
0010
1000
,
0001
0000
0010
0000
0100
1000
0100
0010
0000
0001
0000
0100
0010
0100
0010
0000
,
1000
0100
0010
0000
0100
1000
0100
1000
0001
0100
0010
0000
0100
0001
0100
0001
,
1000
0100
0010
0000
0001
0100
0001
0100
0010
1000
0010
1000
0001
0010
0001
1000
,
0001
1000
0001
0100
0020
0000
0000
0000
1030
0000
0010
0100
0010
0100
0001
1000
,
0100
1000
0001
0000
0010
0000
0100
1000
0020
0000
0130
0001
0020
0000
0130
1000
,
0020
0000
0130
0001
1000
0100
1000
0100
0010
0001
1000
0001
0100
0001
0100
0010
,
1000
0001
0010
0000
0100
1000
0002
0000
0103
0001
2000
0000
3010
1000
0002
0000
,
0013
0001
2000
0000
3010
0100
0010
0100
0001
1000
0100
0010
0001
0000
0100
0000
,
0110
0110
2000
0000
0000
0000
0000
0000
,
0000
0200
0000
3000
,
0000
0020
0000
0300
,
0000
0002
0000
0030
,
0000
0000
0000
0003
;

//---------------dance-double - NewbStepper-EDP----------------
#NOTEDATA:;
#CHARTNAME:NewbStepper-EDP;
#STEPSTYPE:dance-double;
#DESCRIPTION:NewbStepper-EDP;
#DIFFICULTY:Hard;
#METER:16;
#RADARVALUES:0.622561,0.887024,0.093218,0.201972,0.508813,561,549,12,26,0,0,0,0,0,0.622561,0.887024,0.093218,0.201972,0.508813,561,549,12,26,0,0,0,0,0;
#CREDIT:NewbStepper;
#NOTES:
// measure 0
00000000
00000000
00000000
00000000
,  // measure 1
00000000
00000000
00000000
00000000
,  // measure 2
00000000
00000000
00000000
00000000
,  // measure 3
00000000
00000000
00000000
00000000
,  // measure 4
00000000
00000000
00000000
00000000
,  // measure 5
00000000
00000000
00000000
00000000
,  // measure 6
00000000
00000000
00000000
00000000
,  // measure 7
00000000
00000000
00000000
00000000
,  // measure 8
00000000
00000000
00000000
00000000
,  // measure 9
00000000
00000000
00000000
00000000
,  // measure 10
00001000
00010000
00001000
00000000
00010000
00100000
00010000
00000000
,  // measure 11
00100000
10000000
00100000
00000000
10000000
01000000
10000000
00000000
,  // measure 12
01000000
00010000
01000000
00000000
00010000
00001000
00010000
00000000
,  // measure 13
00001000
00000010
00001000
00000000
00000010
00000001
00000010
00000000
,  // measure 14
00000001
00000100
00000010
00000100
00001000
00010000
01000000
00010000
,  // measure 15
00001000
00010000
00100000
10000000
00010000
01000000
00100000
00000000
,  // measure 16
10000000
01000000
00100000
01000000
00010000
00001000
00000100
00001000
,  // measure 17
00010000
00000000
00001000
00000000
00000010
00000000
00000001
00000000
00001000
00000100
00001000
00000000
00001001
00000000
00000000
00000000
,  // measure 18
00000001
00000100
00000001
00000100
00000010
00001000
00000010
00001000
00000001
00000000
00000010
00000100
00001000
00000000
00000100
00000000
,  // measure 19
00010000
00010000
00001000
00000010
00000010
00000100
00010000
01000000
,  // measure 20
10000000
01000000
10000000
01000000
00100000
00010000
00100000
00010000
10000000
00000000
00100000
01000000
00010000
00000000
01000000
00000000
,  // measure 21
00001000
00001000
00010000
00100000
00100000
01000000
00001000
00000000
,  // measure 22
00010000
00001000
00000100
00000000
00000010
00000000
00001000
00000100
00000010
00000000
00000001
00000000
00000100
00001000
00010000
00000000
,  // measure 23
00100000
00100000
10000000
10000000
01000000
01000000
00010000
00000000
,  // measure 24
00001000
00010000
00001000
00010000
00000100
00000000
00001000
00000010
00001000
00000010
00000100
00000000
00000001
00000010
00000001
00000010
,  // measure 25
00000100
00010000
00001000
00000010
00001000
00010000
00022000
00000000
,  // measure 26
00033000
00000000
00100000
00001000
00010000
00100000
10000000
00100000
,  // measure 27
00010000
00001000
00100000
00010000
00001000
00000100
00000001
00000100
,  // measure 28
00001000
00000001
00000100
00001000
00010000
00000010
00001000
00000100
,  // measure 29
00000010
00001000
00010000
01000000
10000000
01000000
00010000
00001000
,  // measure 30
00011000
00000000
00000010
00010000
00001000
00000010
00000001
00000010
,  // measure 31
00001000
00010000
00000010
00001000
00010000
01000000
10000000
01000000
,  // measure 32
00010000
10000000
01000000
00010000
00001000
00100000
00010000
01000000
,  // measure 33
00100000
00010000
00001000
00000000
00011000
00000000
00010100
00000000
,  // measure 34
00000010
00000001
00000101
00000100
00000010
00001000
00010000
01000000
,  // measure 35
01100000
00000000
00000000
00000000
00010000
00000000
01000000
00010000
01000000
00000000
00100000
10000000
00100000
00000000
01000000
00001000
,  // measure 36
00010000
00001000
01000000
00001000
00010000
00000000
00000100
00001000
00000100
00000000
00000010
00000001
00000010
00000000
00000100
00010000
,  // measure 37
00001000
00010000
00000100
00010000
00001000
00000000
00100000
00010000
00100000
00000000
00010000
01000000
00010000
00000000
10000000
01000000
,  // measure 38
10000000
01000000
00100000
00010000
00200000
00000000
00000000
00000000
00301000
00000000
00010000
00001000
00000100
00000000
00000001
00000000
,  // measure 39
00000010
00000000
00001000
00000000
00020000
00000000
00000000
00030000
00000010
00001000
00000010
00001000
00000010
00000000
00010000
00001000
,  // measure 40
00010000
00000000
00100000
00000000
10000000
00000000
00010000
00000000
00100000
00001000
00100000
00001000
00100000
00000000
00001000
00010000
,  // measure 41
00001000
00000000
00000010
00000000
00000001
00001000
00000001
00001000
00000010
00010000
00000010
00010000
00001000
00100000
00001000
00100000
,  // measure 42
00010000
10000000
01000000
00100000
00020000
00000000
00000000
00000000
00000000
00000000
10030000
00000000
00000000
00000000
20020000
00000000
,  // measure 43
00000000
00000000
30030000
00000000
00100000
00000000
10000000
00100000
10000000
00000000
01000000
00000000
00010000
00001000
00100000
00000000
,  // measure 44
00001000
00000000
00010000
00000010
00001000
00000000
00000001
00000000
00000100
00000000
00001000
00000000
00010000
00000000
00001000
00000000
,  // measure 45
00000010
00000000
00000000
00000000
00000001
00000000
00000100
00000010
00001000
00000000
00010000
00000000
00100000
00001000
00010000
00000000
,  // measure 46
00000010
00000000
00001000
00000010
00000100
00000000
00001000
00000000
00010000
00000000
01000000
10000000
00010000
00000000
00100000
00000000
,  // measure 47
00001000
00000000
00010000
00000000
00000100
00010000
00000100
00010000
00001000
00000000
00000020
00000000
00000000
00000030
00000001
00000000
,  // measure 48
00000100
00000000
00001000
00000000
01000000
00001000
01000000
00001000
00010000
00000000
00200000
00000000
00000000
00300000
10000000
00000000
,  // measure 49
01000000
00000000
00000000
00010000
00000000
00000000
00001000
00000000
00000010
00000000
00001000
00000000
00000010
00000000
00000001
00000000
00000100
00000000
00000001
00000000
00000100
00000000
00001000
00000000
,  // measure 50
00010000
01000000
10000000
00010000
00000000
00000000
01100000
00000000
00000000
01001000
00000000
00000000
,  // measure 51
00010010
00022000
00000000
00000000
,  // measure 52
00000000
00000000
00000000
00000000
00033000
00000000
00000000
00000000
00001000
00000000
00000000
00000000
00000010
00000100
00000010
00000000
,  // measure 53
00000001
00001000
00000001
00000000
00000000
00000000
00000000
00000000
00000000
00000000
00000000
00000000
00000000
00000000
00000000
00000000
,  // measure 54
00000000
00000000
00000000
00000000
,  // measure 55
00000000
00000000
00000000
00000000
,  // measure 56
00000000
00000000
00000000
00000000
,  // measure 57
00000000
00000000
00000000
00000000
00002000
00000000
00000000
00000000
00003010
00000000
00000100
00000001
00000100
00000000
00000010
00000000
,  // measure 58
00001000
00000000
00000000
00000000
00020000
00000000
00000000
00000000
00130000
00000000
01000000
10000000
01000000
00000000
00100000
00000000
,  // measure 59
00010000
00000000
00000000
00000000
00002000
00000000
00000000
00000000
00003001
00000000
00000010
00000100
00000010
00000000
00001000
00000000
,  // measure 60
00010000
00000000
00100000
00000000
10000000
00000000
01000000
10000000
00100000
00000000
00100000
01000000
00010000
00000000
00010000
00100000
,  // measure 61
00001000
00000000
00001000
00020000
00000100
00000000
00030000
00000200
00000010
00000000
00000300
00000020
00000001
00000000
00000030
00000002
,  // measure 62
00000100
00000000
00000003
00000200
00001000
00000000
00000300
00002000
00010000
00000000
00003000
00020000
01000000
00000000
00030000
01000000
,  // measure 63
10000000
00000000
00000000
00000000
00010000
00000000
10000000
01000000
10000000
00000000
01000000
00010000
01000000
00000000
00010000
00001000
,  // measure 64
00010000
00000000
00001000
00000010
00001000
00000000
00000010
00000001
00000010
00000000
00000001
00000100
00000001
00000000
00001000
00000100
,  // measure 65
00001000
00000100
00000010
00000000
00000001
00000000
00000100
00001000
00010000
00000000
00100000
00000000
10000000
01000000
00100000
00010000
,  // measure 66
10000000
00000000
01000000
00100000
01000000
00000000
00010000
00001000
00010000
00001000
00000010
00000000
00000100
00000010
00000100
00000010
,  // measure 67
00000001
00001000
00000010
00000000
00001000
00000000
00000001
00000100
00000001
00000100
00000010
00001000
00000010
00001000
00000100
00000000
,  // measure 68
00000010
00001000
00010000
00000000
00100000
00000000
00100000
00000000
00100000
00000000
10000000
01000000
00100000
00010000
01000000
00010000
,  // measure 69
10000000
00010000
00100000
00000000
00001000
00000000
00100000
00010000
00001000
00000000
00010000
00001000
00000100
00000000
00001000
00000100
,  // measure 70
00000010
00000001
00000100
00000000
00000010
00001000
00000010
00010000
00001000
00100000
01000000
00100000
00001000
00010000
00000100
00010000
,  // measure 71
00001000
00010000
00000010
00001000
00000100
00000000
00000010
00000001
00000100
00000000
00000010
00001000
00000100
00000000
00000010
00001000
,  // measure 72
00010000
00000000
00001000
00010000
00100000
00000000
10000000
00000000
01000000
00000000
00010000
00000000
00001000
00000100
00000010
00000100
,  // measure 73
00000001
00000010
00000100
00001000
00000020
00000000
00000000
00000000
00000000
00000000
00000000
00000000
00000000
00000000
00000000
00000000
,  // measure 74
00000000
00000200
00000000
00000030
,  // measure 75
00000000
00002000
00000000
00000300
,  // measure 76
00000000
00020000
00000000
00003000
,  // measure 77
00000000
00200000
00000000
00030000
,  // measure 78
00000000
00000000
00000000
00300000
;

//---------------dance-double - NewbStepper-DDP----------------
#NOTEDATA:;
#CHARTNAME:NewbStepper-DDP;
#STEPSTYPE:dance-double;
#DESCRIPTION:NewbStepper-DDP;
#DIFFICULTY:Medium;
#METER:12;
#RADARVALUES:0.400614,0.482838,0.085450,0.077681,0,361,350,11,10,0,0,0,0,0,0.400614,0.482838,0.085450,0.077681,0,361,350,11,10,0,0,0,0,0;
#CREDIT:NewbStepper;
#NOTES:
00000000
00000000
00000000
00000000
,
00000000
00000000
00000000
00000000
,
00000000
00000000
00000000
00000000
,
00000000
00000000
00000000
00000000
,
00000000
00000000
00000000
00000000
,
00000000
00000000
00000000
00000000
,
00000000
00000000
00000000
00000000
,
00000000
00000000
00000000
00000000
,
00000000
00000000
00000000
00000000
,
00000000
00000000
00000000
00000000
,
10000000
10000000
01000000
01000000
,
00100000
00100000
00010000
00010000
,
00001000
00001000
00000100
00000100
,
00000010
00000010
00000001
00000001
,
00001000
00000010
00001000
00000000
00000001
00000100
00000001
00000000
,
00000100
00001000
00000100
00000000
00001000
00010000
00001000
00000000
,
00010000
01000000
00010000
00000000
01000000
10000000
01000000
00000000
,
10000000
00100000
10000000
00000000
00100000
00010000
00100000
00000000
,
00010000
00001000
00010000
00000000
00001000
00000010
00001000
00000010
,
00000200
00000010
00000001
00001000
,
00010300
00100000
00010000
00100000
10000000
01000000
00010000
00001000
,
02000000
00100000
10000000
00010000
,
03001000
00000100
00001000
00000100
00000001
00000010
00001000
00010000
,
00000020
00000100
00000001
00001000
,
00010030
01000000
00010000
01000000
10000000
00100000
00010000
00001000
,
00200000
00010000
00310000
00000000
,
10000000
00000000
00100000
00000000
01000000
00010000
01000000
00100000
,
00000000
00010000
00000000
00001000
00000010
00000000
00000001
00000000
,
00001001
00000000
00000010
00000000
00000100
00001000
00000100
00000010
,
00000000
00001000
00000000
00010000
00100000
00000000
10000000
00000000
,
10010000
00000000
01000000
00000000
10000000
00100000
00010000
00000000
,
00001000
00000000
00000100
00000000
00000001
00000010
00001000
00000000
,
00010000
00000000
01000000
00000000
10000000
01000000
00010000
00000000
,
00001000
00000100
00000001
00000000
00001100
00000000
00000101
00000000
,
00000110
00000000
00000001
00000100
00001000
00010000
01000000
10000000
,
00010000
00000000
10000000
01000000
00100000
01000000
00010000
00001000
,
00010000
00100000
00010000
00001000
00000010
00001000
00010000
00001000
,
00000100
00000001
00000010
00001000
00010000
00100000
00010000
00001000
,
00010000
01000000
10000000
00100000
01000000
00010000
00001000
00000010
,
00000100
00000001
00000010
00000000
00000001
00000100
00001000
00010000
,
01000000
10000000
00010000
00000000
10000000
01000000
00010000
00001000
,
00000100
00000001
00000100
00001000
00010000
01000000
00010000
00001000
,
00000100
00001000
00020000
00000000
00030000
00011000
00000000
00011000
,
00000000
00000000
00001000
00010000
00100000
00000000
00010000
00001000
,
00000010
00000000
00000100
00010000
00001000
00000010
00000001
00000100
,
00000010
00000000
00010000
00001000
00000010
00000000
00001000
00010000
,
00100000
00000000
01000000
00001000
00010000
00100000
10000000
01000000
,
00100000
00000000
00001000
00010000
00100000
00010000
00000000
00001000
,
00000100
00001000
00010000
00001000
00000010
00001000
00000000
00010000
,
01000000
10000000
00020000
00000000
02030000
00000000
03200000
00000000
,
20300000
31000000
11000000
01010000
,
00011000
00000200
00000000
00000000
,
00000000
00000000
00000000
00000010
,
00000310
00000000
00000000
00000000
,
00000000
00000000
00000000
00000000
,
00000000
00000000
00000000
00000000
,
00000000
00000000
00000000
00000000
,
00000000
00000000
00000001
00000000
00000100
00000000
00001000
00010000
,
00001000
00000000
00000010
00000000
00001000
00000000
00010000
00100000
,
00010000
00000000
00100000
00000000
10000000
00000000
01000000
00100000
,
01000000
00100000
00010000
00001000
00010000
00001000
00000100
00000000
,
00000110
00000001
00000001
00000100
,
00000100
00000010
00000010
00001000
,
00001000
00000000
00000001
00000010
00000100
00000010
00000001
00000010
,
00001000
00010000
00001000
00100000
00010000
00001000
00010000
00100000
,
10000000
00100000
00010000
01000000
00001000
00010000
00001000
01000000
,
00010000
00001000
00010000
01000000
00100000
00010000
00001000
00000010
,
00000001
00000000
00001000
00000100
00010000
00001000
00010000
00000100
,
00001000
00010000
00001000
00000100
00000010
00001000
00010000
00100000
,
10000000
00000000
00010000
01000000
00100000
00010000
00001000
00000010
,
00001000
00010000
01000000
00100000
10000000
00100000
00010000
01000000
,
00001000
00010000
00100000
00010000
00000010
00001000
00000001
00000010
,
00001000
00010000
00000100
00010000
01000000
00100000
00010000
01000000
,
00100000
10000000
00000000
00000000
00000000
00000000
00000000
00000000
;

//---------------dance-double - NewbStepper-BDP----------------
#NOTEDATA:;
#CHARTNAME:NewbStepper-BDP;
#STEPSTYPE:dance-double;
#DESCRIPTION:NewbStepper-BDP;
#DIFFICULTY:Easy;
#METER:8;
#RADARVALUES:0.245251,0.482838,0.163131,0.132058,0,221,200,21,17,0,0,0,0,0,0.245251,0.482838,0.163131,0.132058,0,221,200,21,17,0,0,0,0,0;
#CREDIT:NewbStepper;
#NOTES:
00000000
00000000
00000000
00000000
,
00000000
00000000
00000000
00000000
,
00000000
00000000
00000000
00000000
,
00000000
00000000
00000000
00000000
,
00000000
00000000
00000000
00000000
,
00000000
00000000
00000000
00000000
,
00000000
00000000
00000000
00000000
,
00000000
00000000
00000000
00000000
,
00000000
00000000
00000000
00000000
,
00000000
00000000
00000000
00000000
,
10000000
00000000
01000000
00000000
,
00100000
00000000
00010000
00000000
,
00001000
00000000
00000100
00000000
,
00000010
00000000
00000001
00000000
,
00001000
00000100
00000010
00000100
,
00001000
00000001
00000100
00000000
,
00001000
00100000
00010000
01000000
,
00001000
00010000
00100000
00000000
,
10000000
00100000
10000000
00000000
00010000
00100000
00010000
00000000
,
02000000
00000000
00000000
03000000
,
00001000
00010000
00001000
00000000
00010000
00000010
00010000
00000000
,
00000200
00000000
00000000
00000300
,
00001000
00000010
00001000
00000000
00000001
00000010
00000001
00000000
,
00000200
00000000
00000000
00000300
,
00001000
00010000
00001000
00000000
01000000
00010000
01000000
00000000
,
00200000
00000000
00000000
00300000
,
00000000
10000000
00100000
10000000
,
01000000
00010000
01000000
00010000
,
00000000
00001000
00000010
00001000
,
00000010
00000001
00000100
00000001
,
00000000
00000001
00000010
00000001
,
00000100
00001000
00000100
00001000
,
00000000
00010000
00100000
00010000
,
00100000
10000000
01000000
10000000
,
00000000
10010000
00000000
01010000
,
00000000
00000000
00100000
00000000
00001000
00000000
00010000
00001000
,
00010000
00000000
00000010
00000000
00010000
00000000
00001000
00010000
,
00001000
00000000
01000000
00000000
00001000
00000000
00010000
00001000
,
00010000
00000100
00000001
00000100
,
00001000
00000020
00000000
00000030
,
00000000
00200000
00000000
00300000
,
00000000
00000200
00000000
00000300
,
00000000
02000000
00000000
03000000
,
00000000
01020000
00000000
10000000
,
10000000
00000000
00130000
00000000
00000000
00011000
00000000
00000000
,
00001010
00002100
00000000
00000001
,
00000001
00000000
00003010
00000000
00000000
00011000
00000000
00000000
,
01010000
00000000
00100000
00000000
10000000
01000000
00000000
00010000
,
00001000
00000000
00000010
00000000
00000001
00000100
00000000
00001000
,
00010000
00002000
00000000
00000000
,
00000000
01003000
01010000
10100000
,
10010000
01100000
00000000
00000000
,
00000000
00000000
00010000
00001000
,
00011000
00000000
00000000
00000000
,
00000000
00000000
00000000
00000000
,
00000000
00000000
00000000
00000000
,
00000000
00000000
00000000
00000000
,
00000000
00000200
00000010
00001300
,
00000000
02000000
00100000
03010000
,
00000000
00000020
00000100
00001030
,
00000000
00200000
01000000
00310000
,
00000000
10000000
00000000
00010000
,
00000000
00001000
00000000
00000001
,
00000000
00001100
00001100
00000101
,
00000101
00000011
00000011
00001010
,
00001010
00000000
00010000
00001000
00010000
00000000
00000010
00000000
,
00000100
00000000
00001000
00010000
00001000
00000000
00100000
00000000
,
01000000
00000000
00010000
00001000
00010000
00000000
00000010
00000000
,
00000100
00002000
00000000
00020000
,
00033000
00000000
00100000
10000000
00100000
00000000
10000000
01000000
,
10000000
00000000
01000000
00010000
01000000
00000000
00010000
00001000
,
00010000
00000000
00001000
00000010
00001000
00000000
00000010
00000001
,
00000010
00000000
00000001
00000100
00000001
00000000
00000100
00000010
,
00000100
00000010
00000000
00000000
00000000
00000000
00000000
00000000
;
