#VERSION:0.83;
#TITLE:marble;
#ARTIST:dj vortivask;
#BANNER:marble.png;
#BACKGROUND:marble-bg.png;
#JACKET:marble-jacket.png;
#MUSIC:marble.ogg;
#OFFSET:-8.4;
#SAMPLESTART:18.097;
#SAMPLELENGTH:15;
#BPMS:0=24.75,4=99,19=49.5,19.5=99,78=49.5,78.5=99,84.5=49.5,85.5=99,127.5=49.5,128=99,142=49.5,142.5=99,158.5=49.5;
#STOPS:63=0.303,91=1.212;
#TIMESIGNATURES:0=4=4,16=3=4,19=4=4,75=3=4,78=4=4,82=3=4,85=4=4,89=2=4,91=4=4,139=3=4,142=4=4;

//---------------dance-single - Kekkle-ESP----------------
#NOTEDATA:;
#CHARTNAME:Kekkle-ESP;
#STEPSTYPE:dance-single;
#DESCRIPTION:Kekkle-ESP;
#DIFFICULTY:Hard;
#METER:12;
#RADARVALUES:0.480323,0.442610,0.404716,0.272405,0.334669,432,380,52,35,0,0,0,0,0,0.480323,0.442610,0.404716,0.272405,0.334669,432,380,52,35,0,0,0,0,0;
#CREDIT:Kekkle;
#NOTES:
// measure 0
0000
0000
0000
0000
,  // measure 1
1000
0000
0001
0100
0010
0000
1000
0010
0100
0000
0001
0000
1001
0000
1000
0000
,  // measure 2
0100
0000
0000
0000
0010
0000
0001
0000
0000
0000
0001
0000
0100
0000
0000
0000
0010
0000
0000
0000
1000
0001
0000
0000
1000
0000
0000
0000
0001
1000
0000
0000
,  // measure 3
1010
0000
0100
0000
0011
0000
0100
1000
0001
0000
1000
0000
1010
0000
0010
0000
,  // measure 4
0100
0000
0001
1000
0000
1000
0100
0000
0010
0000
0001
0000
0200
0000
0301
0000
,  // measure 5
1000
0100
0010
0000
0001
0010
0100
0000
1000
0000
1001
0000
0001
0000
0100
0000
,  // measure 6
0010
0000
1000
0000
0000
0000
1000
0000
0100
0000
0000
0000
0010
0000
0000
0000
0001
1000
0000
0000
0001
0000
0000
0000
1000
0001
0000
0000
0101
0000
0000
0000
,  // measure 7
0010
0000
1100
0000
0010
0100
0001
0000
1000
0000
1100
0000
0100
0000
0020
0000
,  // measure 8
0001
0230
1000
0320
1000
0032
0100
1003
,  // measure 9
0010
0100
0001
0000
0001
0000
0000
1000
0100
0000
0110
0000
0010
0000
0001
0000
,  // measure 10
1000
0010
0100
0000
0100
0000
0000
0001
0100
0000
0110
0000
0010
0000
1000
0000
,  // measure 11
0100
0010
0001
0000
0001
0000
0000
0100
0010
0000
1010
0000
1000
0000
0020
0000
,  // measure 12
0130
0001
1000
0000
1000
0000
0200
0000
0310
0001
1000
0000
1000
0000
1001
0000
,  // measure 13
0001
1000
0100
0000
0100
0000
0010
0001
0100
0000
0110
0000
0010
0000
1000
0000
,  // measure 14
0001
0010
0100
0000
0100
0000
1000
0001
0200
0000
0320
0000
2030
0000
3002
0000
,  // measure 15
0013
0100
1000
0000
1000
0000
0010
0100
0001
0000
1001
0000
1000
0000
0001
0100
,  // measure 16
1000
0000
0001
0000
0010
1000
0100
0010
0001
0000
1000
0000
1001
0000
0001
1000
,  // measure 17
0000
0000
1200
0000
0000
0000
0310
0000
1001
0000
0000
0000
0101
0000
0100
1000
,  // measure 18
0100
0000
0010
1000
0001
1000
0010
0000
0101
0000
0001
0000
1100
0000
1000
0001
,  // measure 19
0101
0000
0100
0000
1010
0000
2000
0002
3000
0000
1003
0000
0010
0100
0001
0000
,  // measure 20
0001
0000
1000
0100
0001
1000
0020
0000
0000
0000
0031
0000
1000
0010
0000
0000
,  // measure 21
0202
0000
0000
0000
0300
0000
1003
0000
0010
0100
0101
0000
0001
0000
1001
0000
,  // measure 22
1100
0000
1001
0000
0101
0000
0002
0000
0000
1000
0000
0000
0003
0000
1001
0000
,  // measure 23
1000
0001
0101
0000
0100
0000
1010
0000
0010
0000
1000
0100
0001
0100
1000
0000
,  // measure 24
0001
0100
0010
0000
0001
0010
1000
0000
0001
0000
0011
0000
0010
0000
0100
0000
,  // measure 25
1000
0000
0010
0000
0000
0000
0010
0000
0001
0000
0000
0000
0010
0000
0000
0000
1000
0001
0000
0000
0010
0000
0000
0000
0001
1000
0000
0000
1100
0000
0000
0000
,  // measure 26
0010
0000
0101
0000
0010
1000
0001
0000
0010
0000
0011
0000
0001
0000
1000
0000
,  // measure 27
0010
0100
0000
0100
1000
0000
0100
0000
0001
0000
2000
0000
0000
0000
3001
0000
,  // measure 28
0001
0000
0100
0000
0100
0010
1000
0000
0001
0000
1001
0000
1000
0000
0100
0000
,  // measure 29
0001
0000
0100
0000
0000
0000
0100
0000
1000
0000
0000
0000
0001
0000
0000
0000
1000
0001
0000
0000
0100
0000
0000
0000
0001
1000
0000
0000
1010
0000
0000
0000
,  // measure 30
0100
0000
0011
0000
0100
1000
0001
0000
0100
0000
0110
0000
0010
0000
2000
0000
,  // measure 31
0001
3200
0001
0320
0001
0230
1000
0000
,  // measure 32
0310
0000
0001
1000
0010
0000
0100
0001
1001
0000
1000
0000
0010
0000
0100
1000
,  // measure 33
0100
0000
0001
0000
1000
0000
0000
0000
0001
0000
0000
0000
0010
0001
0000
0000
1000
0000
0000
0000
0010
0100
0000
0000
0101
0000
0000
0000
0010
0000
0000
0000
,  // measure 34
1100
0000
0010
0100
0001
0000
0100
0010
1010
0000
1000
0000
0100
0000
0001
0100
,  // measure 35
1000
0001
0100
0000
0010
0000
1000
0001
0020
0000
0031
0000
0001
0000
0100
0000
,  // measure 36
0100
0001
1000
0000
0001
0010
0110
0000
0100
0000
1000
0000
0001
0100
1000
0100
,  // measure 37
0001
0000
0000
0000
1000
0000
0000
0000
0100
1000
0000
0000
0001
0000
0000
0000
0100
0010
0000
0000
1010
0000
0000
0000
0100
0000
0000
0000
0011
0000
0000
0000
,  // measure 38
0100
1000
0010
0000
0100
0001
1001
0000
1000
0000
0101
0000
0001
0000
1100
0000
,  // measure 39
1000
0011
0001
1010
1000
1002
0000
0000
,  // measure 40
0000
0000
0203
0000
0000
0000
0000
0320
2030
3002
0023
0000
0000
0000
0000
0000
,  // measure 41
0000
0000
0230
0000
0000
0000
0000
2300
3002
0203
0320
0000
0000
0000
0000
0000
,  // measure 42
0000
0030
0000
0000
0000
0000
0000
0000
;

//---------------dance-double - Kekkle-EDP----------------
#NOTEDATA:;
#CHARTNAME:Kekkle-EDP;
#STEPSTYPE:dance-double;
#DESCRIPTION:Kekkle-EDP;
#DIFFICULTY:Hard;
#METER:12;
#RADARVALUES:0.473652,0.442610,0.396933,0.264622,0.315212,426,375,51,34,0,0,0,0,0,0.473652,0.442610,0.396933,0.264622,0.315212,426,375,51,34,0,0,0,0,0;
#CREDIT:Kekkle;
#NOTES:
00000000
00000000
00000000
00000000
,
10010000
00000000
10000000
00000000
01000000
00000000
00010000
00001000
00100000
00000000
00001000
00010000
00000100
00000000
00001000
00000000
,
00000100
00000000
00000000
00000000
00000010
00000000
00000001
00000000
00000000
00000000
00000001
00000000
00000100
00000000
00000000
00000000
00001000
00000000
00000000
00000000
00010000
00000100
00000000
00000000
00010000
00000000
00000000
00000000
00001000
01000000
00000000
00000000
,
01010000
00000000
00100000
00000000
11000000
00000000
00100000
00001000
00010000
00000000
00000010
00000000
00001010
00000000
00001000
00000000
,
00000001
00000000
00000010
00001000
00000000
00001000
00010000
00000000
01000000
00000000
10000000
00000000
00020000
00000000
10030000
00000000
,
00100000
00000000
01000000
00000000
00010000
01000000
00001000
00000000
00010000
00000010
00001000
00000000
00000001
00000000
00000101
00000000
,
00000100
00000000
00001000
00000000
00000000
00000000
00001000
00000000
00010000
00000000
00000000
00000000
00000100
00000000
00000000
00000000
00010000
00001000
00000000
00000000
00100000
00000000
00000000
00000000
00001000
00010000
00000000
00000000
00010010
00000000
00000000
00000000
,
00000100
00000000
00001001
00000000
00000010
00001000
00000001
00000000
00000010
00000000
00000110
00000000
00000100
00000000
00020000
00000000
,
00001000
02030000
00100000
23000000
00010000
30200000
01000000
00310000
,
00001000
00010000
00000010
00000000
00000010
00000000
00000000
00000100
00000001
00000000
00001001
00000000
00001000
00000000
00000100
00000000
,
00001000
00010000
00100000
00000000
00100000
00000000
00000000
00010000
10000000
00000000
10100000
00000000
00100000
00000000
00010000
00000000
,
00001000
00010000
00000100
00000000
00000100
00000000
00000000
00000010
00000001
00000000
00000101
00000000
00000100
00000000
00002000
00000000
,
00013000
00000000
00110000
00000000
00100000
00000000
20000000
00000000
31000000
00010000
00001000
00000000
00011000
00000000
00010000
00000000
,
00000010
00001000
00000001
00000000
00000001
00000000
00001000
00000100
00000010
00000000
00000011
00000000
00000001
00000000
00000100
00000000
,
00001000
00010000
00000100
00000000
00000100
00000000
00010000
00000000
00002000
00000000
00203000
00000000
02300000
00000000
13000000
00000000
,
00010000
01000000
00100000
00000000
00100000
00000000
00010000
00001000
00000100
00000000
00000110
00000000
00000010
00000000
00001000
00000001
,
00000010
00000000
00000010
00000000
00000100
00001000
00010000
00001000
00000100
00000000
00000100
00000000
00010100
00000000
00010000
00001000
,
00000000
02010000
00000000
03100000
10010000
00000000
10000000
00010000
,
00110000
00000000
00100000
00001000
00010000
00000010
00001000
00000000
00001001
00000000
00000001
00000000
00001010
00000000
00001000
00000000
,
00010100
00000000
00010000
00000000
00101000
00000000
00200000
00020000
00300000
00000000
10030000
00000000
00100000
01000000
01001000
00000000
,
00001000
00000000
00010000
00000100
00000010
00000100
00002000
00000000
00000000
00000000
00003001
00000000
00000100
00000010
00000000
00000000
,
00020020
00000030
00000000
00031000
00100000
01100000
01000000
11000000
,
10010000
00000000
01001000
00000000
00011000
00000000
00020000
00000000
00000000
00000100
00000000
00000000
00030000
00000000
00001100
00000000
,
00001000
00000001
00000101
00000000
00001000
00000000
00000001
00000000
00000100
00000000
00000010
00001000
00010000
00001000
00000010
00000000
,
00001000
00000000
00000100
00000000
00010000
00001000
00100000
00000000
00001000
00010000
00000100
00000000
00010000
00000000
00001000
00000000
,
00010000
00000000
01000000
00000000
00000000
00000000
01000000
00000000
10000000
00000000
00000000
00000000
00010000
00000000
00000000
00000000
01000000
00001000
00000000
00000000
00010000
00000000
00000000
00000000
00000100
00010000
00000000
00000000
00011000
00000000
00000000
00000000
,
00000100
00000000
00001001
00000000
00000010
00000100
00000001
00000000
00001000
00000000
00001100
00000000
00000100
00000000
00001000
00000000
,
00010000
00100000
00000000
00100000
01000000
00000000
10000000
00000000
00010000
00000000
02000000
00000000
00000000
00000000
03001000
00000000
,
00001000
00000000
00010000
00000000
00010000
00000010
00000100
00000000
00000010
00000100
00000001
00000000
00001000
00000000
00000100
00000000
,
00000001
00000000
00000100
00000000
00000000
00000000
00000100
00000000
00001000
00000000
00000000
00000000
00000100
00000000
00000000
00000000
00010000
00001000
00000000
00000000
01000000
00000000
00000000
00000000
00001000
00010000
00000000
00000000
00010100
00000000
00000000
00000000
,
00001000
00000000
01001000
00000000
01000000
00100000
10000000
00000000
00010000
00000000
00110000
00000000
00100000
00000000
00002000
00000000
,
00010000
00003200
00000001
00000320
00001000
00020030
00000100
00000000
,
00031000
00000000
00100000
00010000
10000000
00000000
00100000
01000000
01010000
00000000
00010000
00000000
00001000
00000000
00000010
00001000
,
00000010
00000000
00000001
00000000
00000010
00000000
00000000
00000000
00001000
00000000
00000000
00000000
00000100
00010000
00000000
00000000
00001000
00000000
00000000
00000000
00100000
00010000
00000000
00000000
10010000
00000000
00000000
00000000
00100000
00000000
00000000
00000000
,
01001000
00000000
00001000
00010000
00000010
00000000
00000100
00000001
00001001
00000000
00001000
00000000
00000100
00000000
00000010
00001000
,
00010000
01000000
00010000
00000000
00001000
00000000
01000000
00000000
00200000
00000000
10300000
00000000
10000000
00000000
00010000
00000000
,
00010000
00100000
00001000
00000000
00010000
00000010
00001010
00000000
00001000
00000000
00000001
00000000
00000010
00001000
00010000
00001000
,
00000010
00000000
00000000
00000000
00000100
00000000
00000000
00000000
00010000
00001000
00000000
00000000
01000000
00000000
00000000
00000000
00100000
10000000
00000000
00000000
11000000
00000000
00000000
00000000
00100000
00000000
00000000
00000000
01001000
00000000
00000000
00000000
,
00001000
00010000
00000010
00000000
00000100
00000001
00001001
00000000
00001000
00000000
00010100
00000000
00010000
00000000
00101000
00000000
,
00100000
11000000
10000000
01010000
00010000
20010000
00000000
00000000
,
00000000
00000000
32000000
00000000
00000000
00000000
00000000
03020000
00032000
00203000
00302000
00000000
00000000
00000000
00000000
00000000
,
00000000
00000000
00023000
00000000
00000000
00000000
00000000
00030020
00000230
00000302
00002003
00000000
00000000
00000000
00000000
00000000
,
00000000
00003000
00000000
00000000
00000000
00000000
00000000
00000000
;

//---------------dance-single - Kekkle-DSP----------------
#NOTEDATA:;
#CHARTNAME:Kekkle-DSP;
#STEPSTYPE:dance-single;
#DESCRIPTION:Kekkle-DSP;
#DIFFICULTY:Medium;
#METER:8;
#RADARVALUES:0.339117,0.311466,0.334669,0.295754,0.011675,305,262,43,38,0,0,0,0,0,0.339117,0.311466,0.334669,0.295754,0.011675,305,262,43,38,0,0,0,0,0;
#CREDIT:Kekkle;
#NOTES:
0000
0000
0000
0000
,
1000
0001
0100
0100
0010
1000
0001
0000
,
0010
0001
0010
0100
1000
1010
0000
0101
,
0002
0100
2003
0100
3001
0100
0110
0000
,
0010
1000
0001
0001
0010
0100
0020
0031
,
1000
0010
0010
0100
0001
1000
0000
0010
,
0100
1000
0100
0001
0101
0000
1010
2000
,
0010
3002
0010
1003
0100
0110
0000
0020
,
0000
2030
0000
3002
0000
0023
0000
1030
,
0001
0011
0010
0000
0001
1001
0000
1000
,
0010
0110
0100
0000
0001
1001
1000
0100
,
0010
0011
0001
0000
1000
1010
0000
0020
,
0100
0130
0000
0002
1000
0100
1003
0100
,
0010
0110
0100
0000
1000
1010
0000
0010
,
0100
0101
0001
1000
1000
0001
0001
0010
,
0100
1100
1000
0000
0001
0101
0000
0100
,
0110
0000
0010
0000
1000
0000
0001
0000
1001
0000
0000
0000
1000
0000
0000
0100
,
0000
0200
0000
0000
0310
0000
0001
0100
,
0101
0001
1000
0100
1100
0000
1001
0000
,
0011
0000
2001
0000
0000
3001
0100
0110
,
0010
0000
1000
0000
1000
0000
1001
0000
0000
0000
0001
0000
0000
0010
0000
0000
,
0020
0000
0000
0130
1000
1001
0001
2000
,
0100
0000
3002
0000
0100
0000
1003
0000
0000
1000
0000
0000
0000
0000
0101
0000
,
0001
1100
1000
0001
0001
0100
0100
0010
,
1000
0001
0001
0010
1000
0010
0000
0001
,
1000
0100
0001
0100
1100
0000
0011
0002
,
0100
2003
0100
3001
0010
0110
0000
0100
,
1000
0001
0100
1000
0100
0020
0000
1030
,
0001
0010
0010
0001
0100
1000
0000
0100
,
0010
1000
0001
0010
0110
0000
1001
0002
,
0010
2003
0010
3001
1000
1100
0000
0200
,
0000
0302
0000
0023
0000
2030
0000
0000
,
3001
0001
0010
0100
0110
0000
0010
0001
,
0001
1000
0010
0101
0000
1010
2000
0100
,
3002
0010
1003
0010
0110
0100
0001
0001
,
1000
1000
0100
0010
0002
1003
1000
0010
,
0010
0100
0001
1001
0000
1000
0100
0100
,
0001
0100
0011
0000
1100
2000
0100
3002
,
0010
1003
0001
0011
0010
0200
1000
0320
,
0001
0230
1000
0010
0310
0002
0000
0000
,
0000
2003
0000
0000
0000
3020
0000
0000
,
0000
0230
0000
0000
0000
0020
0000
0000
,
0000
0330
0000
0000
0000
0000
0000
0000
;

//---------------dance-double - Kekkle-DDP----------------
#NOTEDATA:;
#CHARTNAME:Kekkle-DDP;
#STEPSTYPE:dance-double;
#DESCRIPTION:Kekkle-DDP;
#DIFFICULTY:Medium;
#METER:9;
#RADARVALUES:0.323551,0.311466,0.256839,0.233490,0.011675,291,258,33,30,0,0,0,0,0,0.323551,0.311466,0.256839,0.233490,0.011675,291,258,33,30,0,0,0,0,0;
#CREDIT:Kekkle;
#NOTES:
00000000
00000000
00000000
00000000
,
00000001
00000100
00001000
00010000
00000100
00000010
00000001
00000000
,
00001000
00000010
00010000
00001000
00100000
00110000
00000000
11000000
,
10000000
00010000
00001000
00010000
10000000
00010000
10010000
00000000
,
10000000
01000000
00010000
00001000
01000000
00100000
00020000
00031000
,
00000100
00000001
00000010
00001000
00010000
00000010
00000000
00001000
,
00010000
01000000
00100000
10000000
10100000
00000000
01010000
00010000
,
00001000
00000001
00001000
00010000
01000000
01010000
00000000
00020000
,
00000000
00032000
00000000
00003002
00000000
00000023
00000000
00001030
,
00010000
01000000
01000000
00000000
00100000
10010000
00000000
10000000
,
00010000
00001000
00001000
00000000
00000010
00001001
00000000
00001000
,
00000100
00010000
00010000
00000000
01000000
10010000
00000000
20000000
,
01000000
31000000
00000000
00010000
00001000
00000010
00000001
00001000
,
00010000
01000000
01000000
00000000
00001000
00011000
00000000
00010000
,
00000100
00000001
00000100
00000000
00000020
00000032
00000203
00001300
,
01000000
00100000
00100000
00000000
10000000
10010000
00000000
00010000
,
00101000
00000000
00001000
00000000
00010000
00000000
00000010
00000000
00000101
00000000
00000000
00000000
00000001
00000000
00000000
00000010
,
00000000
00002000
00000000
00000000
00013000
00000000
00001000
01000000
,
00100000
00010000
00000010
00000100
00000001
00000000
00001100
00000000
,
00011000
00000000
02010000
00000000
00000000
03100000
10000000
00010000
,
00001000
00000000
00000100
00000000
00000100
00000000
00000001
00000000
00000000
00000000
00000100
00000000
00000000
00001000
00000000
00000000
,
00020000
00000000
00000000
10030000
00100000
01010000
00010000
00002000
,
00003002
00000000
00002003
00000000
00023000
00000000
10030000
00000000
00000000
10000000
00000000
00000000
00000000
00000000
01010000
00000000
,
00001000
00011000
00010000
00000100
00000100
00000010
00000010
00000001
,
00000100
00001000
00010000
00000100
00000010
00000001
00000000
00000010
,
00001000
00010000
01000000
00100000
00110000
00000000
11000000
10000000
,
00010000
00001000
00010000
10000000
01000000
11000000
00000000
10000000
,
01000000
00010000
00001000
00000010
00000001
00002000
00000000
00003010
,
00001000
00010000
00100000
01000000
00010000
00001000
00000000
01000000
,
00100000
00010000
00000010
00001000
00001010
00000000
00000101
00000001
,
00001000
00010000
00001000
00000001
00000010
00000011
00000000
00000002
,
00000000
00002003
00000000
00023000
00000000
02030000
00000000
00000000
,
03100000
10000000
00010000
00100000
00101000
00000000
00001000
00010000
,
00000100
00000010
00000001
00001001
00000000
00010100
00010000
00001000
,
00100000
10000000
00100000
00001000
00011000
00000000
00010000
00000010
,
00000100
00000100
00000001
00001000
00020000
00031000
00000100
00010000
,
01000000
00100000
00010000
10010000
00000000
10000000
01000000
00010000
,
00000100
00000010
00000011
00000000
00001100
00001000
00010000
10000000
,
00100000
00010000
00001000
00011000
00000000
00020000
00000010
00032000
,
00100000
00023000
00000100
00001000
00031000
02000000
00000000
00000000
,
00000000
03200000
00000000
00000000
00000000
00320000
00000000
00000000
,
00000000
00030020
00000000
00000000
00000000
00000200
00000000
00000000
,
00000000
00000330
00000000
00000000
00000000
00000000
00000000
00000000
;

//---------------dance-single - Kekkle-BSP----------------
#NOTEDATA:;
#CHARTNAME:Kekkle-BSP;
#STEPSTYPE:dance-single;
#DESCRIPTION:Kekkle-BSP;
#DIFFICULTY:Easy;
#METER:6;
#RADARVALUES:0.236826,0.245894,0.171226,0.249056,0.007783,213,191,22,32,0,0,0,0,0,0.236826,0.245894,0.171226,0.249056,0.007783,213,191,22,32,0,0,0,0,0;
#CREDIT:Kekkle;
#NOTES:
0000
0000
0000
0000
,
0001
0000
0001
0000
1000
0100
0001
0000
,
1000
0000
1000
0000
0001
0100
1000
0000
,
0101
0000
1100
0000
1000
0010
0100
0000
,
0001
0000
0001
0000
1000
0100
2000
3001
,
0000
0001
0000
1000
0010
0001
0000
1000
,
0000
1000
0000
0001
0010
1000
0000
1010
,
0000
0011
0000
0001
0010
0100
0000
2000
,
0000
3020
0000
0032
0000
0203
0000
2300
,
0000
0010
0000
3100
0000
0110
0000
0020
,
0000
0100
0000
0031
0000
0011
0000
0002
,
0000
0100
0000
1003
0000
1010
0000
0020
,
0000
0031
0000
0020
0000
1030
0000
0002
,
0000
0013
0000
1000
0010
0001
0000
2000
,
0000
3010
0000
0001
0010
1000
0000
0200
,
0000
0301
0000
0100
1000
0010
0000
0100
,
0001
0000
0000
0000
1000
0000
1000
0000
0100
0000
0000
0000
0010
0000
0000
0100
,
0000
0002
0000
0000
1003
0000
0010
0000
,
0001
0000
1000
0010
0001
0000
0011
0000
,
0110
0000
2010
0000
0000
3001
0001
0100
,
0000
0000
0010
0000
0100
0000
0010
0000
0000
0000
0100
0000
0000
0010
0000
0000
,
0002
0000
0000
1003
0100
0001
0000
1000
,
0100
0001
0000
0200
0000
0000
0300
0011
,
0000
1010
0000
1000
0001
0100
0000
0001
,
0000
0001
0000
1000
0100
0001
0000
1000
,
0000
1000
0000
0001
0100
1000
0000
1100
,
0000
0101
0000
0001
1000
0100
0000
0010
,
0000
0001
0000
1000
0010
2000
0000
3100
,
0000
0100
0000
0001
0100
1000
0000
0010
,
0000
0010
0000
1000
0010
0001
0000
0011
,
0000
1010
0000
1000
0001
0010
0000
0002
,
0000
0203
0000
2300
0000
3020
0000
0000
,
0031
0000
1000
0010
0001
0000
1000
0100
,
0001
1000
1001
0011
,
1100
0000
1000
0100
0001
0000
1000
0010
,
0001
0000
1000
0010
0200
0301
0000
0001
,
0000
1000
0010
0001
0000
1000
0100
0001
,
0000
1000
0000
1001
0000
1100
0000
0011
,
0000
0001
0010
1000
0000
0020
0000
0032
,
0000
2003
0000
3020
0000
0230
0000
0000
,
0000
0302
0000
0000
0000
2003
0000
0000
,
0000
3200
0000
0000
0000
0320
0000
0000
,
0000
0030
0000
0000
0000
0000
0000
0000
;

//---------------dance-double - Kekkle-BDP----------------
#NOTEDATA:;
#CHARTNAME:Kekkle-BDP;
#STEPSTYPE:dance-double;
#DESCRIPTION:Kekkle-BDP;
#DIFFICULTY:Easy;
#METER:6;
#RADARVALUES:0.235714,0.245894,0.163443,0.233490,0.007783,212,191,21,30,0,0,0,0,0,0.235714,0.245894,0.163443,0.233490,0.007783,212,191,21,30,0,0,0,0,0;
#CREDIT:Kekkle;
#NOTES:
00000000
00000000
00000000
00000000
,
00000001
00000000
00000001
00000000
00001000
00000010
00000001
00000000
,
00001000
00000000
00001000
00000000
00000100
00001000
00010000
00000000
,
00011000
00000000
01010000
00000000
01000000
10000000
00010000
00000000
,
00100000
00000000
00100000
00000000
00010000
00001000
02000000
03010000
,
00000000
00010000
00000000
10000000
01000000
00010000
00000000
10000000
,
00000000
10000000
00000000
00010000
00001000
01000000
00000000
01010000
,
00000000
00011000
00000000
00001000
00000100
00000001
00000000
00000020
,
00000000
00002030
00000000
00023000
00000000
02030000
00000000
23000000
,
00000000
01000000
00000000
30010000
00000000
01001000
00000000
00002000
,
00000000
00010000
00000000
00003100
00000000
00000101
00000000
00000002
,
00000000
00000010
00000000
00001003
00000000
00010100
00000000
00020000
,
00000000
01000000
00000000
00032000
00000000
00000100
00000000
00023000
,
00000000
01030000
00000000
10000000
00100000
00010000
00000000
00002000
,
00000000
00003100
00000000
00000001
00000010
00001000
00000000
00020000
,
00000000
01030000
00000000
10000000
00100000
01000000
00000000
00001000
,
00010000
00000000
00000000
00000000
00000010
00000000
00000010
00000000
00000100
00000000
00000000
00000000
00000001
00000000
00000000
00000100
,
00000000
00002000
00000000
00000000
00013000
00000000
01000000
00000000
,
10000000
00000000
00100000
00010000
00001000
00000000
00101000
00000000
,
00011000
00000000
00010010
00000000
00000000
00000010
00000100
00001000
,
00000000
00000000
00010000
00000000
01000000
00000000
10000000
00000000
00000000
00000000
10000000
00000000
00000000
00100000
00000000
00000000
,
00020000
00000000
00000000
00031000
00000100
00000001
00000000
00001000
,
00000100
00000001
00000000
00002000
00000000
00003000
00000000
00010000
,
00001000
01000000
00000000
00100000
10000000
10000000
00000000
00010000
,
00000000
00010000
00000000
10000000
00100000
00010000
00000000
10000000
,
00000000
10000000
00000000
00010000
00001000
00100000
00000000
00101000
,
00000000
00011000
00000000
00001000
00000100
00000001
00000000
00001000
,
00000000
00001000
00000000
00000100
00001000
00020000
00000000
00031000
,
00000000
00001000
00000000
00000100
00000010
00000001
00000000
00001000
,
00000000
00001000
00000000
00000100
00010000
00001000
00000000
00011000
,
00000000
00110000
00000000
00100000
00010000
10000000
00000000
00200000
,
00000000
00320000
00000000
00032000
00000000
00003200
00000000
00000000
,
00000301
00000000
00001000
00000100
00000001
00000000
00001000
00000010
,
00000100
00010000
00011000
01010000
,
10100000
00000000
10000000
00100000
00010000
00000000
10000000
01000000
,
00001000
00000000
00010000
00000000
00011000
00001000
00000000
00001000
,
00000000
00010000
00000100
00000010
00000000
00001000
00000010
00000001
,
00000000
00001000
00000000
00001010
00000000
00011000
00000000
01010000
,
00000000
00010000
01000000
10000000
00000000
00020000
00000000
00032000
,
00000000
00003200
00000000
00000302
00000000
00002003
00000000
00000000
,
00000000
00003200
00000000
00000000
00000000
00020300
00000000
00000000
,
00000000
02030000
00000000
00000000
00000000
23000000
00000000
00000000
,
00000000
30000000
00000000
00000000
00000000
00000000
00000000
00000000
;

//---------------dance-single - Kekkle-bSP----------------
#NOTEDATA:;
#CHARTNAME:Kekkle-bSP;
#STEPSTYPE:dance-single;
#DESCRIPTION:Kekkle-bSP;
#DIFFICULTY:Beginner;
#METER:4;
#RADARVALUES:0.140094,0.180323,0.070047,0.334669,0,126,117,9,43,0,0,0,0,0,0.140094,0.180323,0.070047,0.334669,0,126,117,9,43,0,0,0,0,0;
#CREDIT:Kekkle;
#NOTES:
0000
0000
0000
0000
,
2000
0000
3010
0010
,
0020
0000
0230
0000
,
0301
0001
0002
0000
,
2003
0000
0000
0000
3100
0000
0100
0020
,
0000
0000
0000
0031
0000
0001
0000
0002
,
0000
0000
0000
0203
0000
0000
0000
0310
,
0000
0010
0000
0020
0000
0000
0000
2030
,
0000
0000
0000
3001
0000
1001
0000
2000
,
0000
0000
0000
3100
0000
0000
0000
0002
,
0000
0000
0000
0103
0000
0000
0000
2000
,
0000
0000
0000
3010
0000
0000
0000
0002
,
0000
0000
0000
0013
0000
1000
0000
2000
,
0000
0000
0000
3100
0000
0000
0000
0002
,
0000
0000
0000
0013
0000
0000
0000
2000
,
0000
0000
0000
3010
0000
0000
0000
0000
,
0100
0100
0001
2000
,
0000
3100
0000
0000
0110
0000
0010
0000
,
0010
0001
0000
1000
,
0001
0000
1001
0000
0000
0000
0000
1000
,
0000
1000
0000
0010
0000
0200
0000
0000
,
0000
0000
0000
0301
0000
0001
0000
1000
,
0000
1000
0000
0200
0000
0000
0300
0000
,
0000
0010
0000
0001
0000
1001
0000
2000
,
0000
0000
0000
3001
0000
0001
0000
0002
,
0000
0000
0000
0203
0000
0000
0000
0310
,
0000
0010
0000
0020
0000
0000
0000
0230
,
0000
0000
0000
0301
0000
1001
0000
2000
,
0000
0000
0000
3100
0000
0100
0000
0200
,
0000
0000
0000
0320
0000
0000
0000
0130
,
0000
0100
0000
0200
0000
0000
0000
2300
,
0000
0000
0000
3001
0000
0001
0000
0000
,
0000
1000
1001
0002
,
0103
2000
3100
0001
,
0001
0100
0110
0010
,
1000
0000
0001
0000
0010
0000
0000
0100
,
0000
0010
0000
0110
0000
0200
0000
1300
,
0000
0020
0000
0031
0000
0100
0000
0100
,
0000
1000
0000
1001
0000
0002
0000
2003
,
0000
3002
0000
2003
0000
3020
0000
0000
,
0000
0230
0000
0000
0000
0302
0000
0000
,
0000
2003
0000
0000
0000
3002
0000
0000
,
0000
0003
0000
0000
0000
0000
0000
0000
;
