#TITLE:jakartaEVOLVED;
#ARTIST:fz UNDERGROUND;
#BANNER:jakartaEVOLVED-bn.png;
#BACKGROUND:jakartaEVOLVED-bg.png;
#MUSIC:jakartaEVOLVED.ogg;
#OFFSET:0.008;
#SAMPLESTART:19.19;
#SAMPLELENGTH:15;
#BPMS:0=300,188=150,190=300,358=150,362=300;
#STOPS:201=0.4,207=0.35,208.5=0.25,210=0.2,211.5=0.3,218=0.4,221.5=0.4,222=0.3,228.5=0.25,230=0.15,235=0.2;

//---------------dance-single - Kekkle-ESP----------------
#NOTES:
     dance-single:
     Kekkle:
     Hard:
     16:
     0.912072,1.115657,0.391459,0.456702,0.027961,685,643,42,49,0,0,0.912072,1.115657,0.391459,0.456702,0.027961,685,643,42,49,0,0:
0000
0000
0000
0000
,
0000
0000
0000
0000
,
0000
0000
0000
0000
,
0000
0000
0000
0000
,
0000
0000
0000
0000
,
0000
0000
0000
0000
,
0000
0000
0000
0000
,
0000
0000
0000
0000
,
0001
0100
0000
0010
0000
0100
0001
0000
,
0010
0100
0000
1000
0000
0100
0010
0000
,
0100
1000
0000
0001
0000
1000
0100
0000
,
0010
0001
0000
1000
0000
0001
0010
0000
,
0001
1000
0000
0010
0000
1000
0001
0000
,
1000
0010
0000
0100
0000
0010
1000
0000
,
0010
0100
0000
0001
0000
0100
0010
0000
,
1000
0001
0000
0100
0000
0001
1000
0000
,
0100
0010
0000
0001
0000
0100
0010
0000
,
1000
0010
0000
0100
0000
0001
0010
0000
,
0100
1000
0000
0010
0000
0100
0001
0000
,
0010
0100
0000
1000
0000
0010
1000
0000
,
0001
0010
0000
0001
0000
1000
0010
0000
,
0100
0001
0000
0010
0000
0100
0010
0000
,
0001
0100
0000
0010
0000
1000
0001
0000
,
0010
0100
0000
0010
0000
0001
0100
0010
,
1000
0010
0110
0100
,
0101
0000
0001
0000
0011
0000
0010
0100
,
1000
0010
1010
1000
,
1100
0000
0100
0000
0110
0000
0010
0001
,
0100
0001
1001
1000
,
1010
0000
0010
0000
0110
0000
0100
0010
,
1000
0100
1100
1000
,
1001
0000
0001
0000
0011
0000
0010
0001
,
1000
0010
1010
1000
,
1001
0000
0001
0000
0101
0000
0100
0001
,
1000
0010
0110
0100
,
0101
0000
0001
0000
1001
0000
1000
0001
,
0100
0001
0011
0010
,
0110
0000
0100
0000
1100
0000
1000
0010
,
0100
0001
0000
1001
0000
1000
0010
0000
,
0100
0001
0010
0000
0100
1000
0001
1000
,
0001
0100
0100
0010
,
1020
0130
0201
0310
,
0120
1030
1000
0001
,
0102
1003
2100
3001
,
0021
0130
0100
1000
,
1002
0103
0201
0310
,
0120
1030
1000
0001
,
0100
0000
0100
0000
0100
0000
0010
0000
0010
0000
0010
0000
1000
0000
0000
0000
0000
0000
0001
0000
0000
0100
0000
0000
,
0001
0000
1000
0100
0000
0010
0001
1000
,
0001
0100
0010
1000
0010
0000
0100
0001
,
0010
0000
0100
1000
0100
0010
0100
1000
,
0001
0000
0100
0010
1000
0000
0100
0010
,
0001
0010
0100
1000
0001
0100
0000
0100
,
0010
1000
0010
0100
0001
1000
0000
0100
,
0000
0010
0001
0000
0010
0100
0000
1000
,
0000
0001
0100
0001
1000
0010
0100
0000
,
0001
0010
0100
0000
1000
0100
0000
1000
,
0000
0001
0100
0010
1000
0001
0100
0001
,
0010
0100
1000
0100
0010
0100
1000
0000
,
0001
0000
0100
0010
2000
0000
0000
3020
,
0000
0000
0230
0000
0000
0302
0000
0000
,
0013
0000
0100
0000
0020
0000
0000
0032
,
0000
0000
0203
0000
0000
0310
1000
0000
,
1001
0000
0001
0000
0020
0000
0000
0230
,
0000
0000
0320
0000
0000
0032
0000
0000
,
0103
0000
0010
0000
2000
0000
0000
3020
,
0000
0000
0230
0000
0000
0301
0010
0000
,
0011
0000
0001
0000
2000
0000
0000
0010
,
0000
0000
0002
0000
3000
0100
0000
0000
,
0013
0000
0001
0000
0200
0000
0000
0010
,
0000
0000
0002
0000
0300
2003
3100
0000
,
0110
0000
0010
0000
0002
0000
0000
0100
,
0000
0000
2000
0000
0003
0010
0000
0000
,
3100
0000
1000
0000
1100
0000
0000
1010
,
0000
0000
0101
0000
0000
0011
0000
0000
,
1001
0000
0110
0000
1001
0000
0000
0001
,
0100
0001
0000
1000
0100
1000
0000
0010
,
0100
0001
1000
0100
0010
0001
0000
1000
,
0010
1000
0000
0001
0010
0001
0000
1000
,
0100
0010
0001
1000
0010
0100
0000
0001
,
0010
0001
0000
1000
0010
1000
0000
0100
,
0010
0001
1000
0010
0100
0001
0000
1000
,
0100
1000
0000
0001
0100
0001
0000
1000
,
0010
0100
0001
0010
0100
1000
0000
0001
,
0100
0010
0000
1000
0100
0010
0000
0001
,
0100
0010
1000
0100
0010
0001
0000
1000
,
0010
0100
0000
0001
0010
0100
0000
1000
,
0100
0010
0001
0100
0010
1000
0000
0001
,
1000
0100
0000
0010
0001
0100
0000
0001
,
0100
1000
0100
0001
0010
0100
1000
0010
,
0100
0001
1000
0001
0010
0000
0100
0000
1000
0000
0001
0000
1000
0000
0001
0000
,
0100
0001
0100
0000
0010
1000
0010
1000
,
0010
0100
0010
0000
1000
0100
1000
0100
,
1000
0001
1000
0000
0010
0001
0010
0001
,
0100
0001
0100
0000
0010
1000
0010
1000
,
0001
1000
0001
0000
0010
0100
0010
0100
,
1000
0100
1000
0000
0010
0100
0010
0100
,
0001
0100
0001
0000
1000
0100
1000
0100
,
0010
0100
0010
0000
0001
0010
0002
0000
,
1003
0010
2000
0000
3100
0010
0200
0000
,
0310
0001
0020
0000
0031
0100
0002
0000
,
1003
0010
2000
0000
3010
0100
0020
0000
,
0130
0001
0200
0000
0310
1000
0200
0000
,
0310
0001
2000
0000
3010
0100
0002
0000
,
1003
0100
0020
0000
0031
1000
0200
0000
,
0310
0001
0200
0000
0310
1000
0002
0000
,
0103
0010
2000
0000
3100
0010
0001
0010
,
0100
0010
0001
0000
1000
0010
0100
0010
,
1000
0010
0100
0000
0001
1000
0100
1000
,
0001
1000
0100
0000
0010
0100
1000
0100
,
0010
0100
1000
0000
0001
0100
0010
0100
,
0001
0100
0010
0000
1000
0001
0010
0001
,
1000
0001
0010
0000
0100
1000
0010
1000
,
0100
1000
0010
0000
0100
0001
0010
0001
,
0100
0001
0010
0000
0100
1000
0100
0010
,
0100
1000
0100
0010
0001
0100
0010
0100
,
0001
0100
0010
1000
0001
0010
0100
0010
,
0001
0010
0100
0010
0001
1000
0010
1000
,
0001
1000
0010
1000
0001
0100
0010
1000
,
0010
0100
0001
0010
0100
1000
0100
0001
,
0100
1000
0010
0100
0001
0010
0100
0010
,
0001
0100
0010
1000
0001
0010
0100
1000
,
0100
0010
0001
2000
0000
0000
3000
0000
,
2002
0000
0000
0000
,
0000
0000
0000
0000
,
0000
0000
0000
0000
,
3003
0000
0000
0000
;

//---------------dance-double - Kekkle-EDP----------------
#NOTES:
     dance-double:
     Kekkle:
     Hard:
     17:
     0.908078,1.115657,0.391459,0.372818,0.027961,682,640,42,40,0,0,0.908078,1.115657,0.391459,0.372818,0.027961,682,640,42,40,0,0:
00000000
00000000
00000000
00000000
,
00000000
00000000
00000000
00000000
,
00000000
00000000
00000000
00000000
,
00000000
00000000
00000000
00000000
,
00000000
00000000
00000000
00000000
,
00000000
00000000
00000000
00000000
,
00000000
00000000
00000000
00000000
,
00000000
00000000
00000000
00000000
,
10000000
00100000
00000000
01000000
00000000
00010000
00100000
00000000
,
00001000
00010000
00000000
00000100
00000000
00001000
00000010
00000000
,
00000100
00000001
00000000
00000010
00000000
00000100
00001000
00000000
,
00000100
00010000
00000000
00001000
00000000
01000000
00010000
00000000
,
00100000
01000000
00000000
10000000
00000000
00010000
01000000
00000000
,
00001000
00010000
00000000
00000100
00000000
00001000
00000100
00000000
,
00000010
00000001
00000000
00000100
00000000
00000010
00001000
00000000
,
00000100
00010000
00000000
00001000
00000000
01000000
00100000
00000000
,
10000000
00010000
00000000
00100000
00000000
00001000
01000000
00000000
,
00001000
00010000
00000000
00000010
00000000
00000100
00000001
00000000
,
00000010
00000100
00000000
00000010
00000000
00000100
00010000
00000000
,
00001000
01000000
00000000
00010000
00000000
10000000
01000000
00000000
,
00100000
00010000
00000000
01000000
00000000
00001000
01000000
00000000
,
00001000
00010000
00000000
00000100
00000000
00000010
00000001
00000000
,
00001000
00000010
00000000
00000100
00000000
00000010
00010000
00000000
,
00001000
00010000
00000000
01000000
00000000
00100000
00010000
10000000
,
00100000
01000000
01010000
00010000
,
00110000
00000000
00100000
00000000
00101000
00000000
00001000
00010000
,
00000100
00000010
00000011
00000001
,
00001001
00000000
00001000
00000000
00001010
00000000
00000010
00010000
,
00001000
00010000
00011000
00001000
,
01001000
00000000
01000000
00000000
01100000
00000000
00100000
10000000
,
00010000
10000000
11000000
01000000
,
01100000
00000000
00100000
00000000
00110000
00000000
00010000
01000000
,
00001000
00010000
00010100
00000100
,
00000110
00000000
00000010
00000000
00000011
00000000
00000001
00000100
,
00000010
00010000
00011000
00001000
,
00101000
00000000
00100000
00000000
01100000
00000000
01000000
10000000
,
00010000
01000000
01001000
00001000
,
00011000
00000000
00010000
00000000
00010100
00000000
00000100
00000010
,
00000001
00001000
00000000
00001010
00000000
00000010
00010000
00000000
,
00001000
00010000
00001000
00000000
01000000
00010000
10000000
01000000
,
00100000
00001000
00010000
00000100
,
00000120
00000031
00002010
00003100
,
00012000
01003000
00010000
10000000
,
01200000
00310000
10200000
01300000
,
01002000
00013000
00000100
00000010
,
00000012
00001003
00000120
00010030
,
00012000
01003000
00010000
10000000
,
01000000
00000000
01000000
00000000
01000000
00000000
00100000
00000000
00100000
00000000
00100000
00000000
00010000
00000000
00000000
00000000
00000000
00000000
01000000
00000000
00000000
00001000
00000000
00000000
,
00010000
00000000
00000100
00001000
00000000
00000001
00000010
00000100
,
00000010
00000001
00000100
00000010
00001000
00000000
00010000
01000000
,
00100000
00000000
10000000
01000000
00100000
00010000
00100000
01000000
,
00010000
00000000
00001000
00000010
00000100
00000000
00001000
00000001
,
00000100
00001000
00010000
00100000
10000000
01000000
00000000
01000000
,
00100000
00001000
00010000
00000100
00000010
00000001
00000000
00000100
,
00000000
00000010
00010000
00000000
00001000
01000000
00000000
00100000
,
00000000
10000000
01000000
00010000
00001000
00010000
00001000
00000000
,
00000100
00000001
00001000
00000000
00000100
00010000
00000000
00100000
,
00000000
00100000
10000000
01000000
00100000
00010000
01000000
00010000
,
00100000
00001000
00100000
00001000
00010000
00000100
00000010
00000000
,
00000001
00000000
00001000
00000100
00020000
00000000
00000000
00032000
,
00000000
00000000
02003000
00000000
00000000
03200000
00000000
00000000
,
10300000
00000000
01000000
00000000
00020000
00000000
00000000
00032000
,
00000000
00003200
00000000
00000301
,
00001001
00000000
00001000
00000000
00000200
00000000
00000000
00020300
,
00000000
00000000
00032000
00000000
00000000
02003000
00000000
00000000
,
13000000
00000000
01000000
00000000
00020000
00000000
00000000
00230000
,
00000000
00302000
00000000
00013000
,
00010100
00000000
00000100
00000000
00000020
00000000
00000000
00000001
,
00000000
00000000
00000200
00000000
00000030
00001000
00000000
00000000
,
00000310
00000000
00000100
00000000
00020000
00000000
00000000
00001000
,
00000000
00200000
00030000
10300000
,
11000000
00000000
01000000
00000000
00200000
00000000
00000000
00001000
,
00000000
00000000
00020000
00000000
00300000
01000000
00000000
00000000
,
00130000
00000000
00001000
00000000
00011000
00000000
00000000
00010100
,
00000000
00000000
00001100
00000000
00000000
00001001
00000000
00000000
,
00000011
00000000
00001100
00000000
00001001
00000000
00000000
00000001
,
00000100
00000010
00000000
00010000
00000100
00001000
00000000
00000100
,
00010000
00001000
00010000
00001000
01000000
00010000
00000000
10000000
,
01000000
00100000
00000000
00010000
01000000
00001000
00000000
00010000
,
00000100
00001000
00000100
00001000
00000001
00000100
00000000
00000010
,
00000100
00000001
00000000
00001000
00000100
00010000
00000000
00001000
,
01000000
00010000
01000000
00010000
10000000
01000000
00000000
00100000
,
00001000
00010000
00000000
00000100
00001000
00000010
00000000
00001000
,
00000001
00000010
00000001
00000010
00000100
00001000
00000000
00000100
,
00010000
00001000
00000000
01000000
00010000
00100000
00000000
01000000
,
10000000
00010000
10000000
00010000
01000000
00001000
00000000
00010000
,
00001000
00000100
00000000
00000001
00001000
00000100
00000000
00000010
,
00000001
00000100
00000001
00000100
00000010
00001000
00000000
00010000
,
01000000
00100000
00000000
10000000
01000000
00100000
00000000
00001000
,
00010000
00001000
00000100
00000010
00001000
00000001
00000010
00000001
,
00001000
00000100
00010000
00000100
00001000
00000000
00000100
00000000
00010000
00000000
00001000
00000000
00010000
00000000
00001000
00000000
,
01000000
00010000
01000000
00000000
00100000
10000000
00100000
10000000
,
00010000
00100000
00010000
00000000
01000000
00001000
01000000
00001000
,
00010000
00001000
00010000
00000000
00000100
00000010
00000100
00000010
,
00000001
00000010
00000001
00000000
00001000
00000010
00001000
00000010
,
00010000
00000010
00010000
00000000
00000100
00010000
00000100
00010000
,
00001000
00010000
00001000
00000000
01000000
00010000
01000000
00010000
,
00100000
01000000
00100000
00000000
01000000
10000000
01000000
10000000
,
00010000
10000000
00010000
00000000
01000000
00010000
00200000
00000000
,
01300000
10000000
00020000
00000000
00130000
01000000
10000000
00000000
,
10000000
01000000
00010000
00000000
00001000
00000100
00000020
00000000
,
00001030
00000010
00000200
00000000
00000310
00001000
00000001
00000000
,
00000001
00000100
00001000
00000000
00100000
00010000
20000000
00000000
,
31000000
00100000
00020000
00000000
01030000
00100000
10000000
00000000
,
10000000
01000000
00010000
00000000
00000100
00000010
00000002
00000000
,
00001003
00000010
00000200
00000000
00000310
00000100
00000001
00000000
,
00000001
00000100
00001000
00000000
00100000
00010000
00100000
01000000
,
00100000
00010000
00100000
00000000
01000000
10000000
00010000
10000000
,
01000000
10000000
00010000
00000000
01000000
00001000
00010000
00001000
,
01000000
00001000
00010000
00000000
00000100
00000010
00000001
00000010
,
00000100
00000010
00000001
00000000
00000100
00000010
00001000
00000010
,
00000100
00000010
00001000
00000000
00000100
00010000
00001000
00010000
,
00000100
00010000
00001000
00000000
01000000
00100000
10000000
00010000
,
00100000
01000000
10000000
00000000
00100000
01000000
00010000
10000000
,
01000000
00100000
00010000
00000000
01000000
00010000
01000000
00010000
,
01000000
00001000
01000000
00001000
00010000
00001000
00010000
00001000
,
00010000
00000100
00010000
00000100
00001000
00000010
00001000
00000010
,
00000100
00000001
00000100
00000001
00000010
00000100
00000010
00000100
,
00001000
00000100
00001000
00000100
00010000
00001000
00010000
00100000
,
10000000
01000000
00100000
00010000
00100000
01000000
10000000
01000000
,
00010000
00001000
00010000
00001000
00000100
00000001
00000010
00000100
,
00001000
00000100
00010000
00001000
00010000
01000000
00100000
00010000
,
10000000
00100000
01000000
00020000
00000000
00000000
00030000
00000000
,
02002000
00000000
00000000
00000000
,
00000000
00000000
00000000
00000000
,
00000000
00000000
00000000
00000000
,
03003000
00000000
00000000
00000000
;

//---------------dance-single - Kekkle-DSP----------------
#NOTES:
     dance-single:
     Kekkle:
     Medium:
     13:
     0.603166,0.763345,0.288934,0.484663,0.018641,453,422,31,52,0,0,0.603166,0.763345,0.288934,0.484663,0.018641,453,422,31,52,0,0:
0000
0000
0000
0000
,
0000
0000
0000
0000
,
0000
0000
0000
0000
,
0000
0000
0000
0000
,
0000
0000
0000
0000
,
0000
0000
0000
0000
,
0000
0000
0000
0000
,
0000
0000
0000
0000
,
1000
0000
0000
0001
0000
0000
0100
0000
,
0010
0000
0000
1000
0000
0000
0001
0000
,
0010
0000
0000
0100
0000
0000
1000
0000
,
0010
0000
0000
0100
0000
0000
0001
0000
,
0010
0000
0000
0001
0000
0000
0100
0000
,
0010
0000
0000
1000
0000
0000
0010
0000
,
0100
0000
0000
0001
0000
0000
0010
0000
,
0100
0000
0000
1000
0000
0000
0100
0000
,
0110
0000
0000
0010
0000
0000
0001
0000
,
1000
0000
0000
0010
0000
0000
0100
0000
,
0001
0000
0000
0010
0000
0000
0100
0000
,
0010
0000
0000
0001
0000
0000
0100
0000
,
0010
0000
0000
1000
0000
0000
0010
0000
,
0100
0000
0000
0001
0000
0000
0010
0000
,
0100
0000
0000
1000
0000
0000
0010
0000
,
0100
0000
0000
0001
0000
0000
1000
0000
,
1001
0000
0101
0000
,
1010
0000
1100
1000
,
0001
0000
0101
0000
,
1010
0000
0011
0001
,
1000
0000
0101
0000
,
1100
0000
1001
0001
,
0010
0000
1100
0000
,
0011
0000
1001
1000
,
0100
0000
0110
0000
,
0011
0000
0101
0100
,
0010
0000
1010
0000
,
0110
0000
1010
1000
,
0100
0000
1100
0000
,
0110
0000
1100
1000
,
0001
0000
0000
1001
0000
0000
1000
0000
,
0001
0100
1000
0100
,
0002
0000
2003
0000
,
3010
0100
1000
0100
,
0020
0000
2030
0000
,
3100
0001
0100
1000
,
0020
0000
0230
0000
,
0301
0100
0010
0100
,
0002
0000
0023
0000
,
0130
1000
0100
1000
0100
1000
0001
0000
0000
0100
0000
0000
,
0010
0010
0000
1000
,
0100
0010
0100
1000
,
0010
0010
0100
0001
,
0010
0000
0100
0000
1000
0000
1000
0010
,
0000
0010
0100
0000
0100
0001
0000
0001
,
0100
0000
0010
0000
1000
0001
0000
0010
,
0000
0100
0000
0000
0110
0100
0000
1000
,
0000
0100
0000
0100
0010
0000
0001
0000
,
1000
0000
0100
0000
0010
0000
0001
1000
,
0000
0001
1000
0000
0100
0010
0000
0001
,
0000
1000
0000
0010
0000
0100
0010
0000
,
1000
0100
0020
0000
,
0000
0032
0000
0000
,
2003
0000
3020
0000
,
0000
0230
0000
0000
,
0301
0000
2000
0000
,
0000
3200
0000
0000
,
0320
0000
0032
0000
,
0000
0203
0000
0000
,
0310
0000
1000
0000
,
0001
0000
0101
0000
,
0100
0000
0010
0000
,
1000
0000
1100
0000
,
0100
0000
0100
0000
,
0010
0000
0011
0000
,
0001
0000
0000
0000
1001
0000
0000
1000
,
0000
0000
1010
0000
0000
0010
0000
0000
,
0100
0001
1000
0000
,
0010
0100
0000
0001
0000
0010
0000
0100
,
0000
1000
0000
0010
0100
0000
0000
0000
,
0001
0100
0000
0010
0000
1000
0000
0010
,
0000
0100
0000
0001
0010
0000
0000
0000
,
0100
1000
0000
0100
0000
0010
0000
0001
,
0000
0100
0000
0010
1000
0000
0000
0000
,
0100
0010
0000
0100
0000
1000
0000
0001
,
0000
0100
0000
0010
1000
0000
0000
0000
,
0100
0010
0000
0100
0000
1000
0000
0001
,
0000
0100
0000
0010
1000
0000
0000
0000
,
0100
0010
0000
0001
0000
0100
0000
1000
,
0000
0100
0000
0010
1000
0000
0000
0000
,
0100
0010
0000
0001
0000
0100
0000
0010
,
0000
1000
0000
0010
0100
0000
0001
0000
,
1000
0010
1000
0010
1000
0000
0001
0000
,
1000
0100
1000
0000
0001
0000
1000
0000
,
0001
0100
0001
0000
1000
0000
0001
0000
,
1000
0100
1000
0000
0001
0000
1000
0000
,
0001
0100
0001
0000
1000
0000
0001
0000
,
0100
0010
0100
0000
0001
0000
1000
0000
,
0100
0010
0100
0000
1000
0000
0001
0000
,
0100
0010
0100
0000
0001
0000
1000
0000
,
0100
0010
0100
0000
2000
0000
3020
0000
,
0230
0302
2003
3020
,
0230
0302
2003
3020
,
0230
0302
2003
3020
,
0230
0302
2003
3200
,
0320
0032
2003
3200
,
0320
0032
2003
3200
,
0320
0032
2003
3200
,
0320
0032
1003
0010
,
0100
0001
0100
0000
0010
0000
1000
0000
,
0100
0010
0100
0000
1000
0000
0001
0000
,
0010
0100
0010
0000
0100
0000
1000
0000
,
0001
0100
0001
0000
0010
0000
0100
0000
,
1000
0001
1000
0000
0010
0000
0100
0000
,
0001
0010
0001
0000
1000
0000
0001
0000
,
1000
0010
1000
0000
0100
0000
0010
0000
,
0001
1000
0001
0000
1000
0010
1000
0000
,
0010
0100
0010
0000
0100
0001
0100
0000
,
0001
0010
0001
0000
0010
0100
0010
0000
,
0100
1000
0100
0000
1000
0010
1000
0000
,
0010
0100
0010
0000
0100
0001
0100
0000
,
0010
1000
0010
0000
0100
0001
0100
0000
,
0010
1000
0010
0000
0100
0010
0100
0000
,
0001
1000
0001
0000
0010
0100
0010
0000
,
0001
1000
0001
1000
0000
0000
0000
0000
,
2002
0000
0000
0000
,
0000
0000
0000
0000
,
0000
0000
0000
0000
,
3003
0000
0000
0000
;

//---------------dance-double - Kekkle-DDP----------------
#NOTES:
     dance-double:
     Kekkle:
     Medium:
     14:
     0.604497,0.763345,0.298254,0.484663,0.018641,454,422,32,52,0,0,0.604497,0.763345,0.298254,0.484663,0.018641,454,422,32,52,0,0:
00000000
00000000
00000000
00000000
,
00000000
00000000
00000000
00000000
,
00000000
00000000
00000000
00000000
,
00000000
00000000
00000000
00000000
,
00000000
00000000
00000000
00000000
,
00000000
00000000
00000000
00000000
,
00000000
00000000
00000000
00000000
,
00000000
00000000
00000000
00000000
,
10000000
00000000
00000000
00010000
00000000
00000000
01000000
00000000
,
00001000
00000000
00000000
00010000
00000000
00000000
00000100
00000000
,
00000010
00000000
00000000
00000001
00000000
00000000
00000100
00000000
,
00000010
00000000
00000000
00010000
00000000
00000000
00001000
00000000
,
01000000
00000000
00000000
00010000
00000000
00000000
10000000
00000000
,
01000000
00000000
00000000
00100000
00000000
00000000
00001000
00000000
,
00010000
00000000
00000000
00000100
00000000
00000000
00000010
00000000
,
00000001
00000000
00000000
00001000
00000000
00000000
00000100
00000000
,
00010100
00000000
00000000
00010000
00000000
00000000
01000000
00000000
,
00100000
00000000
00000000
00010000
00000000
00000000
10000000
00000000
,
00100000
00000000
00000000
01000000
00000000
00000000
00001000
00000000
,
00010000
00000000
00000000
00001000
00000000
00000000
00010000
00000000
,
00000100
00000000
00000000
00000010
00000000
00000000
00000001
00000000
,
00000100
00000000
00000000
00000010
00000000
00000000
00010000
00000000
,
00001000
00000000
00000000
01000000
00000000
00000000
00010000
00000000
,
10000000
00000000
00000000
01000000
00000000
00000000
00100000
00000000
,
00110000
00000000
01010000
00000000
,
10100000
00000000
01001000
01000000
,
00001000
00000000
00011000
00000000
,
00001010
00000000
00000101
00000001
,
00000100
00000000
00001010
00000000
,
00010100
00000000
00011000
00001000
,
01000000
00000000
01010000
00000000
,
11000000
00000000
10010000
10000000
,
01000000
00000000
01100000
00000000
,
00110000
00000000
00101000
00100000
,
00001000
00000000
00010100
00000000
,
00001100
00000000
00000101
00000001
,
00001000
00000000
00001010
00000000
,
00010100
00000000
00011000
00001000
,
01000000
00000000
00000000
01010000
00000000
00000000
10000000
00000000
,
01000000
00010000
00001000
00000100
,
00000002
00000000
00000203
00000000
,
00000310
00010000
00001000
01000000
,
00200000
00000000
20300000
00000000
,
31000000
00010000
01000000
10000000
,
00020000
00000000
00230000
00000000
,
00301000
00010000
00001000
00000100
,
00000002
00000000
00000023
00000000
,
00000130
00001000
00000100
00010000
00001000
00010000
00000100
00000000
00000000
00010000
00000000
00000000
,
00001000
00001000
00000000
01000000
,
00010000
00100000
01000000
00100000
,
00010000
00010000
10000000
01000000
,
00010000
00000000
00001000
00000000
00010000
00000000
00100000
10000000
,
00000000
10000000
01000000
00000000
01000000
00010000
00000000
00010000
,
00001000
00000000
00000100
00000000
00000001
00000010
00000000
00000100
,
00000000
00001000
00000000
00000000
00001100
00000100
00000000
00010000
,
00000000
00100000
00000000
01000000
00100000
00000000
10000000
00000000
,
01000000
00000000
00100000
00000000
00001000
00010000
00000000
00001000
,
00000000
00000100
00000001
00000000
00001000
00000100
00000000
00000010
,
00000000
00000100
00000000
00010000
00000000
00001000
01000000
00000000
,
10000000
01000000
00200000
00000000
,
00000000
00320000
00000000
00000000
,
00032000
00000000
00003200
00000000
,
00000000
00000302
00000000
00000000
,
00000013
00000000
00000200
00000000
,
00000000
00020300
00000000
00000000
,
00230000
00000000
00320000
00000000
,
00000000
00032000
00000000
00000000
,
01003000
00000000
00010000
00000000
,
10000000
00000000
11000000
00000000
,
01000000
00000000
00100000
00000000
,
00001000
00000000
00011000
00000000
,
00010000
00000000
00000010
00000000
,
00001000
00000000
00001001
00000000
,
00000100
00000000
00000000
00000000
00010100
00000000
00000000
00010000
,
00000000
00000000
00011000
00000000
00000000
00001000
00000000
00000000
,
01001000
00001000
01000000
00000000
,
00100000
01000000
00000000
00010000
00000000
10000000
00000000
01000000
,
00000000
00010000
00000000
00001000
00010000
00000000
00000000
00000000
,
00001000
00000100
00000000
00000001
00000000
00000010
00000000
00000100
,
00000000
00000010
00000000
00000001
00001000
00000000
00000000
00000000
,
00000100
00010000
00000000
00001000
00000000
01000000
00000000
00100000
,
00000000
01000000
00000000
00010000
00100000
00000000
00000000
00000000
,
01000000
10000000
00000000
01000000
00000000
00010000
00000000
01000000
,
00000000
00100000
00000000
00001000
00010000
00000000
00000000
00000000
,
00000100
00000010
00000000
00000100
00000000
00001000
00000000
00000010
,
00000000
00000100
00000000
00001000
00010000
00000000
00000000
00000000
,
01000000
00100000
00000000
00010000
00000000
01000000
00000000
10000000
,
00000000
01000000
00000000
00100000
10000000
00000000
00000000
00000000
,
01000000
00100000
00000000
00001000
00000000
00010000
00000000
00001000
,
00000000
00000100
00000000
00000001
00000010
00000000
00000100
00000000
,
00010000
00001000
00010000
00001000
01000000
00000000
00010000
00000000
,
10000000
01000000
10000000
00000000
00010000
00000000
01000000
00000000
,
00001000
00010000
00001000
00000000
00010000
00000000
00000100
00000000
,
00000010
00000001
00000010
00000000
00000100
00000000
00001000
00000000
,
00000100
00010000
00000100
00000000
00001000
00000000
00100000
00000000
,
01000000
00010000
01000000
00000000
00100000
00000000
10000000
00000000
,
01000000
00100000
01000000
00000000
10000000
00000000
00010000
00000000
,
01000000
00001000
01000000
00000000
00001000
00000000
00010000
00000000
,
00000010
00001000
00000010
00000000
00020000
00000000
00032000
00000000
,
02003000
23000000
32000000
03020000
,
00230000
00302000
00023000
00030200
,
00000320
00000230
00000302
00000203
,
00000320
00000230
00020300
00032000
,
02003000
03200000
02300000
23000000
,
32000000
03020000
00230000
00302000
,
00023000
00030200
00000320
00000032
,
00000203
00000320
00001030
00000100
,
00010000
00001000
00010000
00000000
01000000
00000000
00100000
00000000
,
00010000
10000000
00010000
00000000
10000000
00000000
00100000
00000000
,
01000000
00010000
01000000
00000000
00001000
00000000
00010000
00000000
,
00000100
00001000
00000100
00000000
00000010
00000000
00000001
00000000
,
00001000
00000010
00001000
00000000
00000100
00000000
00010000
00000000
,
00001000
00010000
00001000
00000000
01000000
00000000
00010000
00000000
,
10000000
00100000
10000000
00000000
01000000
00000000
00100000
00000000
,
00010000
10000000
00010000
00000000
10000000
00100000
10000000
00000000
,
00010000
01000000
00010000
00000000
00100000
00001000
00100000
00000000
,
00001000
00010000
00001000
00000000
00000100
00000010
00000100
00000000
,
00000001
00000100
00000001
00000000
00000010
00000100
00000010
00000000
,
00000100
00010000
00000100
00000000
00010000
00001000
00010000
00000000
,
00001000
00100000
00001000
00000000
01000000
00010000
01000000
00000000
,
00100000
10000000
00100000
00000000
01000000
00100000
10000000
00000000
,
01000000
00100000
00010000
00000000
00100000
00001000
00010000
00000000
,
00000100
00001000
00000100
00000010
00000000
00000000
00000000
00000000
,
00000220
00000000
00000000
00000000
,
00000000
00000000
00000000
00000000
,
00000000
00000000
00000000
00000000
,
00000330
00000000
00000000
00000000
;

//---------------dance-single - Kekkle-BSP----------------
#NOTES:
     dance-single:
     Kekkle:
     Easy:
     9:
     0.359503,0.528469,0.233011,0.251652,0,270,245,25,27,0,0,0.359503,0.528469,0.233011,0.251652,0,270,245,25,27,0,0:
// measure 0
0000
0000
0000
0000
,  // measure 1
0000
0000
0000
0000
,  // measure 2
0000
0000
0000
0000
,  // measure 3
0000
0000
0000
0000
,  // measure 4
0000
0000
0000
0000
,  // measure 5
0000
0000
0000
0000
,  // measure 6
0000
0000
0000
0000
,  // measure 7
0000
0000
0000
0000
,  // measure 8
1000
0000
0001
0000
,  // measure 9
1000
0000
0010
1000
,  // measure 10
0010
0000
0100
0000
,  // measure 11
0001
0000
0100
0010
,  // measure 12
0100
0000
0010
0000
,  // measure 13
1000
0000
0001
0010
,  // measure 14
0001
0000
1000
0000
,  // measure 15
0100
0000
1000
0001
,  // measure 16
1000
0000
0010
0000
,  // measure 17
1000
0000
0010
1000
,  // measure 18
0010
0000
0100
0000
,  // measure 19
0010
0000
0100
0001
,  // measure 20
0100
0000
0001
0000
,  // measure 21
0010
0000
0001
0010
,  // measure 22
0001
0000
1000
0000
,  // measure 23
0010
0000
0100
0000
,  // measure 24
0110
0000
0100
0000
,  // measure 25
0001
0000
0010
0000
,  // measure 26
0011
0000
0001
0000
,  // measure 27
1000
0000
0010
0000
,  // measure 28
1010
0000
1000
0000
,  // measure 29
0010
0000
0100
0000
,  // measure 30
0110
0000
0010
0000
,  // measure 31
1000
0000
0001
0000
,  // measure 32
1001
0000
1000
0000
,  // measure 33
0100
0000
0010
0000
,  // measure 34
0011
0000
0001
0000
,  // measure 35
0100
0000
0010
0000
,  // measure 36
1010
0000
1000
0000
,  // measure 37
0100
0000
0010
0000
,  // measure 38
0001
0000
1001
0000
,  // measure 39
2000
0000
3002
0000
,  // measure 40
0103
0000
0100
0000
,  // measure 41
0010
0000
1000
0000
,  // measure 42
0001
0000
0001
0000
,  // measure 43
0010
0000
1000
0000
,  // measure 44
0010
0000
0010
0000
,  // measure 45
0100
0000
1000
0000
,  // measure 46
0001
0000
0001
0000
,  // measure 47
2000
0000
3010
0000
,  // measure 48
1000
0000
0001
0000
,  // measure 49
0010
0000
0100
0000
,  // measure 50
0010
0010
0001
0000
,  // measure 51
1000
0000
0010
0010
,  // measure 52
0000
0100
0000
0000
0001
0000
0000
1000
,  // measure 53
0000
0000
0000
0000
0000
0001
0000
0000
,  // measure 54
0000
1000
0000
0000
0010
0100
0000
0000
,  // measure 55
0000
0001
0000
0020
0000
0000
0030
0000
,  // measure 56
0000
0100
0000
1000
,  // measure 57
0000
0001
0000
0000
0100
0000
0000
0010
,  // measure 58
0000
1000
0000
0010
0000
1000
0100
0000
,  // measure 59
0000
0010
0002
0000
,  // measure 60
0000
0000
0000
0000
,  // measure 61
0003
0000
2000
0000
,  // measure 62
0000
0000
0000
0000
,  // measure 63
3000
0000
0020
0000
,  // measure 64
0000
0000
0000
0000
,  // measure 65
0030
0000
0200
0000
,  // measure 66
0000
0000
0000
0000
,  // measure 67
0300
0000
0001
0000
,  // measure 68
0001
0000
0001
0000
,  // measure 69
0001
0000
1000
0000
,  // measure 70
1000
0000
1000
0000
,  // measure 71
1000
0000
0010
0000
,  // measure 72
0010
0000
0010
0000
,  // measure 73
0010
0000
0100
0000
,  // measure 74
0100
0000
0100
0000
,  // measure 75
0100
0000
0110
0000
,  // measure 76
1001
0000
0110
0000
,  // measure 77
0010
0000
1000
0000
,  // measure 78
0100
0000
0010
0000
,  // measure 79
0001
0000
0011
0000
,  // measure 80
1001
0000
0011
0000
,  // measure 81
0001
0000
1000
0000
,  // measure 82
0010
0000
1000
0000
,  // measure 83
0100
0000
1100
0000
,  // measure 84
1001
0000
1100
0000
,  // measure 85
0100
0000
0010
0000
,  // measure 86
0001
0000
0100
0000
,  // measure 87
0010
0000
1010
0000
,  // measure 88
0110
0000
1010
0000
,  // measure 89
0010
0000
0100
0000
,  // measure 90
0001
1000
0001
0000
2000
0000
0000
0000
,  // measure 91
3010
0000
0200
0000
,  // measure 92
0301
0000
0020
0000
,  // measure 93
0130
0000
2000
0000
,  // measure 94
3001
0000
0200
0000
,  // measure 95
0310
0000
2000
0000
,  // measure 96
3100
0000
0020
0000
,  // measure 97
0031
0000
2000
0000
,  // measure 98
3010
0000
0100
0000
,  // measure 99
0001
0000
0100
0000
,  // measure 100
0101
0000
0001
0000
,  // measure 101
1000
0000
0001
0000
,  // measure 102
1001
0000
1000
0000
,  // measure 103
0100
0000
1000
0000
,  // measure 104
1100
0000
1000
0000
,  // measure 105
0010
0000
1000
0000
,  // measure 106
1010
0000
2000
0000
,  // measure 107
3010
0000
0200
0000
,  // measure 108
0310
0000
2000
0000
,  // measure 109
3001
0000
0020
0000
,  // measure 110
0031
0000
0020
0000
,  // measure 111
0130
0000
2000
0000
,  // measure 112
3010
0000
0200
0000
,  // measure 113
0301
0000
0200
0000
,  // measure 114
0310
0000
1000
0010
,  // measure 115
1000
0000
0010
0100
,  // measure 116
0010
0000
0100
0001
,  // measure 117
0100
0000
0001
0010
,  // measure 118
0001
0000
1000
0001
,  // measure 119
1000
0001
0100
0010
,  // measure 120
0100
0010
1000
0010
,  // measure 121
1000
0010
0100
0001
,  // measure 122
0100
0002
0000
0003
,  // measure 123
2002
0000
0000
0000
,  // measure 124
0000
0000
0000
0000
,  // measure 125
0000
0000
0000
0000
,  // measure 126
3003
0000
0000
0000
;

//---------------dance-double - Kekkle-BDP----------------
#NOTES:
     dance-double:
     Kekkle:
     Easy:
     10:
     0.375481,0.587188,0.363497,0.233011,0,282,243,39,25,0,0,0.375481,0.587188,0.363497,0.233011,0,282,243,39,25,0,0:
00000000
00000000
00000000
00000000
,
00000000
00000000
00000000
00000000
,
00000000
00000000
00000000
00000000
,
00000000
00000000
00000000
00000000
,
00000000
00000000
00000000
00000000
,
00000000
00000000
00000000
00000000
,
00000000
00000000
00000000
00000000
,
00000000
00000000
00000000
00000000
,
10000000
00000000
00010000
00000000
,
10000000
00000000
00010000
01000000
,
00010000
00000000
01000000
00000000
,
00001000
00000000
00010000
00001000
,
00010000
00000000
00000100
00000000
,
00000010
00000000
00000001
00001000
,
00000001
00000000
00000100
00000000
,
00000010
00000000
00010000
00000100
,
00010000
00000000
00001000
00000000
,
01000000
00000000
00010000
00100000
,
00010000
00000000
10000000
00000000
,
01000000
00000000
00100000
00010000
,
00100000
00000000
00001000
00000000
,
00010000
00000000
00000100
00001000
,
00000100
00000000
00000010
00000000
,
00000001
00000000
00001000
00000000
,
00001001
00000000
00000001
00000000
,
00000100
00000000
00000010
00000000
,
00010010
00000000
00010000
00000000
,
00001000
00000000
00100000
00000000
,
00110000
00000000
00010000
00000000
,
10000000
00000000
01000000
00000000
,
01100000
00000000
00100000
00000000
,
00010000
00000000
01000000
00000000
,
01001000
00000000
00001000
00000000
,
00010000
00000000
00000100
00000000
,
00001100
00000000
00001000
00000000
,
00000001
00000000
00000100
00000000
,
00000110
00000000
00000010
00000000
,
00010000
00000000
00001000
00000000
,
00010000
00000000
00011000
00000000
,
00001000
01000000
00001000
01000000
,
00010000
00000000
10010000
00000000
,
10000000
00000000
10010000
00000000
,
01000000
00000000
01001000
00000000
,
00001000
00000000
01001000
00000000
,
00010000
00000000
00010100
00000000
,
00000100
00000000
00010100
00000000
,
00001000
00000000
00001001
00000000
,
00000002
00000000
00001003
00000000
,
00000010
00000000
00001000
00000000
,
00000100
00000000
00010000
00000000
,
00001000
00010000
01000000
00000000
,
00100000
00000000
00010000
10000000
,
00000000
00100000
00000000
00000000
01000000
00000000
00000000
00010000
,
00000000
00000000
00000000
00000000
00000000
00100000
00000000
00000000
,
00000000
00001000
00000000
00000000
00010000
00000100
00000000
00000000
,
00000000
00001000
00000000
00000002
00000000
00000000
00000003
00000000
,
00000000
00000000
00000100
00000000
00000000
00000010
00000000
00000000
,
00000000
00010000
00000000
00000000
00001000
00000000
00000000
01000000
,
00000000
00010000
00000000
01000000
00000000
00010000
10000000
00000000
,
00000000
01000000
00200000
00000000
,
00000000
00000000
00000000
00000000
,
00300000
00000000
00002000
00000000
,
00000000
00000000
00000000
00000000
,
00003000
00000000
00020000
00000000
,
00000000
00000000
00000000
00000000
,
00030000
00000000
00000200
00000000
,
00000000
00000000
00000000
00000000
,
00000300
00000000
00000010
00000000
,
00000001
00000000
00000011
00000000
,
00000001
00000000
00001000
00000000
,
00000100
00000000
00010100
00000000
,
00010000
00000000
00001000
00000000
,
01000000
00000000
01010000
00000000
,
00010000
00000000
10000000
00000000
,
01000000
00000000
00010000
00000000
,
00001000
00000000
00011000
00000000
,
00010100
00000000
00011000
00000000
,
00010000
00000000
00000010
00000000
,
00000100
00000000
00000001
00000000
,
00000010
00000000
00000110
00000000
,
00001100
00000000
00000110
00000000
,
00000100
00000000
00010000
00000000
,
00100000
00000000
00010000
00000000
,
00001000
00000000
00011000
00000000
,
01001000
00000000
00011000
00000000
,
00001000
00000000
01000000
00000000
,
00100000
00000000
10000000
00000000
,
01000000
00000000
01100000
00000000
,
11000000
00000000
01100000
00000000
,
00100000
00000000
00001000
00000000
,
00010000
00001000
00010000
00000000
00002000
00000000
00000000
00000000
,
00003100
00000000
00000002
00000000
,
00000103
00000000
00000020
00000000
,
00001030
00000000
00000200
00000000
,
00010300
00000000
00002000
00000000
,
00103000
00000000
02000000
00000000
,
03100000
00000000
00020000
00000000
,
10030000
00000000
00200000
00000000
,
10300000
00000000
01000000
00000000
,
00010000
00000000
00001000
00000000
,
00000010
00000000
00001000
00000000
,
00010000
00000000
01000000
00000000
,
00010000
00000000
00001000
00000000
,
00000100
00000000
00001000
00000000
,
00010000
00000000
00100000
00000000
,
00010000
00000000
00001000
00000000
,
00000100
00000000
00000002
00000000
,
00000013
00000000
00000200
00000000
,
00001300
00000000
00000200
00000000
,
00010300
00000000
00002000
00000000
,
01003000
00000000
00020000
00000000
,
00130000
00000000
02000000
00000000
,
13000000
00000000
00020000
00000000
,
01030000
00000000
00002000
00000000
,
00013000
00000000
00010100
00000000
,
00010100
00000000
00001100
00000000
,
00001100
00000000
00000101
00000000
,
00000101
00000000
00000011
00000000
,
00000011
00000000
00000001
00000100
,
00000001
00000100
00001000
00010000
,
00001000
00010000
01000000
10000000
,
01000000
10000000
00010000
01000000
,
00010000
02000000
00000000
03000000
,
02002000
00000000
00000000
00000000
,
00000000
00000000
00000000
00000000
,
00000000
00000000
00000000
00000000
,
03003000
00000000
00000000
00000000
;

//---------------dance-single - Kekkle-bSP----------------
#NOTES:
     dance-single:
     Kekkle:
     Beginner:
     4:
     0.173094,0.286604,0.195729,0.251652,0,130,109,21,27,0,0,0.173094,0.286604,0.195729,0.251652,0,130,109,21,27,0,0:
0000
0000
0000
0000
,
0000
0000
0000
0000
,
0000
0000
0000
0000
,
0000
0000
0000
0000
,
0000
0000
0000
0000
,
0000
0000
0000
0000
,
0000
0000
0000
0000
,
0000
0000
0000
0000
,
1000
0000
0000
0000
,
0001
0000
0000
0000
,
0100
0000
0000
0000
,
0010
0000
0000
0000
,
1000
0000
0000
0000
,
0100
0000
0000
0000
,
0001
0000
0000
0000
,
0100
0000
0000
0000
,
0010
0000
0000
0000
,
0001
0000
0000
0000
,
0100
0000
0000
0000
,
0010
0000
0000
0000
,
1000
0000
0000
0000
,
0010
0000
0000
0000
,
0001
0000
0000
0000
,
0010
0000
0000
0000
,
0110
0000
0000
0000
,
0100
0000
0000
0000
,
0001
0000
0000
0000
,
0100
0000
0000
0000
,
0110
0000
0000
0000
,
0010
0000
0000
0000
,
1000
0000
0000
0000
,
0010
0000
0000
0000
,
0110
0000
0000
0000
,
0100
0000
0000
0000
,
0001
0000
0000
0000
,
0010
0000
0000
0000
,
0011
0000
0000
0000
,
0001
0000
0000
0000
,
2000
0000
0000
0000
,
3002
0000
0000
0000
,
0103
0000
0000
0000
,
0101
0000
0000
0000
,
0001
0000
0000
0000
,
1001
0000
0000
0000
,
1000
0000
0000
0000
,
1100
0000
0000
0000
,
0100
0000
0000
0000
,
0200
0000
0310
0000
,
0000
0000
0001
0000
,
0000
0000
1000
0000
,
0000
0000
0000
0000
,
0200
0000
0000
0000
,
0000
0000
0000
0000
,
0300
0000
0000
0000
0000
0010
0000
0000
,
0000
0000
0001
0000
,
0000
2000
0000
0000
0000
0000
3000
0000
,
0000
0010
0000
0000
,
0000
0200
0000
0000
0000
0000
0300
0000
,
0000
0001
0000
0000
0000
1000
0000
0000
,
0000
0000
0020
0000
,
0000
0000
0000
0000
,
0000
0000
0000
0000
,
0000
0000
0000
0000
,
0030
0000
0200
0000
,
0000
0000
0000
0000
,
0000
0000
0000
0000
,
0000
0000
0000
0000
,
0300
0000
0001
0000
,
0000
0000
1001
0000
,
0000
0000
1000
0000
,
0000
0000
1001
0000
,
0000
0000
0001
0000
,
0000
0000
0101
0000
,
0000
0000
0100
0000
,
0000
0000
0110
0000
,
0000
0000
0010
0000
,
0000
0000
0010
0000
,
0000
0000
1000
0000
,
0000
0000
1000
0000
,
0000
0000
0100
0000
,
0000
0000
0100
0000
,
0000
0000
0010
0000
,
0000
0000
0110
0000
,
0000
0000
0100
0000
,
0000
0000
1000
0000
,
0000
0000
0100
0000
,
0000
0000
0010
0000
,
0000
0000
0001
0000
,
0000
0000
0100
0000
,
0000
0000
0020
0000
,
0000
0000
2030
0000
,
3000
0000
0002
0000
,
0003
0000
2000
0000
,
3000
0000
0020
0000
,
0030
0000
0200
0000
,
0300
0000
0002
0000
,
0003
0000
0200
0000
,
0300
0000
0020
0000
,
0030
0000
0100
0000
,
0000
0000
1001
0000
,
0000
0000
0010
0000
,
0000
0000
1001
0000
,
0000
0000
0100
0000
,
0000
0000
1001
0000
,
0000
0000
0010
0000
,
0000
0000
1001
0000
,
0000
0000
0002
0000
,
0003
0000
0200
0000
,
0300
0000
2000
0000
,
3000
0000
0200
0000
,
0300
0000
0002
0000
,
0003
0000
0020
0000
,
0030
0000
2000
0000
,
3000
0000
0020
0000
,
0030
0000
0001
0000
,
0000
0000
0110
0000
,
0000
0000
1000
0000
,
0000
0000
0110
0000
,
0000
0000
0001
0000
,
0000
0000
0101
0000
,
0000
0000
1000
0000
,
0000
0000
2200
0000
,
3300
0000
0000
0000
,
1001
0000
0000
0000
;
