#TITLE:it's Over;
#ARTIST:KOTONOHOUSE;
#BANNER:it's Over.png;
#BACKGROUND:it's Over-bg.png;
#MUSIC:it's Over.ogg;
#OFFSET:0.013;
#SAMPLESTART:99.294;
#SAMPLELENGTH:15;
#BPMS:0=174,280=87,282=174;
#STOPS:130=0.172,137.5=0.172,145=0.172,152.5=0.172,160=0.172,167.5=0.172,175=0.172,182.5=0.172;

//---------------dance-single - Marten-ESP----------------
#NOTES:
     dance-single:
     Marten:
     Hard:
     15:
     0.730664,0.943414,0.385298,0.430627,0.328637,677,626,51,57,0,0,0.730664,0.943414,0.385298,0.430627,0.328637,677,626,51,57,0,0:
// measure 0
0000
0000
0000
0000
,  // measure 1
0000
0000
0000
0000
,  // measure 2
0000
0000
0000
0000
,  // measure 3
0000
0000
0000
0000
,  // measure 4
0001
0100
0001
1000
0000
0100
1000
0001
,  // measure 5
0010
0010
0000
1000
0010
0001
1000
0001
,  // measure 6
0100
0100
0010
0010
1000
0100
0001
0100
,  // measure 7
2000
0000
0000
3000
,  // measure 8
0001
0000
0000
0100
0001
0000
0010
0000
0100
0000
1000
0000
1000
0000
0000
0000
,  // measure 9
0010
0000
0000
1000
0010
0000
0100
0000
0001
1000
0001
0000
1000
0010
0100
0001
,  // measure 10
1000
0000
0000
0100
1000
0000
0001
0000
0010
0000
0100
0000
0010
0001
0010
0000
,  // measure 11
0100
0000
0000
1000
0010
0000
0100
0001
0100
0000
0010
0000
1000
0100
0000
0000
,  // measure 12
1000
0010
0001
0010
1000
0010
0001
0010
,  // measure 13
1000
0100
0001
0100
1000
0100
0001
0100
,  // measure 14
1000
0100
1000
0010
1000
0001
0100
0001
0010
0100
1000
0001
0100
0001
1000
0010
,  // measure 15
0100
0000
0000
0001
0100
0000
0001
0010
0100
0000
1000
0000
1001
0000
0000
0000
,  // measure 16
1020
0000
0000
0000
0130
0001
0100
0001
0200
0000
0000
0000
0302
0000
0000
0000
,  // measure 17
0013
0100
0010
0100
0010
0000
0100
1000
0100
0000
1000
0010
1000
0000
0000
0000
,  // measure 18
0002
0000
2003
0000
3020
0000
0130
0001
,  // measure 19
1000
0100
1000
0100
1000
0000
0001
0000
0100
0000
0010
0000
0110
0000
0000
0000
,  // measure 20
1010
0000
0000
0010
0000
0000
0010
0000
1000
0010
0000
0010
0000
0000
0000
0000
,  // measure 21
0110
0000
0000
0010
0000
0000
0010
0000
0100
0010
0000
0010
0000
0000
0000
0000
,  // measure 22
0011
0000
0000
0010
0000
0000
0010
0000
0001
0010
0000
0010
0000
0000
0000
0000
,  // measure 23
1000
0000
0100
0010
0001
0000
0100
0010
1000
0000
0001
1000
0100
0000
0010
0000
,  // measure 24
0021
0000
0000
0000
0130
1000
0100
1000
0200
0000
0000
0000
2300
0000
0000
0000
,  // measure 25
3010
0100
0010
0100
0010
0000
0100
0001
0100
0000
0001
0010
0001
0000
0000
0000
,  // measure 26
2000
0000
3002
0000
0023
0000
0130
1000
,  // measure 27
0001
0100
0001
0100
0001
0000
1000
0000
0100
0000
0010
0000
0110
0000
0000
0000
,  // measure 28
0011
0000
0000
0010
0000
0000
0010
0000
0001
0010
0000
0010
0000
0000
0000
0000
,  // measure 29
0110
0000
0000
0010
0000
0000
0010
0000
0100
0010
0000
0010
0000
0000
0000
0000
,  // measure 30
1010
0000
0000
0010
0000
0000
0010
0000
1000
0010
0000
0010
0000
0000
0000
0000
,  // measure 31
0001
0000
1000
0100
2000
0000
0000
0000
0000
0000
0000
0000
3010
0000
0000
0000
,  // measure 32
1100
0100
0001
0100
1000
0101
0100
1000
,  // measure 33
0100
0001
0010
0100
1000
0010
0001
0010
,  // measure 34
1000
0001
0010
0100
1100
0100
0001
0100
,  // measure 35
1000
0010
0200
0000
0301
0000
0011
0010
,  // measure 36
1000
0010
0001
1010
0010
0001
0010
1000
,  // measure 37
0001
1000
0100
0010
1000
0010
0001
0100
,  // measure 38
0001
1000
0011
0010
1000
0010
0001
1000
,  // measure 39
0010
0100
0010
0100
0002
0000
0003
0000
0101
0000
0100
0000
1000
0000
0100
0000
,  // measure 40
0101
1100
0100
0001
0100
1000
0010
0001
,  // measure 41
0010
0100
0001
0010
1000
0010
0001
0101
,  // measure 42
1100
0100
0001
0100
1000
0010
0200
0000
,  // measure 43
0301
0000
0011
0010
1000
0010
0011
1010
,  // measure 44
0010
0001
0010
1000
0100
0001
0100
1000
,  // measure 45
0010
0100
1000
0100
0010
1010
0011
0010
,  // measure 46
1000
0000
0010
0000
0001
0000
1000
0000
0010
1000
0001
0010
0100
0000
0000
0000
,  // measure 47
2000
0000
0000
0000
0000
0000
0000
3002
,  // measure 48
0000
0000
0000
0000
,  // measure 49
0203
0000
0000
0000
0000
0000
0000
0320
,  // measure 50
0000
0000
0000
0000
,  // measure 51
1030
0100
0010
0001
0000
1000
0010
0001
,  // measure 52
0010
1000
0000
0001
0100
1000
0100
0001
,  // measure 53
1000
0100
0010
0100
0001
0100
1000
0001
,  // measure 54
0200
0000
0000
0300
,  // measure 55
1001
0000
0010
0000
0101
0001
1000
0100
,  // measure 56
1000
1000
0001
0010
0100
0100
0100
0000
,  // measure 57
1100
0000
1000
0010
0100
0100
0001
0100
,  // measure 58
1000
0100
0001
0010
0100
1000
0001
0000
,  // measure 59
0001
0010
1000
0010
0001
0010
1000
0010
,  // measure 60
0001
0100
1000
0100
0001
0100
1000
0100
,  // measure 61
0001
0100
0001
0010
0001
1000
0100
1000
0010
0100
0001
1000
0100
1000
0001
0010
,  // measure 62
0200
0000
0000
1300
,  // measure 63
0001
0100
0010
0001
0000
0000
1000
0100
,  // measure 64
0010
1000
0000
0000
0001
0000
0110
0000
,  // measure 65
2001
0000
3100
0000
0021
0000
0130
1001
,  // measure 66
0000
1001
0001
0100
0110
0100
0001
1000
,  // measure 67
0200
0000
0310
0000
0021
0000
0130
1100
,  // measure 68
0000
1010
0100
0000
1001
0001
0101
0100
,  // measure 69
0201
0000
0301
0000
1200
0000
1300
0002
,  // measure 70
2003
3200
0320
0032
2003
3020
0230
0302
1003
0000
0100
0000
1100
0000
1000
0000
,  // measure 71
0001
0100
0101
0100
0001
0020
0001
0130
,  // measure 72
1000
0010
0001
0010
1000
0001
0011
0001
,  // measure 73
1000
0010
1010
0010
1000
0200
1000
0310
,  // measure 74
0001
0100
1000
0100
0002
0100
2003
0010
,  // measure 75
3002
0100
2003
3200
1000
0320
0001
0230
,  // measure 76
1000
0320
0032
1000
0203
0001
0320
1000
,  // measure 77
0230
0000
0001
0000
0320
0000
1030
0000
0001
0000
1000
0100
0010
0100
1000
0000
,  // measure 78
0001
0000
0100
0001
0010
0100
1000
0001
0100
0000
0001
0000
0011
0000
0100
0000
,  // measure 79
1000
0010
1010
0100
0001
2000
0010
3002
,  // measure 80
0010
1003
0100
0001
0100
1000
1010
0100
,  // measure 81
0001
0010
0011
0100
1000
0001
0100
1000
,  // measure 82
0001
0010
1000
0001
1000
1000
0001
0001
,  // measure 83
0010
0010
0100
0100
1000
1000
0010
0010
,  // measure 84
0001
0000
0001
0000
0010
0000
0010
0000
1000
0100
0010
0001
0100
0010
1000
0100
,  // measure 85
0010
0001
0100
0010
1000
0100
0010
0001
2000
0000
0000
0000
0000
0000
0000
0000
,  // measure 86
0000
0000
3001
0100
,  // measure 87
0001
0010
1000
0001
0000
1000
0000
0001
,  // measure 88
0100
1000
0001
0100
1000
0000
0001
0000
,  // measure 89
1000
0100
0001
1000
0000
0010
0000
0001
,  // measure 90
0010
1000
0001
0010
0200
0000
0000
0000
,  // measure 91
0000
0000
0000
0000
,  // measure 92
0000
0000
0300
0000
;

//---------------dance-single - Marten-DSP----------------
#NOTES:
     dance-single:
     Marten:
     Medium:
     12:
     0.595755,0.733766,0.181317,0.377743,0.105768,552,528,24,50,0,0,0.595755,0.733766,0.181317,0.377743,0.105768,552,528,24,50,0,0:
0000
0000
0000
0000
,
0000
0000
0000
0000
,
0000
0000
0000
0000
,
0000
0000
0000
0000
,
1000
0100
0010
0001
0000
0100
0001
1000
,
0100
0100
0000
0010
0001
0010
0100
1000
,
0001
0100
0001
0010
0100
0000
1000
0010
,
2000
0000
0000
3000
,
0001
0000
0000
0100
0001
0000
1000
0000
0100
0000
0000
0000
1000
0000
0001
0000
,
0010
0001
0100
1000
0100
0001
0010
0000
,
0001
0000
0000
1000
0010
0000
1000
0000
0100
0000
0000
0010
0100
0000
1000
0000
,
0001
0000
0000
0100
0001
0000
1000
0000
0100
0000
1000
0000
0001
0000
0000
0000
,
1000
0010
1000
0010
0100
0010
0100
0010
,
0100
0001
0100
0001
1000
0001
1000
0001
,
1000
0100
0001
0100
1000
0010
0001
0010
,
1000
0000
0000
0001
1000
0000
0000
0010
0100
0000
0001
0000
1001
0000
0000
0000
,
2010
0000
3001
0010
0200
0000
2300
0000
,
3001
0100
1000
0100
0001
1000
0100
0000
,
0020
0000
0032
0000
2003
0000
3001
0100
,
0001
0001
0010
0100
0010
0001
1001
0000
,
1000
0000
0000
0010
0000
0000
0010
0000
1000
0010
0000
0010
0000
0000
0000
0000
,
0100
0000
0000
0010
0000
0000
0010
0000
0100
0010
0000
0010
0000
0000
0000
0000
,
0001
0000
0000
0010
0000
0000
0010
0000
0001
0010
0000
0010
0000
0000
0000
0000
,
2000
3200
0320
0031
,
0012
0000
1003
0010
0200
0000
0302
0000
,
1003
0100
0001
0100
1000
0001
0100
0000
,
0020
0000
2030
0000
3002
0000
1003
0100
,
1000
1000
0010
0100
0010
1000
1001
0000
,
0001
0000
0000
0010
0000
0000
0010
0000
0001
0010
0000
0010
0000
0000
0000
0000
,
0100
0000
0000
0010
0000
0000
0010
0000
0100
0010
0000
0010
0000
0000
0000
0000
,
1000
0000
0000
0010
0000
0000
0010
0000
1000
0010
0000
0010
0000
0000
0000
0000
,
0001
0100
0001
0002
0000
0000
0013
0000
,
0001
0010
0100
0000
1001
1000
0100
1000
,
0010
0100
0000
0001
0100
1000
0100
0001
,
0000
0010
0000
1001
1000
0100
1000
0001
,
0100
0000
0020
0000
0030
0000
1000
0010
,
0100
0000
1001
0001
0100
0001
0010
0100
,
0000
1000
0100
0001
0100
1000
0000
0010
,
0000
1001
0001
0100
0001
1000
0100
0000
,
0010
0100
0110
0000
1000
0010
0100
0001
,
0101
0001
1000
0100
1000
0001
0010
0100
,
0010
0001
1000
0010
0000
0100
0001
0101
,
0001
1000
0100
1000
0001
0010
0200
0000
,
0300
0000
1000
0010
0100
0010
1010
1000
,
0001
0100
0001
0010
0100
1000
0001
0100
,
0001
1000
0000
0100
0010
0011
0001
1000
,
0010
1000
0001
0010
0200
0000
0300
0000
,
2000
0000
0000
0000
0000
0000
0000
3002
,
0000
0000
0000
0000
,
0203
0000
0000
0000
0000
0000
0000
0320
,
0000
0000
0000
0000
,
1030
0001
0100
0001
0000
1000
0001
0100
,
0001
1000
0000
0100
1000
0001
1000
0000
,
0010
1000
0100
0010
0001
0000
0100
0010
,
2000
0000
0000
3000
,
0001
0100
0001
0010
0100
0000
1000
0000
,
0001
0100
0001
1000
0100
0100
0100
0000
,
1000
0010
0100
0010
1000
0000
0001
0010
,
0100
0010
0001
1000
0001
0001
0001
0000
,
0001
0010
0001
0010
0100
0010
0100
0010
,
0100
1000
0100
1000
0001
1000
0001
1000
,
0001
0100
1000
0100
0001
0010
1000
0010
,
0002
0000
0000
0003
,
1000
0100
0010
0001
0000
0000
0001
0100
,
0010
1000
0000
0000
1001
0000
0110
0000
,
2010
0000
3100
0000
0012
0000
1003
0100
,
0000
0100
1200
0000
1300
0010
0100
0001
,
2000
0000
3001
0000
0201
0000
0301
0010
,
0000
0010
0210
0000
1300
0100
0010
0001
,
0020
0000
0031
0000
1002
0000
1003
0001
,
2000
3200
2300
3200
0320
0032
0023
0032
1003
0000
0100
0000
1000
0000
0010
0000
,
0100
0010
1000
0001
1000
0100
0001
0100
,
1000
0001
0100
0000
0001
0100
0001
0010
,
0100
0010
0001
1000
0001
0100
1000
0100
,
0001
1000
0100
0010
0001
0100
0001
0010
,
1000
0010
0001
1000
0100
1000
0001
0100
,
1000
0100
0001
0000
1000
0010
1000
0100
,
0010
0001
1000
0020
0000
0000
0000
0000
,
0000
0000
0130
0000
0001
1000
0100
1000
,
0010
0001
0010
1000
0000
1010
0000
0011
,
0000
0001
0100
0001
1000
0001
0100
0001
,
0010
1000
0010
0001
0000
0010
0100
1000
,
0000
0001
0100
0001
1000
1000
0010
0010
,
0100
0100
0001
0001
0010
0010
0100
0100
,
1000
1000
0001
0001
1000
0100
0001
0100
,
1000
0010
0001
0010
2000
0000
0000
0000
,
0000
0000
3000
0000
0001
0100
0002
0000
,
1003
0100
1000
0002
0000
2003
0000
3010
,
1000
0001
0100
0000
0001
0010
0001
0000
,
1000
0010
1000
0002
0000
2003
0000
3010
,
0100
0001
0010
0100
2000
0000
0000
0000
,
0000
0000
0000
0000
,
0000
0000
3000
0000
;

//---------------dance-single - Marten-BSP----------------
#NOTES:
     dance-single:
     Marten:
     Easy:
     9:
     0.388536,0.489178,0.241756,0.234201,0,360,328,32,31,0,0,0.388536,0.489178,0.241756,0.234201,0,360,328,32,31,0,0:
0000
0000
0000
0000
,
0000
0000
0000
0000
,
0000
0000
0000
0000
,
0000
0000
0000
0000
,
0001
0100
0001
1000
,
0100
0100
1000
0001
,
1000
0010
0100
0001
,
2002
0000
0000
3003
,
0001
0010
0100
0010
,
0001
0000
1000
0000
0010
1000
0010
0000
,
1000
0100
0010
0100
,
1000
0001
1001
1000
,
0001
0100
0001
0000
1000
0000
1000
0000
,
1000
0100
1000
0000
0001
0000
0001
0000
,
1000
0010
0001
0100
,
1000
0001
1001
0110
,
0012
1000
0100
1003
,
0010
0001
0010
1000
,
0002
0100
0100
1003
,
0001
0000
0100
0001
0100
0000
0110
0000
,
1000
0000
0000
1000
0100
0000
0000
0000
,
0100
0000
0000
0100
0010
0000
0000
0000
,
0010
0000
0000
0010
0001
0000
0000
0000
,
0002
0023
0230
1300
,
2010
0001
0100
3001
,
0010
1000
0010
0001
,
2000
0100
0100
3001
,
1000
0000
0100
1000
0100
0000
0110
0000
,
0001
0000
0000
0001
0100
0000
0000
0000
,
0100
0000
0000
0100
0010
0000
0000
0000
,
0010
0000
0000
0010
1000
0000
0000
0000
,
1000
0002
0000
0013
,
0001
0000
0100
0000
1001
0001
0000
1000
,
0000
0010
0000
0100
0000
0100
0000
0001
,
0000
1000
0000
1001
1000
0000
0100
0000
,
0010
0002
0003
1000
,
0010
0000
0110
0100
0000
0001
0000
1000
,
0000
0100
0000
0100
0000
1000
0000
0010
,
0000
0110
0100
0000
0001
0000
1000
0000
,
0002
0003
1000
0010
,
1010
1000
0000
0100
0000
1000
0000
0001
,
0000
0010
0000
0100
0000
0010
0000
0011
,
0001
0100
0010
2000
,
3000
0000
0001
0000
0100
0000
0101
0001
,
0000
1000
0000
0001
0000
0010
0000
0001
,
0000
1000
0000
0100
0000
1100
1000
0000
,
0010
0100
0002
0003
,
2000
0000
0000
0000
0000
0000
0000
3002
,
0000
0000
0000
0000
,
0203
0000
0000
0000
0000
0000
0000
0320
,
0000
0000
0000
0000
,
1030
0001
0100
0001
,
0010
0100
1000
0000
,
0001
1000
0001
0100
,
0220
0000
0000
0330
,
1000
0001
0010
0010
,
0001
1000
0010
0010
,
1000
0001
0100
0100
,
0001
1000
0100
0100
,
1000
0010
1000
0000
0001
0000
0001
0000
,
0001
0010
0001
0000
1000
0000
1000
0000
,
0001
0010
1000
0100
,
2002
0000
0000
3003
,
0001
0001
0000
1000
,
1000
0000
0110
1001
,
0002
0000
0013
0000
0011
0000
0001
1000
,
0000
1000
0000
0001
0100
0000
0001
0000
,
1000
0000
0100
0000
1100
0000
1000
0010
,
0000
0010
0000
0100
0001
0000
1000
0000
,
0001
0010
0110
0100
,
2000
3200
0320
0032
1003
0000
1010
0000
,
0001
0011
0001
1000
,
0100
1000
0100
0000
1000
0000
1100
0000
,
0001
0101
0001
1000
,
0001
0100
0001
0000
1000
0000
0010
0000
,
0001
0010
1000
0001
,
0010
1000
0010
0001
,
1000
0000
0001
2000
0000
0000
0000
0000
,
0000
3010
1000
1100
,
0010
0000
0011
0000
0001
1000
0000
1000
,
0000
0001
1000
0000
0001
0000
0101
0000
,
0010
0000
1010
0000
1000
0000
0001
0001
,
0000
1000
1000
0000
0001
0000
0100
0000
,
0010
1000
0001
0010
,
0100
0000
1000
0000
0001
1000
0001
0000
,
1000
0001
1000
0000
2002
0000
0000
0000
,
0000
3003
0001
0100
,
0010
0000
0000
1000
0000
1000
0000
0001
,
1000
0100
1000
0100
,
0010
0000
0000
0001
0000
0001
0000
1000
,
0001
1000
0020
0000
,
0000
0000
0000
0000
,
0000
0000
0030
0000
;

//---------------dance-single - Marten-bSP----------------
#NOTES:
     dance-single:
     Marten:
     Beginner:
     5:
     0.211536,0.314471,0.098213,0.196427,0,196,183,13,26,0,0,0.211536,0.314471,0.098213,0.196427,0,196,183,13,26,0,0:
0000
0000
0000
0000
,
0000
0000
0000
0000
,
0000
0000
0000
0000
,
0000
0000
0000
0000
,
1000
0000
1000
0000
,
0001
0000
0001
0000
,
1000
0000
0001
0000
,
2002
0000
0000
3003
,
0001
0001
0001
0000
,
1000
1000
1000
0000
,
0010
0010
0010
0000
,
0100
0100
0100
0000
,
0001
0000
1000
0000
,
0100
0000
0010
0000
,
0001
0000
1000
0000
,
0001
1000
1001
0000
,
0001
0000
0100
0000
,
1000
0000
0100
0000
,
0001
0000
1000
0000
,
0010
0010
0010
0000
,
2000
0000
3000
0000
,
0002
0000
0003
0000
,
0200
0000
0300
0000
,
0010
0010
0010
0010
,
1000
0000
0100
0000
,
0001
0000
0100
0000
,
1000
0000
0001
0000
,
0010
0010
0010
0000
,
0002
0000
0003
0000
,
2000
0000
3000
0000
,
0200
0000
0300
0000
,
0010
0020
0000
0030
,
0001
0000
0000
0000
1001
0000
0000
1000
,
0000
0000
0000
0010
0000
0000
0000
0100
,
0000
0000
0000
0110
0000
0000
0100
0000
,
0000
0020
0030
1000
,
0000
0000
1001
0000
0000
0001
0000
0000
,
0000
0010
0000
0000
0000
0100
0000
0000
,
0000
0110
0000
0000
1000
0000
0000
0000
,
1001
0000
0001
0001
,
0001
0000
0000
1000
0000
0000
0000
0010
,
0000
0000
0000
0100
0000
0100
0000
0100
,
0000
0001
0000
2000
,
3000
0100
0100
0100
,
0000
0010
0000
0000
0000
0001
0000
0000
,
0000
1000
0000
1000
0000
1000
0000
0000
,
0001
0000
1001
0000
,
2000
0000
0000
3000
,
0002
0000
0000
0003
,
0200
0000
0000
0300
,
0020
0000
0000
0030
,
1000
0000
1000
0000
,
0001
0000
0001
0000
,
0010
0000
0100
0000
,
0220
0000
0000
0330
,
1000
0000
1000
0000
,
0010
0000
0010
0000
,
0001
0000
0001
0000
,
0100
0000
0100
0000
,
1000
0000
0001
0000
,
1000
0000
0001
0000
,
0100
0000
0010
0000
,
0220
0000
0000
0330
,
2000
3000
0000
0002
,
0003
0000
1000
1001
,
1001
0000
0001
0000
,
1000
1000
1000
0000
,
0001
0000
1000
0000
,
0001
0001
0001
0000
,
0100
0000
0010
0010
,
0020
0030
1000
0000
,
0100
0000
0001
0000
,
0100
0000
1000
0000
,
0010
0000
0001
0000
,
0010
0000
1000
0000
,
0100
0000
0001
0000
,
0010
0000
1000
0000
,
0100
0000
0002
0000
,
0003
0000
0100
0000
,
1000
0000
0001
0001
,
0001
0000
0100
0000
,
1000
0000
0100
0100
,
0100
0000
0010
0000
,
1000
0000
0001
0000
,
0010
0000
0100
0100
,
0010
0010
0220
0000
,
0000
0330
0010
0000
,
0001
0000
1000
0000
,
0010
0000
0100
0000
,
0001
0000
1000
1000
,
0001
0001
2000
0000
,
0000
0000
0000
0000
,
0000
0000
3000
0000
;

//---------------dance-double - RGTM-EDP----------------
#NOTES:
     dance-double:
     RGTM:
     Hard:
     16:
     0.717712,0.943414,0.287085,0.460847,0.332414,665,627,38,61,0,0,0.717712,0.943414,0.287085,0.460847,0.332414,665,627,38,61,0,0:
00000000
00000000
00000000
00000000
,
00000000
00000000
00000000
00000000
,
00000000
00000000
00000000
00000000
,
00000000
00000000
00000000
00000000
,
00010000
00001000
00010000
00000100
00000000
00000010
00000100
00001000
,
00000010
00000010
00000000
00000100
00000010
00001000
00000001
00001000
,
00000100
00000100
00010000
00010000
00001000
00001000
01000000
01000000
,
00200000
00000000
00000000
00300000
,
10100000
00000000
00000000
00100000
01000000
00000000
00010000
00000000
00100000
00000000
00001000
00000000
00010000
00000000
00000000
00000000
,
00011000
00000000
00000000
00010000
00000100
00000000
00000010
00000000
00000001
00000100
00000001
00000000
00001000
00000100
00001000
00000100
,
00001000
00000000
00000000
00000010
00010000
00000000
00001000
00000000
00100000
00000000
01000000
00000000
10000000
01000000
10000000
00000000
,
00010000
00000000
00000000
10000000
00100000
00000000
01000000
00010000
01000000
00000000
00001000
00000000
00010000
00000100
00000000
00000000
,
00000010
00000001
00000100
00001000
00010000
00001000
00000100
00001000
,
00100000
00010000
10000000
01000000
00010000
01000000
10000000
00100000
,
01000000
00010000
01000000
00010000
00100000
00001000
00100000
00001000
00010000
00000010
00010000
00000010
00001000
00000001
00001000
00000001
,
00000100
00000000
00000000
00000010
00010000
00000000
00001000
00100000
01000000
00000000
10000000
00000000
00010000
00000000
00000000
00000000
,
12000000
00000000
00000000
00000000
03100000
01000000
00100000
01000000
20000000
00000000
00000000
00000000
30020000
00000000
00000000
00000000
,
01030000
00010000
01000000
00010000
00100000
00000000
00001000
00000000
00010000
00000000
00000010
00000100
00000020
00000000
00000000
00000000
,
00002030
02003000
03020000
00030200
,
00001300
00000001
00001000
00000001
00000010
00000000
00000100
00000000
00010000
00000000
00001000
00000000
01000000
00000000
00000000
00000000
,
01100000
00000000
00100000
01000000
00000000
00000000
01000000
00000000
10000000
01000000
00000000
01000000
00000000
00000000
00000000
00000000
,
01001000
00000000
00000000
00001000
00000000
00000000
00001000
00000000
00100000
00001000
00000000
00001000
00000000
00000000
00000000
00000000
,
00011000
00000000
00010000
00000100
00000000
00000000
00000100
00000000
00000010
00000100
00000000
00000100
00000000
00000000
00000000
00000000
,
00001000
00000000
00000000
00000001
00000010
00000000
00000100
00000000
00010000
00000000
00001000
00000000
00100000
00000000
00000000
00000000
,
02100000
00000000
00000000
00000000
13000000
01000000
10000000
00000000
00010000
00000000
01000000
00001000
02000000
00000000
00000000
00000000
,
03001000
00100000
00001000
00100000
00001000
00000000
00010000
00000000
00000010
00000000
00000100
00000001
00000200
00000000
00000000
00000000
,
00002300
00203000
00320000
00030020
,
00000130
00001000
00000100
00001000
00000100
00000000
00010000
00000000
00001000
00000000
01000000
00000000
00100000
00000000
00000000
00000000
,
01100000
00000000
01000000
00100000
00000000
00000000
00100000
00000000
10000000
00100000
00000000
00100000
00000000
00000000
00000000
00000000
,
00101000
00000000
00100000
00001000
00000000
00000000
00001000
00000000
01000000
00001000
00000000
00001000
00000000
00000000
00000000
00000000
,
00011000
00000000
00010000
00000010
00000000
00000000
00000010
00000000
00000100
00000010
00000000
00000010
00000000
00000000
00000000
00000000
,
00020000
00032000
00000000
00103000
,
01000000
10000000
00100000
00010000
00011000
00010000
00000100
00000010
,
00000100
00001000
00000010
00000100
00001000
00000100
00000001
00000010
,
00000001
00000100
00001000
00011000
00001000
01000000
00100000
01000000
,
00010000
00000000
00000000
00100000
00000000
00000000
01000000
00000000
00000000
00010000
00000000
00000000
01000000
00000000
00100000
00000000
01000000
00000000
10000000
00000000
00000000
00100000
00000000
00000000
,
00010000
00001000
00011000
00001000
00010000
00000100
00000010
00000100
,
00001000
00000010
00000001
00000010
00000100
00000001
00000010
00001000
,
00010000
00011000
00010000
00001000
01000000
00100000
01000000
00010000
,
00100000
01000000
00100000
01000000
10000000
00010000
00000000
00000000
10000000
00000000
01000000
00000000
00010000
00000000
00001000
00000000
,
00011000
00000001
00000010
00001000
00010000
00100000
01000000
00001000
,
00010000
00000010
00000100
00000001
00000010
00001000
00010000
00011000
,
10000000
00100000
00010000
00001000
00000010
00000100
00010000
00001000
,
00100000
00000000
01000000
00000000
10000000
00000000
00100000
00000000
00000000
10000000
00000000
00000000
01000000
00000000
00000000
00010000
00000000
00000000
00011000
00000000
00000000
00000001
00000000
00000000
,
00000100
00001000
00010000
01000000
00100000
00001000
00000010
00000100
,
00000100
00000010
00000001
00000100
00001000
00011000
10000000
01000000
,
00010000
00001000
00000100
00000010
00002000
00000000
00000000
00000000
,
00003002
00000000
00000000
00000000
00000000
00000000
00000000
00000023
,
00000000
00000000
00000000
00000000
,
00000230
00000000
00000000
00000000
00000000
00000000
00000000
00002300
,
00000000
00000000
00000000
00000000
,
00003010
00000100
00000010
00010000
00000000
00001000
00010000
00001000
,
01000000
00100000
00000000
00010000
00100000
10000000
01000000
00100000
,
00001000
00010000
00001000
00010000
00000100
00000010
00001000
00000010
,
00000002
00000000
00000000
00000003
,
00000011
00000000
00000100
00000000
00001001
00001000
00000100
00010000
,
00001000
00001000
01000000
00100000
10000000
10000000
10000000
00000000
,
01100000
00000000
00010000
00100000
00001000
00001000
00010000
00000100
,
00000010
00001000
00000010
00000001
00000100
00000010
00001000
00000000
,
00000001
00000100
00001000
00010000
00000010
00000100
00001000
00010000
,
00100000
01000000
00001000
00010000
01000000
00100000
00010000
10000000
,
00100000
10000000
00100000
10000000
00010000
00100000
00010000
00100000
00001000
00010000
00001000
00010000
00000010
00001000
00000010
00001000
,
00000002
00000000
00000000
00000013
,
00000100
00001000
00000100
00000100
00000000
00000000
00000010
00000001
,
00000010
00000010
00000000
00000000
00000100
00000000
00011000
00000000
,
20100000
00000000
31000000
00000000
00120000
00000000
01030000
01010000
,
00000000
00011000
00001000
00010000
00010100
00000100
00000010
00000001
,
00002000
00000000
00003010
00000000
00000120
00000000
00001030
00000001
,
00000000
00010100
00001000
00000000
00101000
00010000
10010000
01000000
,
00200000
00000000
00000000
00000000
10300000
00000000
00000000
00000000
10010000
00000000
00010000
01000000
00001000
00010000
00001000
00010000
,
00000200
00000320
00000032
00002003
00003020
00000230
00000302
00002003
00003100
00000000
00000010
00000000
00000011
00000000
00000001
00000000
,
00000100
00000010
00001010
00001000
00000100
00010000
00011000
00001000
,
00010000
00100000
10000000
00100000
01000000
00010000
00110000
00100000
,
00001000
00010000
00011000
00001000
00000100
00000010
00000110
00000100
,
00000001
00000010
00001000
00000010
00000002
00000010
00002003
00000001
,
00003200
00000010
00020300
00032000
00100000
02003000
00010000
03200000
,
01000000
20300000
30020000
10000000
00230000
01000000
00302000
00100000
,
00023000
00000000
00001000
00000000
00030200
00000000
00000310
00000000
00000001
00000000
00000010
00000100
00001000
00000010
00010000
00000000
,
00000100
00000000
00010000
00001000
00100000
00010000
00100000
01000000
20000000
00000000
00100000
00000000
30020000
00000000
10000000
00000000
,
01030000
00010000
00100000
00002000
01000000
00023000
00000100
00032000
,
00100000
00013000
00001000
00010000
00000200
00001000
00000320
00000001
,
00000130
00001000
00000010
00020000
00000100
00031000
00010000
00001000
,
00100000
01000000
10000000
00010000
10000000
10000000
01000000
01000000
,
00100000
00100000
00001000
00001000
00010000
00010000
00000010
00000010
,
00000100
00000000
00000100
00000000
00000001
00000000
00000001
00000000
00001000
00000100
00001000
00000100
00010000
00001000
00010000
00001000
,
01000000
00010000
01000000
00010000
10000000
00100000
10000000
00100000
02000000
00000000
00000000
00000000
00000000
00000000
00000000
00000000
,
00000000
00000000
03010000
00100000
,
01000000
00000000
10000000
00100000
00000000
00010000
00000000
00001000
,
00010000
00000100
00000010
00000001
00001000
00000000
00000010
00000000
,
00000100
00000000
00001000
00010000
00000000
00100000
00000000
01000000
,
00010000
00100000
01000000
10000000
00020000
00000000
00000000
00000000
,
00000000
00000000
00000000
00000000
,
00000000
00000000
00030000
00000000
;

//---------------dance-double - NewbStepper-DDP----------------
#NOTES:
     dance-double:
     NewbStepper:
     Medium:
     13:
     0.586042,0.733766,0.173762,0.362634,0.090658,543,520,23,48,0,0,0.586042,0.733766,0.173762,0.362634,0.090658,543,520,23,48,0,0:
00000000
00000000
00000000
00000000
,
00000000
00000000
00000000
00000000
,
00000000
00000000
00000000
00000000
,
00000000
00000000
00000000
00000000
,
10000000
01000000
00010000
00001000
00000000
00100000
00001000
00010000
,
01000000
01000000
00000000
00010000
00001000
00010000
00000100
00000010
,
00000100
00001000
00000001
00000100
00001000
00010000
00001000
00000010
,
00000002
00000000
00000000
00000003
,
00001000
00000000
00000000
00001000
00000100
00000000
00000010
00000000
00000001
00000000
00000100
00000000
00000100
00000000
00000000
00000000
,
00000001
00000000
00000000
00000100
00000000
00000000
00001000
00000000
00010000
00000000
00100000
00000000
00010000
00000000
00001000
00000000
,
00010000
01000000
00100000
00100000
01000000
00010000
00001000
01000000
,
00100000
01000000
00001000
00010000
01000000
00100000
00100000
00000000
,
00010000
01000000
00010000
01000000
00100000
10000000
00100000
10000000
,
01000000
00010000
01000000
00010000
00001000
00000010
00001000
00000010
,
00000001
00000100
00001000
00010000
01000000
10000000
00100000
00010000
,
00002000
00010000
00013000
00011000
,
00201000
00000000
00310000
01000000
00100000
00010000
00002000
00000000
,
00003010
00001000
00010000
00000010
00001000
00000010
00000100
00000000
,
00000002
00000000
00002003
00000000
00003020
00000000
00000130
00001000
,
00010000
01000000
10000000
00100000
00010000
00100000
10000000
00000000
,
00100000
00000000
00000000
01000000
00000000
00000000
00001000
00000000
00010000
00001000
00000000
00001000
00000000
00000000
00000000
00000000
,
00000010
00000000
00000000
00000100
00000000
00000000
00010000
00000000
00001000
00010000
00000000
00010000
00000000
00000000
00000000
00000000
,
01000000
00000000
00000000
00100000
00000000
00000000
00001000
00000000
00010000
00001000
00000000
00001000
00000000
00000000
00000000
00000000
,
00000020
00000032
00000203
00001300
,
00012000
00000000
00103000
00010000
20000000
00000000
32000000
00000000
,
03010000
00001000
00000100
00001000
00010000
00100000
10000000
00000000
,
02000000
00000000
23000000
00000000
30200000
00000000
00310000
00001000
,
00010000
00010000
00000010
00000100
00000010
00001000
00000001
00000000
,
00000010
00000000
00000000
00000100
00000000
00000000
00010000
00000000
00001000
00010000
00000000
00010000
00000000
00000000
00000000
00000000
,
00100000
00000000
00000000
01000000
00000000
00000000
00001000
00000000
00010000
00001000
00000000
00001000
00000000
00000000
00000000
00000000
,
00000100
00000000
00000000
00000010
00000000
00000000
00010000
00000000
00001000
00010000
00000000
00010000
00000000
00000000
00000000
00000000
,
00022000
00000000
00000000
00033000
,
00010000
00100000
10000000
00000000
10010000
10000000
01000000
10000000
,
00100000
01000000
00000000
00001000
00010000
00001000
00000000
00000100
,
00000000
00001000
00010000
00011000
00001000
00000100
00000001
00000010
,
00000100
00000000
00001000
00000100
00010000
00000000
00001000
00000010
,
00000001
00000000
00001001
00000001
00000100
00000001
00000010
00000100
,
00000000
00010000
00001000
00010000
00000000
01000000
00000000
00010000
,
00001000
00011000
00010000
01000000
10000000
00100000
01000000
00000000
,
00010000
01000000
00001000
00000000
00010000
01000000
10000000
00000000
,
10010000
10000000
00100000
10000000
01000000
00100000
00000000
00001000
,
00010000
00001000
00000000
00000010
00000000
00001000
00010000
00011000
,
00001000
00000010
00000001
00000100
00000010
00000000
00001000
00000010
,
00010000
00000000
00001000
00000100
00000001
00000000
00001001
00000001
,
00000010
00000001
00000100
00000010
00000000
00010000
00001000
00010000
,
00000000
00100000
00000000
00010000
00001000
00011000
00010000
00100000
,
10000000
01000000
00100000
00000000
00010000
01000000
00001000
00000000
,
00020000
00000000
00000000
00000000
00000000
00000000
00000000
00230000
,
00000000
00000000
00000000
00000000
,
20300000
00000000
00000000
00000000
00000000
00000000
00000000
32000000
,
00000000
00000000
00000000
00000000
,
03010000
00001000
00010000
00000100
00000000
00000010
00000100
00001000
,
00000100
00000001
00000000
00000100
00001000
00000100
00010000
00001000
,
00100000
01000000
00100000
00001000
00010000
00100000
10000000
01000000
,
00200000
00000000
00000000
00300000
,
00001000
00010000
00000100
00010000
00001000
00000000
00000010
00000000
,
00000001
00000100
00000001
00001000
00000100
00000010
00000100
00000000
,
00010000
00001000
00100000
00001000
00010000
00000000
00100000
10000000
,
00010000
10000000
00100000
00010000
00001000
01000000
00100000
00000000
,
10000000
01000000
10000000
01000000
00010000
00001000
00010000
00001000
,
00000010
00000001
00000010
00000001
00000100
00001000
00000100
00001000
,
00010000
00100000
10000000
01000000
00010000
00001000
00000010
00000001
,
00002000
00000000
00000000
00003000
,
00000001
00000100
00001000
00010000
00000000
00000000
00001000
00010000
,
00100000
10000000
00000000
00000000
00000000
00000000
10010000
00000000
,
00120000
00000000
01030000
00000000
20100000
00000000
30010000
01000000
,
00000000
01000000
01002000
00000000
00013000
00001000
00000100
00000001
,
00002000
00000000
00003010
00000000
00000102
00000000
00001003
00000100
,
00000000
00000010
00000010
00000100
00010000
00001000
00000100
00000010
,
00002010
00000000
00003100
00000000
00000012
00000000
00001003
00000100
,
00020000
00032000
00023000
00032000
00203000
00320000
00230000
00320000
10030000
00000000
01000000
00000000
10000000
00000000
00010000
00000000
,
01000000
00100000
00010000
00001000
00100000
01000000
00010000
00001000
,
00000100
00000001
00001000
00000000
00000001
00000100
00000001
00001000
,
00000100
00000010
00001000
00010000
00000010
00000100
00001000
00010000
,
01000000
10000000
01000000
00100000
00010000
01000000
10000000
00010000
,
00100000
10000000
01000000
00010000
00001000
00100000
00010000
01000000
,
00100000
00010000
00001000
00000010
00000100
00010000
00001000
00000100
,
00000001
00000010
00001000
00020000
00000000
00000000
00000000
00000000
,
00000000
00000000
00031000
00000000
00100000
00001000
00010000
00100000
,
00010000
00001000
00000000
00101000
00000000
00011000
00000000
00010000
,
01000000
00100000
01000000
10000000
01000000
00010000
00001000
00000100
,
00000001
00000100
00000010
00001000
00000000
00000001
00000100
00001000
,
00000000
00000100
00001000
00010000
00000010
00010000
00001000
00000010
,
00001000
00010000
00000000
00010010
00000000
00011000
00000000
00001000
,
00000100
00000010
00000100
00000001
00000100
00001000
00010000
01000000
,
10000000
00100000
00010000
00001000
00020000
00000000
00000000
00000000
,
00030000
00000000
00002000
00023000
,
02030000
00000000
03010000
00010000
00000000
00001000
00010000
00001000
,
00000010
00000001
00000010
00000100
00020000
00000000
00032000
00000000
,
00003200
00000000
00001300
00001000
00000000
00010000
00001000
00010000
,
00100000
10000000
00100000
01000000
00020000
00000000
00000000
00000000
,
00000000
00000000
00000000
00000000
,
00000000
00000000
00030000
00000000
;

//---------------dance-double - NewbStepper-BDP----------------
#NOTES:
     dance-double:
     NewbStepper:
     Easy:
     9:
     0.378823,0.419295,0.158652,0.219091,0,351,330,21,29,0,0,0.378823,0.419295,0.158652,0.219091,0,351,330,21,29,0,0:
00000000
00000000
00000000
00000000
,
00000000
00000000
00000000
00000000
,
00000000
00000000
00000000
00000000
,
00000000
00000000
00000000
00000000
,
10000000
01000000
10000000
00010000
,
01000000
01001000
00010000
00001000
,
00000010
00000100
00001000
00000001
,
00002002
00000000
00000000
00003003
,
00000001
00000010
00000100
00000010
,
00000001
00000000
00001000
00000000
00000010
00010000
00000010
00000000
,
00001000
00000100
00010000
00001000
,
00000010
00000100
00010000
00001000
,
01000000
00010000
01000000
00000000
00100000
00000000
00010000
00000000
,
00001000
00010000
00001000
00000000
00000010
00000000
00000001
00000000
,
00000100
00001000
00010000
00100000
,
10000000
00010000
01000000
00000000
,
20100000
00010000
01000000
30010000
,
00100000
00001000
00000010
00000001
,
00002000
00000100
00000100
00003001
,
00001000
00000000
00000100
00010000
00000100
00000000
00000110
00000000
,
00001000
00000000
00000000
00001000
00010000
00000000
00000000
00000000
,
00010000
00000000
00000000
00010000
01000000
00000000
00000000
00000000
,
01000000
00000000
00000000
01000000
10000000
00000000
00000000
00000000
,
00020000
00230000
00302000
00003010
,
00000012
00001000
00000100
00001003
,
00000010
00010000
00100000
10000000
,
00020000
01000000
01000000
10030000
,
00010000
00000000
01000000
00001000
01000000
00000000
01100000
00000000
,
00010000
00000000
00000000
00010000
00001000
00000000
00000000
00000000
,
00001000
00000000
00000000
00001000
00000100
00000000
00000000
00000000
,
00000100
00000000
00000000
00000100
00000001
00000000
00000000
00000000
,
00001000
00000002
00000000
00000013
,
00000001
00000000
00000100
00000000
00000101
00000001
00000000
00000100
,
00000000
00001000
00000000
00010000
00000000
01000000
00000000
01000000
,
00000000
10000000
00000000
10010000
10000000
00000000
01000000
00000000
,
00010000
00001000
00000100
00000100
,
00000001
00000000
00001001
00000001
00000000
00000010
00000000
00001000
,
00000000
00010000
00000000
00100000
00000000
00100000
00000000
10000000
,
00000000
10010000
10000000
00000000
00100000
00000000
00010000
00000000
,
00001000
00000010
00000010
00000001
,
00001001
00000001
00000000
00000010
00000000
00001000
00000000
00010000
,
00000000
01000000
00000000
01000000
00000000
10000000
00000000
10010000
,
10000000
00100000
00010000
00001000
,
00000100
00000000
00000100
00000000
00000001
00000000
00001001
00000001
,
00000000
00000100
00000000
00001000
00000000
00010000
00000000
00100000
,
00000000
00100000
00000000
10000000
00000000
10010000
10000000
00000000
,
01000000
00010000
00002000
00003000
,
00020000
00000000
00000000
00000000
00000000
00000000
00000000
00030020
,
00000000
00000000
00000000
00000000
,
00002030
00000000
00000000
00000000
00000000
00000000
00000000
00003002
,
00000000
00000000
00000000
00000000
,
00001003
00000001
00000100
00001000
,
00010000
01000000
00100000
00000000
,
00010000
10000000
01000000
00010000
,
00022000
00000000
00000000
00033000
,
00001000
01000000
00100000
00100000
,
00010000
00001000
00000010
00000010
,
00001000
00010000
01000000
01000000
,
00010000
00001000
00000100
00000100
,
00001000
00010000
00001000
00000000
00100000
00000000
00001000
00000000
,
00010000
00001000
00010000
00000000
00000010
00000000
00010000
00000000
,
00001000
00000010
00000001
00000100
,
00002002
00000000
00000000
00003003
,
00000001
00000001
00000000
00001000
,
00001000
00000000
00010000
00010000
,
20000000
00000000
30100000
00000000
10100000
00000000
10000000
00010000
,
00000000
00010000
00000000
10000000
01000000
00000000
00010000
00000000
,
00001000
00000000
00100000
00000000
00001000
00000000
00010000
00000100
,
00000000
00000100
00000000
00000010
00000001
00000000
00001000
00000000
,
00000002
00000013
00000011
00000001
,
00002000
00003200
00000320
00000032
00000103
00000000
00000001
00000000
,
00000010
00001000
00010000
00100000
,
00010000
00001000
00010000
00000000
01000000
00000000
10000000
00000000
,
00100000
00010000
00001000
00000010
,
00001000
00010000
00001000
00000000
00000100
00000000
00000010
00000000
,
00001000
00010000
01000000
00100000
,
00010000
00001000
00000010
00000100
,
00001000
00000000
00000001
00002000
00000000
00000000
00000000
00000000
,
00000000
00003010
00001000
00001100
,
00000010
00000001
00000000
00001000
00000000
00000001
00000000
00000100
,
00000000
00001000
00000000
00001000
01000000
00000000
01100000
00000000
,
00100000
10000000
00000000
00010000
00010000
00000000
10000000
00000000
,
01000000
00010000
00001000
00000010
,
00000001
00000100
00001000
00010000
,
00100000
00000000
10000000
00000000
00010000
10000000
00010000
00000000
,
10000000
00010000
10000000
00000000
20020000
00000000
00000000
00000000
,
00000000
30030000
10000000
01000000
,
00010000
00000000
00000000
00001000
00000000
00001000
00000000
00000100
,
00000010
00001000
00000001
00001000
,
00000100
00000000
00000000
00010000
00000000
00010000
00000000
01000000
,
00100000
00010000
20000000
00000000
,
00000000
00000000
00000000
00000000
,
00000000
00000000
30000000
00000000
;
