#VERSION:0.83;
#TITLE:heart of XX;
#ARTIST:saiiko2;
#BANNER:heart of XX.png;
#BACKGROUND:heart of XX-bg.png;
#JACKET:heart of XX-jacket.png;
#MUSIC:heart of XX.ogg;
#OFFSET:-0.079;
#SAMPLESTART:108.079;
#SAMPLELENGTH:15;
#BPMS:0=200;

//---------------dance-single - XX Team-bSP----------------
#NOTEDATA:;
#CHARTNAME:XX-Team-bSP;
#STEPSTYPE:dance-single;
#DESCRIPTION:XX Team-bSP;
#DIFFICULTY:Beginner;
#METER:7;
#CREDIT:XX Team;
#OFFSET:-0.079;
#DISPLAYBPM:200;
#BPMS:0=200;
#LABELS:0=Song Start,6=RGTM,72=Kekkle,136=Marten,200=Talkion,296=Pandemonium X,360=NewbStepper,424=RGTM,487.5=Song End;
#NOTES:
0000
0000
0000
0000
,
0000
0000
0000
0000
,
0000
0000
0000
0000
,
0000
0000
0000
0000
,
0000
0000
0000
0000
,
0000
0000
0000
0000
,
0000
0000
0000
0000
,
0000
0000
0000
0000
,
0000
0000
0000
0000
,
0000
0000
0000
0000
,
1000
0000
0100
0000
,
0010
0000
0000
0000
,
0001
0000
0100
0000
,
0010
0000
0000
1000
,
1000
0000
0001
0000
,
0010
0000
0100
0000
,
1000
0000
1000
0000
0001
0000
0000
0200
,
0000
0000
0000
1000
,
0301
1000
0000
0100
,
0010
0001
1000
0010
,
0001
0010
0000
0100
,
0002
0000
2003
0000
,
3001
0010
0000
0100
,
2000
0000
3002
0000
,
1003
0010
0000
0100
,
0001
0000
1000
1000
,
0100
0001
0000
0100
,
1000
0000
0001
0100
,
0010
0000
0100
0010
,
0001
0010
1000
0010
,
0100
0000
0010
0000
,
1000
0010
0001
0010
,
1000
0001
0010
0010
,
0020
0000
0000
0130
,
1000
0100
0000
0100
,
0001
0100
0000
0100
,
1000
0100
0000
0100
,
0020
0000
0000
0031
,
0100
0000
0000
0100
0000
0000
0010
0000
,
0000
0010
0000
0000
1000
0000
0000
0000
,
0002
0000
0000
0003
0000
0001
0000
0001
,
0000
0000
0010
0010
,
0001
0000
0100
0001
,
1000
0000
0100
1000
,
0002
0000
0003
0100
,
0110
0000
1001
0000
,
2000
0000
0000
3000
,
0200
0300
0020
0030
,
0002
0000
0003
1000
,
0001
0001
1000
0001
,
1001
0000
0000
1000
0000
0000
0000
0000
,
0010
0010
0100
0000
,
0001
0000
0000
0001
0000
0000
0000
0000
,
1000
0000
0000
1000
0000
0000
0000
0000
,
0100
0000
0010
0000
,
0001
0000
0000
0001
0000
0000
0000
0000
,
0100
0000
0000
0100
0000
0000
0000
0000
,
0010
0000
0100
0000
,
0001
0000
0001
0000
,
1000
0000
1000
0000
,
0200
0000
0000
0310
0000
0000
0000
0000
,
0001
0000
0001
0000
,
1000
0010
0000
0010
,
0100
0001
0000
0001
,
1000
0100
0000
0100
,
0010
0000
0001
0000
0000
0000
0000
1001
,
0000
0000
1000
0000
0000
0000
0000
1010
,
0000
0000
0010
0000
0000
0000
0000
0110
,
0000
0000
0100
0000
0000
0000
0000
0101
,
0000
0000
0001
0000
0000
0000
0000
1001
,
0000
0000
1000
0000
0000
0000
0000
1100
,
0000
0000
0100
0000
0000
0000
0000
0110
,
0000
0000
0010
0000
0000
0000
0000
0011
,
0000
0000
0001
0000
0000
2000
0000
0000
,
3001
0000
0000
0000
,
0001
0000
0010
0010
,
0100
0000
0000
1000
0000
0000
0001
0000
,
0001
0100
0010
1000
,
0100
0000
0000
0100
0000
0000
1000
0000
,
1000
0000
0001
0000
,
1001
0110
0000
1000
,
0100
0010
0100
1000
,
0001
0000
0000
0000
,
0100
0000
0010
1000
,
0001
0000
0000
0000
,
0000
0000
0001
0010
,
0100
0000
0000
0100
0000
0000
1000
0000
,
1000
0000
0000
0001
0000
0000
0100
0000
,
0010
0000
0000
1000
0000
0000
0001
0000
,
1001
0000
0100
0100
,
1001
0000
1000
0100
,
0010
0000
0001
0000
,
1000
0001
1000
0001
,
1000
0100
0010
0000
,
0001
1000
0001
1000
,
0001
0100
0010
0000
,
1000
0100
1000
0100
,
0010
0001
0010
0000
,
0001
0100
1000
0000
,
1000
0100
0001
0000
,
0001
0010
1000
0000
,
1000
0010
0001
0000
,
1000
0100
0010
0001
,
1000
0100
0010
0001
,
1000
0010
0100
0001
,
0100
1000
0100
0001
,
2001
0000
0000
0000
,
0000
0000
0000
0000
,
3020
0000
0000
0000
,
0000
0000
0000
0000
,
0230
0000
0000
0000
,
0000
0000
0000
0000
,
0302
0000
0000
0000
,
0000
0000
0000
0000
,
2003
0000
0000
0000
,
0001
0000
0000
0000
,
3200
0000
0000
0000
,
1000
0000
0000
0000
,
0302
0000
0000
0000
,
0100
0000
0000
0000
,
0023
0000
0000
0000
,
0001
0000
0000
0000
0000
0000
0000
0030
;

//---------------dance-single - XX Team-BSP----------------
#NOTEDATA:;
#CHARTNAME:XX Team-BSP;
#STEPSTYPE:dance-single;
#DESCRIPTION:XX Team-BSP;
#DIFFICULTY:Easy;
#METER:11;
#CREDIT:XX Team;
#OFFSET:-0.079;
#DISPLAYBPM:200;
#BPMS:0=200;
#LABELS:0=Song Start,6=RGTM,72=Kekkle,136=Marten,200=Talkion,296=Pandemonium X,360=NewbStepper,424=RGTM,487.5=Song End;
#NOTES:
0000
0000
0000
0000
,
0000
0000
0000
0000
,
0000
0000
0000
0000
,
0000
0000
0000
0000
,
0000
0000
0000
0000
,
0000
0000
0000
0000
,
0000
0000
0000
0000
,
0000
0000
0000
0000
,
0000
0000
0000
0000
,
0000
0000
0000
0000
,
1000
0000
0000
0100
0010
0000
0001
0000
,
1000
0000
0000
0000
,
1000
0000
0000
0010
0100
0000
0000
0001
,
1000
0000
0000
0000
,
1000
0000
0000
0100
0010
0000
0000
0001
,
0000
1000
0000
0000
0010
0000
0100
0000
,
0100
0000
0001
1000
0001
1000
0000
0200
,
0000
0000
0000
0000
0000
0001
0001
0000
,
1300
0000
0001
0000
0000
0100
0010
0000
,
1000
0000
0001
0000
0010
0100
0010
0100
,
0010
0000
0001
0000
0000
1000
0010
0000
,
0002
0000
0023
0000
,
1030
0000
0001
0000
0000
0010
0100
0000
,
0002
0000
0203
0000
,
1300
0001
0000
0100
,
1000
0000
0100
0001
0000
0100
0001
0100
,
0001
0000
0100
0020
0000
0000
0000
0000
,
1030
0000
0000
0001
0000
0000
1000
0000
,
0100
0000
0010
0100
0000
0000
0001
0000
,
0100
1000
0001
0100
,
0100
0010
0010
1000
,
0001
1000
0001
0000
1000
0001
1000
0000
,
0100
0010
0100
0010
0000
0001
0000
2000
,
0000
0000
0001
3001
,
1000
0000
0010
0000
0100
0001
1000
0000
,
0001
0000
0010
0000
0100
1000
0001
0000
,
0100
0000
0001
0000
0010
0100
1000
0000
,
1100
0000
0000
1001
0000
0000
0011
0000
,
0001
0000
0001
0010
0000
0010
0100
0000
,
0100
1000
0000
1000
0001
0000
1000
0000
,
0020
0000
0000
0000
0100
0130
0000
0100
,
0000
0100
0010
0000
0110
0000
1001
0000
,
0001
0010
1000
0010
,
0001
1000
0010
0001
,
0010
1000
0100
0010
,
0001
1000
0010
0100
,
0101
0000
0001
0010
0000
0010
0001
0000
,
1000
0000
0010
1000
0000
1000
0010
0000
,
1010
0000
0000
0101
0000
0000
1001
0000
,
1000
0000
0010
0000
0100
0001
0100
0001
,
1000
0000
0000
0100
0000
0100
0010
0000
,
0002
2003
3010
1000
,
0002
0000
0000
0013
0000
0100
0000
0010
,
0001
0000
0000
1000
0000
0000
1000
0000
,
0001
0100
0010
1000
,
0001
0000
0000
0010
0000
0010
0100
0000
,
0002
0000
0000
0203
0000
0000
1300
0000
,
0002
0103
0020
0130
,
0001
0001
1000
1000
,
0100
0100
0010
0010
,
0002
0000
0000
0103
0000
0100
0010
0000
,
1000
1000
0001
0001
,
0010
0000
0100
0000
0000
0010
0100
0000
,
1000
0000
0001
0000
0000
1000
0001
0000
,
0100
0000
0010
0000
0000
0100
0010
0000
,
1000
0001
1000
0100
0000
0100
0000
0110
,
0000
0000
0110
0000
0000
0000
0000
1001
,
0000
0000
1001
0000
0000
0000
0000
0101
,
0000
0000
0101
0000
0000
0000
0000
1010
,
0000
0000
1010
0000
0000
0000
0000
1001
,
0000
0000
1001
0000
0000
0000
0000
0011
,
0000
0000
0011
0000
0000
0000
0000
1100
,
0000
0000
1100
0000
0000
0000
0000
1001
,
0000
0000
1001
0000
0000
0110
0000
0000
,
1001
0000
0000
0000
,
0001
0000
0010
0001
,
1001
0000
0000
1000
0000
0000
0010
0000
,
1010
1000
0001
1000
,
1010
0000
0000
0010
0000
0000
0100
0000
,
0101
0000
0000
0000
0001
0010
0100
1000
,
0001
0000
1000
0010
0000
0000
0100
0000
,
0010
0000
0000
1000
0000
0000
0200
0000
,
0310
0001
0100
0001
,
1000
0100
1000
0001
,
1000
0010
1000
0001
,
0010
0001
1000
0001
,
0100
0001
0010
0100
,
1000
0100
0010
0001
,
1000
0001
1000
0001
1000
0001
1000
0001
,
0200
0000
0000
0000
,
0301
0000
0000
1000
0000
0001
0010
0100
,
1000
0000
0001
0100
,
0001
0100
0010
1000
0001
0100
0010
1000
,
0001
0100
0010
1000
,
0001
1000
0001
0100
0001
1000
0001
0100
,
0001
1000
0010
0100
,
0001
0101
1000
1100
,
0010
0000
0110
0000
1000
0000
0001
1000
,
0001
0000
1000
0010
1000
0010
1000
0000
,
1001
0000
0001
0010
0001
0010
0001
0000
,
1000
0000
0001
0100
0001
0000
1000
0100
,
1000
0000
0001
1000
0010
1000
0001
0000
,
1001
0000
1000
0000
0001
0001
0000
1000
,
1000
0000
0010
0010
0000
0100
0100
0000
,
0001
0100
1000
0010
,
0001
0100
0001
0100
0010
1000
0010
1000
,
0001
0000
0010
0000
0000
0010
0000
0000
,
0010
0000
0000
0010
0000
0000
0100
0000
,
1000
0000
0010
0000
0000
0010
0000
0000
,
0010
0000
0000
0010
0000
0000
0100
0000
,
0001
0000
1000
0000
0000
1000
0000
0000
,
1000
0000
0000
1000
0000
0000
0100
0000
,
0010
0000
0001
0000
0000
0001
0000
0000
,
0001
0000
0000
0001
0000
0000
0001
0000
,
0200
0000
0010
0000
0000
0010
0000
0000
,
1000
0000
0000
1000
0000
0000
0001
0000
,
0302
0000
0100
0000
0000
0100
0000
0000
,
1000
0000
0000
1000
0000
0000
0010
0000
,
0023
0000
0001
0000
0000
0001
0000
0000
,
1000
0000
0000
1000
0000
0000
0100
0000
,
0230
0000
0010
0000
0000
0010
0000
0000
,
0001
0000
0000
0010
0000
0000
1000
0300
;

//---------------dance-single - XX Team-DSP----------------
#NOTEDATA:;
#CHARTNAME:XX Team-DSP;
#STEPSTYPE:dance-single;
#DESCRIPTION:XX Team-DSP;
#DIFFICULTY:Medium;
#METER:13;
#CREDIT:XX Team;
#OFFSET:-0.079;
#DISPLAYBPM:100:200;
#BPMS:0=100,36=200,164=100,188=200,236=100,252=200,348=100;
#LABELS:0=Song Start,3=RGTM,36=Kekkle,100=Marten,164=Talkion,236=Pandemonium X,284=NewbStepper,348=RGTM,379.75=Song End;
#NOTES:
0000
0000
0000
0000
0000
0000
1000
0001
,
0020
0000
0000
0000
0230
0000
0310
0001
,
1000
0000
0000
0010
0000
0000
0100
0000
1000
0000
0100
0000
0001
0000
1000
0000
,
0100
0000
0000
0010
0000
0000
0001
0000
0200
0000
0000
0000
0310
0100
0000
0010
,
0000
2000
0000
3001
0020
0000
0130
1000
,
0001
0000
0000
1000
0010
0000
0101
0000
1100
0000
0000
0000
0000
0000
0000
0000
,
1000
0000
0100
0010
0001
1000
0000
0010
0110
0000
0000
0000
0100
0010
0100
0000
,
0001
0000
0010
0100
1000
0001
0000
0101
0000
1010
0000
1000
1001
0000
0001
0010
,
0100
0000
0010
0001
1001
1000
0020
0100
0000
0000
0000
0000
0000
0001
0001
0100
,
1030
0000
0100
1000
0000
1000
0001
0000
,
1000
0000
0110
0000
0001
1000
0100
0010
,
0001
0000
0100
0001
0000
0001
1000
0000
,
1001
0000
0001
0100
0010
1000
0100
0000
,
1000
0000
0010
1000
0000
1000
0001
0000
,
0100
1010
0100
0011
,
0001
0000
0010
0001
0000
0001
1000
0000
,
0010
0000
1000
0100
0001
0100
1000
0000
,
0001
0100
0010
1000
0000
0100
0001
0000
,
0100
0000
1000
0010
0100
0010
0001
0000
,
1000
0000
0100
0001
0000
0001
1000
0000
,
1010
0000
0110
0000
0101
0000
0001
0100
,
1000
0000
0001
0010
1000
0000
1000
0100
,
0001
0000
1000
0010
0001
0000
1000
0001
,
1000
0100
0010
0001
0000
0100
0010
0000
,
1000
0001
0100
1000
0100
0001
1000
0000
,
0001
0000
0100
1000
0100
0001
1000
0000
,
0100
0010
0001
0010
0100
0001
0100
1000
,
0001
0000
1000
0010
0001
0010
1000
0000
,
0001
0010
0100
1000
0010
0100
0001
1000
,
2001
0000
0000
3020
0000
0000
0032
0000
,
0000
0023
0000
0000
1030
0100
0010
0001
,
0200
0000
0000
0000
0310
0100
0000
0110
,
0000
0100
0001
1000
1001
0000
0110
0000
,
0010
1000
0100
0000
0010
0001
0100
0000
,
0001
0100
1000
0000
0001
0010
1000
0000
,
0100
0010
0001
0000
0100
0010
1000
0000
,
0001
0010
1000
0000
0001
0100
1000
0000
,
1010
0000
0010
0001
0000
0010
1000
0000
,
0001
0000
0010
1000
0000
0010
0001
0000
,
0101
0000
0000
0001
0000
0000
1001
0000
0000
1000
0000
0000
1100
0000
0100
0000
,
0010
0001
0100
0010
1000
0100
0001
0100
,
0210
0000
0000
0000
0000
0000
1300
0000
0000
0000
0001
0000
0010
0000
0000
0000
0001
0000
1000
0000
0001
0000
1000
0000
0010
0000
0000
0100
0000
0000
0010
0000
,
1000
0001
0010
0100
0000
0001
0000
0100
0010
0000
0010
0001
0000
1000
0010
0100
,
0001
1000
0001
0000
0010
0100
0010
0000
0001
1000
0001
0100
0000
0001
1000
0100
,
0020
0000
1000
0000
0030
0000
0020
0000
0100
0000
0030
0000
0011
0000
0000
0000
1000
0000
0000
1000
0000
0000
0010
0000
0100
0000
0000
0100
0000
0000
0000
0000
,
0001
0100
0001
1000
0000
0100
0010
0001
0000
1001
0000
0101
0000
0100
0010
1000
,
0100
0010
0100
0001
0000
0100
0010
0001
1000
0000
0001
0000
0100
0010
1000
0001
,
0010
0000
0110
0000
0000
0100
1000
0000
,
0001
0000
0101
0000
0000
0100
0010
0000
,
1000
0000
1001
0000
0000
0001
0010
0000
,
0100
0100
1000
0000
0001
0100
0010
2010
,
0000
0000
3001
0000
1000
0100
0010
0012
,
0000
0000
1003
0001
0100
0010
1000
1002
,
0000
0000
0013
0000
0100
0010
0001
2001
,
0000
0000
3010
0100
0001
0100
0010
2010
,
0000
0000
3001
1000
0100
0010
1000
1020
,
0000
0000
0130
0000
1000
0100
0010
0012
,
0000
0000
1003
0001
0100
0010
0001
0021
,
0000
0000
0130
0000
0001
2000
0000
3100
,
1001
0001
0010
0100
0020
0130
2000
3020
,
0230
0000
0310
1000
0000
1000
0001
0000
0020
0000
0230
0000
2300
0000
3020
0000
,
0230
0000
0310
1000
0000
1000
0001
0000
0020
0000
0130
0000
0020
0000
0031
0000
,
2000
0000
0000
0000
3001
0000
0000
0000
1000
0000
0000
0000
0200
0000
0000
0000
0320
0000
0000
0000
0031
0000
0000
0000
0010
0000
0000
0000
0100
1000
0100
1000
,
0001
0100
0010
0000
1000
0001
0010
0000
,
0100
1000
0010
0000
1000
0001
0010
0000
,
0100
0010
0001
0000
0010
0100
1000
0000
,
0100
1000
0010
0000
0100
0001
0010
0000
,
0100
0010
0001
0100
1000
0100
0001
1000
,
0010
1000
0001
0010
1000
0010
0001
0100
,
0010
0010
1000
1000
0001
0001
0100
0100
,
1001
0000
0000
1000
0100
0001
0100
1000
,
1001
0000
1000
0100
0000
0010
0001
0100
,
0020
0030
0001
0010
,
1000
0100
0001
0100
1000
0010
0001
0010
,
1000
0100
0010
0001
0000
0001
0100
0010
,
1000
0100
0001
1000
0010
0001
1000
0100
,
0001
1000
0010
0001
0000
0001
0010
1000
,
0001
0000
0000
0001
0000
0000
0100
0000
1000
0000
0000
1000
0000
0000
0100
0000
,
0010
0000
0000
0010
0000
0000
0100
0000
0110
0000
0000
0000
1001
0000
0000
0000
,
0001
0100
1000
0100
0000
0010
0110
0000
,
1000
0100
0001
0100
0010
0000
0110
0000
,
0001
0100
1000
0100
0000
0001
0100
0010
,
1000
0001
1000
0001
0100
0010
0100
0000
,
0001
1000
1100
0000
0001
0101
0000
1000
,
1010
0000
0001
0011
0000
0010
0100
0010
,
0001
0100
1000
0001
0010
1000
0001
1000
,
0100
0001
1000
0010
0001
1000
0100
0010
,
0110
0000
0100
0000
0000
1000
0000
0000
0001
0000
0000
0100
0000
0000
0010
0000
,
0100
0001
0010
0000
0000
0001
0000
0000
1000
0000
0000
0010
0000
0000
0100
0000
,
0010
1000
0100
0000
0000
0001
0000
0000
0100
0000
0000
1000
0000
0000
0010
0000
,
0100
0001
0010
0000
0000
1000
0000
0000
0010
0000
0000
0001
0000
0000
0100
0000
,
0002
0000
0010
0000
0000
0010
0000
0000
1000
0000
0000
1000
0000
0000
0100
0000
,
0203
0000
0001
0000
0000
0001
0000
0000
0010
0000
0000
0010
0000
0000
1000
0000
,
2300
0000
0100
0000
0000
0100
0000
0000
0001
0000
0000
0001
0000
0000
0010
0000
,
3020
0000
1000
0000
0000
1000
0000
0000
0100
0000
0000
0100
0000
0000
0001
0031
;

//---------------dance-single - XX Team-ESP----------------
#NOTEDATA:;
#CHARTNAME:XX Team-ESP;
#STEPSTYPE:dance-single;
#DESCRIPTION:XX Team-ESP;
#DIFFICULTY:Hard;
#METER:17;
#CREDIT:XX Team;
#OFFSET:-0.079;
#DISPLAYBPM:100:400;
#BPMS:0=100,20=200,48=100,50=200,114=400,146=200,162=400,226=100,250=200,290=100,306=200,334=100,336=400,464=100;
#STOPS:265.5=0.3,268.5=0.3,271.5=0.3,274.5=0.3,277.5=0.3,280.5=0.3,283.5=0.3,286.5=0.3;
#TIMESIGNATURES:0=4=4,48=2=4,50=4=4,334=2=4,336=4=4;
#LABELS:0=Song Start,3=RGTM,50=Marten,226=Talkion,290=Pandemonium X,336=NewbStepper,464=RGTM,495.75=Song End;
#NOTES:
0000
0000
0000
0000
,
1000
0100
0001
1000
0010
0001
0000
0100
0000
0000
0000
0000
0000
0000
0000
0000
,
0001
0100
1000
0001
0000
0010
1000
0100
0000
0000
0000
0000
0000
0000
0000
0000
,
1000
0010
0001
1000
0100
0001
1000
0100
0000
0000
0000
0000
0010
0000
0001
0000
,
0010
1000
0001
0100
1000
0001
0100
0010
0000
0000
0000
0000
0000
0000
0000
0000
,
1000
0000
0010
0000
0000
0010
0100
0000
0001
0000
1000
0000
0100
0000
0010
0100
,
0010
0000
0000
0000
0000
0000
0000
0000
0000
0000
0000
0000
0001
0010
0100
1000
,
0001
0000
0100
0001
0100
0000
0010
0000
1000
0000
0100
0000
0000
0010
0100
0000
,
1000
0000
0000
0000
0000
0000
0000
0000
0010
0100
0001
1000
0010
0000
0100
0010
,
0100
0000
0010
0000
1000
0100
0010
0000
0001
0000
0100
0000
0000
0010
0100
0000
,
0000
0000
0010
0000
0000
0000
0100
0001
1000
0000
0000
1000
0100
0000
0000
0100
,
0010
0000
0100
0000
1000
0000
0001
0100
0010
0000
1000
0000
0200
0000
0010
0000
,
0000
0000
0000
0000
0000
0000
0000
0000
0000
0000
0001
0000
0010
0000
0301
0100
1000
0000
0000
0000
0000
0000
0000
0000
0001
0000
0000
0000
0100
0000
0010
0000
,
0100
0000
0001
0000
0010
0000
0000
0000
0100
0000
1000
0000
0001
0000
1000
0100
,
1000
0000
0010
0000
0100
0000
0001
0000
2000
0000
0000
0000
3001
0000
1000
0010
,
1000
0000
0001
0000
0200
0000
0000
0000
0302
0000
0000
0000
0013
0000
0100
1000
,
0200
0000
1000
0000
0310
0000
0000
0000
0002
0000
0000
0000
0103
0000
0010
1000
,
0010
0000
1000
0000
0100
0000
0000
0000
0020
0000
0000
0000
0031
0000
1000
0001
,
2000
0000
0010
0000
3001
0000
0000
0000
0021
0000
0000
0000
0031
0000
0010
0100
,
0010
0000
0100
0000
1100
0000
0000
0000
0102
0000
0000
0000
0013
0000
0100
1000
,
0100
0010
1000
0010
0002
0203
2300
3200
,
0300
0000
0010
1000
0001
0000
1000
0000
0200
0000
0000
0000
0301
0000
0200
0000
,
0000
1300
1001
0000
1020
0000
0031
0020
,
0000
1030
1001
0000
0011
0000
1100
0000
,
0110
0000
0000
0000
0010
0000
0001
0100
0001
0000
0010
0000
0100
0000
1000
0001
,
1000
0000
0010
0000
0001
0000
0010
0100
0010
0000
1000
0000
0100
0000
0001
0100
,
0001
0100
1000
0001
0101
0001
0010
0110
,
0000
1100
0000
1001
0000
1000
0010
0001
,
1000
0100
0001
0000
1000
0000
0010
0000
,
0100
1000
0100
0010
,
1000
0100
0010
1000
,
0010
0000
0001
0000
0100
0010
1000
0010
,
0100
0001
0010
0001
,
0100
1000
0001
0010
,
1000
0001
0011
0010
,
0100
1010
0010
0100
,
1001
0000
0001
0000
1000
0010
0001
1000
,
0100
0001
1000
0100
0001
1000
0010
0001
,
1000
0000
0010
0000
0100
0000
0001
0000
0010
0100
0010
0100
0010
0100
0010
0000
,
0100
1100
0000
0101
0000
0001
0100
0010
,
1010
1000
1001
0001
0010
0000
0001
0000
,
0100
0000
1000
0100
0001
0000
0010
0000
,
0100
1000
0010
1000
,
0100
0000
0001
0100
1000
0000
0010
0000
,
0100
0001
0100
0001
,
0010
0000
1000
0010
0001
0000
0100
0000
,
0010
1000
0100
1000
,
0010
0000
0001
0010
1000
0000
0100
0000
,
0010
0001
0101
0000
,
0100
0110
0000
1000
,
1001
0000
1100
0000
,
0100
0110
0000
0001
,
1001
0000
0000
0000
1100
0000
0000
1010
,
0000
0000
0101
0000
0000
0011
0000
0000
,
0110
0100
1000
0100
,
0010
0000
0001
0000
0100
0010
0100
0010
,
1000
0000
0001
0000
1000
0000
0100
0000
0020
0000
0000
0031
0000
0010
0100
1000
,
0001
0000
0010
0000
0001
0000
1000
0010
0100
0000
0000
0100
0000
0000
0100
0000
0001
0000
1000
0000
0100
0000
0010
0000
0000
0000
1000
0000
0000
0000
0010
0000
,
0100
0000
1000
0001
1000
0000
0010
0000
0000
0000
0100
0000
0010
0000
1000
0001
1000
0000
0100
0010
0100
0000
1000
0000
0001
0000
1000
0000
0010
0000
1000
0000
,
0001
0000
0100
0000
0010
0000
1000
0000
0000
0000
0100
0000
0010
0000
1000
0000
0010
0100
0010
0000
0001
0000
0010
0100
0010
0000
1000
0000
0010
0100
0010
0000
,
0001
0000
0000
0001
0000
0000
0100
0000
0010
0000
0000
0010
0000
0000
0000
0000
1000
0000
0001
0010
0001
0000
1000
0000
0000
0000
0010
0000
0100
0000
0001
0000
,
0000
0000
1001
0000
0000
0000
0011
0000
0000
0000
0010
0000
0100
0000
1000
0000
0001
0100
0001
0100
0010
0000
0001
0000
0000
0000
0010
0000
0100
0000
0001
0000
,
1000
0100
0010
0001
0100
0010
1000
0001
0010
0000
0000
0000
1001
0000
0000
0000
,
2000
0100
3002
0000
0013
0000
1001
0000
,
0002
0100
2003
0000
3010
0000
1001
0000
,
0000
0000
0001
0000
0010
0000
0000
0000
0100
0000
0100
0000
1000
0000
0001
1000
,
0001
0000
0100
0000
0010
0000
2010
3000
1010
0000
0000
0000
1000
0000
0001
0000
,
0010
0000
0210
0300
0110
0000
0100
0000
1000
0000
0001
0000
1000
0000
1020
0030
,
1010
0000
0000
0000
0010
0000
0100
0000
0001
0000
2001
3000
1001
0000
1000
0000
,
0100
0000
0010
0000
0001
0000
2001
3000
1001
0000
1000
0010
0100
0000
0001
0000
,
1000
0000
1200
0300
1100
0000
0000
0000
0100
0000
0010
0000
0001
0000
2001
3000
,
1001
0000
1000
0000
0010
0000
0100
0000
0001
0000
0021
0030
0011
0000
0000
0000
,
0010
0000
0200
0000
1300
0001
1000
0001
0100
0010
1000
0001
0010
0100
1000
0000
,
1010
0000
1000
0000
1001
0000
0011
0000
1010
0000
1000
0010
0000
0100
0001
0000
,
0011
0000
1100
0000
0101
0000
1010
0000
1001
0000
1000
0100
0000
0010
0001
0000
,
1001
0000
0000
0000
0001
0100
0000
0101
0000
0000
1010
0000
0000
0000
0001
0000
,
0010
0000
0000
0000
0000
0000
0000
0000
0100
0000
0000
0000
1000
0001
1000
0001
1000
0000
0000
0000
0100
0000
0000
0000
0010
0000
0000
0000
0001
0000
0000
0000
,
0100
0010
1000
0001
0010
0100
1000
0100
,
0010
0001
0100
0010
1000
0001
0010
0100
,
0010
0001
1000
0010
1000
0100
0010
0001
,
1000
0010
1000
0001
0010
0010
0100
0100
,
1000
1000
0001
0001
0100
0100
0010
0010
,
1000
0000
1000
0000
0001
0000
0001
0000
1000
0100
1000
0100
0010
0100
0010
0001
,
0010
0000
0001
0000
1000
0000
0001
0000
1000
0000
0010
0000
0100
0000
0001
0000
0020
0000
0000
0000
0000
0000
0130
1000
0100
1000
0001
0100
0010
1000
0001
0000
,
1001
0000
1000
0100
,
0000
0010
0001
0100
0001
0100
0010
1000
,
0002
0000
0003
0000
,
1000
0000
0001
0000
,
1000
0100
1000
0100
1000
0100
0010
0000
,
0001
0100
0001
0100
0001
0100
0010
0000
,
1000
0100
0001
0200
,
0000
0310
0001
0100
,
0010
1000
0010
0000
1000
0100
1000
0000
,
0001
0100
0001
0000
0010
0001
0010
0000
,
0001
0100
1000
0200
,
0000
0310
0100
0010
,
1000
0000
1000
0100
0000
1000
0010
1000
,
0001
0000
0001
0100
0000
0001
0010
0001
,
1000
0000
1000
0010
0000
1000
0100
1000
,
0001
0000
0100
0000
0010
0100
0010
0100
,
0010
1000
0100
0002
,
0000
0103
1000
0020
,
0000
0130
0001
2000
,
3100
0000
1000
0000
0001
0000
0100
0010
,
2000
0000
3001
0100
,
0000
1000
0100
0001
,
0010
0001
0010
0001
,
1000
0010
0100
1000
,
0100
0000
0001
0100
0010
0000
0000
0000
,
1000
0100
0010
0000
0000
0000
0001
0010
,
0100
0000
0000
0000
1000
0010
0100
0000
,
0000
0000
0001
0000
0100
0000
0010
1000
,
0001
0100
0010
1000
0001
0010
0100
0000
,
1000
0010
0100
0001
,
1000
0010
1000
0010
1000
0001
1000
0001
,
0100
0010
0100
0010
0100
0000
0010
0000
,
0100
0001
2000
3100
0001
2000
3001
0100
2000
3001
0100
2000
3100
0001
2000
3100
,
0001
0100
0020
0031
0100
0020
1030
0100
0020
0031
0100
0020
1030
0100
0020
0031
,
0100
0010
0002
0013
1000
0002
0013
1000
0002
1003
0010
0002
1003
0010
0002
0013
,
1000
0010
0200
0301
0010
0200
1300
0001
0020
0031
0100
0020
1030
0100
0020
0032
,
2003
0001
0001
0000
0010
0010
0000
0001
0001
0000
0100
0100
0000
0001
0001
0000
,
3002
1000
1000
0000
0010
0010
0000
1000
1000
0000
0100
0100
0000
1000
1000
0000
,
0023
0001
0001
0000
0100
0100
0000
1000
1000
0000
0100
0100
0000
0001
0001
0000
,
0230
0010
0010
0000
1000
1000
0000
0010
0010
0000
0001
0001
0000
0010
0310
0100
;

//---------------dance-single - XX Team-CSP----------------
#NOTEDATA:;
#CHARTNAME:XX Team-CSP;
#STEPSTYPE:dance-single;
#DESCRIPTION:XX Team-CSP;
#DIFFICULTY:Challenge;
#METER:18;
#CREDIT:XX Team;
#OFFSET:-0.079;
#DISPLAYBPM:100:400;
#BPMS:0=100,20=200,24=100,25=200,31=100,31.5=200,38=100,38.5=200,46=100,48=200,112=400,144=200,152=100,153.25=200,154.25=100,155=200,157=400,189=200,205=100,229=200,277=100,293=200,321=100,323=400,451=100;
#STOPS:153.25=0.15,153.75=0.15;
#SCROLLS:0=1,19.792=1.1,19.813=1.2,19.833=1.3,19.854=1.4,19.875=1.5,19.896=1.6,19.917=1.7,19.938=1.8,19.958=1.9,19.979=2,20=1,25=0.5,26=1,31.5=0.5,32=1,46=2,46.063=1.95,46.125=1.9,46.188=1.85,46.25=1.8,46.313=1.75,46.375=1.7,46.438=1.65,46.5=1.6,46.563=1.55,46.625=1.5,46.688=1.45,46.75=1.4,46.813=1.35,46.875=1.3,46.938=1.25,47=1.2,47.063=1.15,47.125=1.1,47.188=1.05,47.25=1,47.313=0.95,47.375=0.9,47.438=0.85,47.5=0.8,47.563=0.75,47.625=0.7,47.688=0.65,47.75=2,48=1,244.5=-1,244.563=-0.966,244.688=-0.866,244.813=-0.707,244.938=-0.5,245.063=-0.259,245.188=0,245.313=0.259,245.438=0.5,245.563=0.707,245.688=0.866,245.813=0.966,245.938=1,248.5=-1,248.563=-0.966,248.688=-0.866,248.813=-0.707,248.938=-0.5,249.063=-0.259,249.188=0,249.313=0.259,249.438=0.5,249.563=0.707,249.688=0.866,249.813=0.966,249.938=1,252.5=-1,252.563=-0.966,252.688=-0.866,252.813=-0.707,252.938=-0.5,253.063=-0.259,253.188=0,253.313=0.259,253.438=0.5,253.563=0.707,253.688=0.866,253.813=0.966,253.938=1,256.5=-1,256.563=-0.966,256.688=-0.866,256.813=-0.707,256.938=-0.5,257.063=-0.259,257.188=0,257.313=0.259,257.438=0.5,257.563=0.707,257.688=0.866,257.813=0.966,257.938=1,260.5=-1,260.563=-0.966,260.688=-0.866,260.813=-0.707,260.938=-0.5,261.063=-0.259,261.188=0,261.313=0.259,261.438=0.5,261.563=0.707,261.688=0.866,261.813=0.966,261.938=1,264.5=-1,264.563=-0.966,264.688=-0.866,264.813=-0.707,264.938=-0.5,265.063=-0.259,265.188=0,265.313=0.259,265.438=0.5,265.563=0.707,265.688=0.866,265.813=0.966,265.938=1,268.5=-1,268.563=-0.966,268.688=-0.866,268.813=-0.707,268.938=-0.5,269.063=-0.259,269.188=0,269.313=0.259,269.438=0.5,269.563=0.707,269.688=0.866,269.813=0.966,269.938=1,272.5=-1,272.563=-0.966,272.688=-0.866,272.813=-0.707,272.938=-0.5,273.063=-0.259,273.188=0,273.313=0.259,273.438=0.5,273.563=0.707,273.688=0.866,273.813=0.966,273.938=1,455=0.938,459=0.875,463=0.825,467=0.75,471=0.688,475=0.625,479=0.563,483=0.5;
#TIMESIGNATURES:0=4=4,24=3=4,27=4=4,39=3=4,42=4=4,46=2=4,48=4=4,152=5=4,157=4=4,321=2=4,323=4=4;
#LABELS:0=Song Start,3=RGTM,48=Marten,205=Talkion,277=NewbStepper,482.75=Song End;
#NOTES:
0000
0000
0000
0000
0000
0000
0002
0023
,
2030
3010
0001
1000
0010
0001
0000
1000
0200
0000
0000
0000
0320
0000
2030
0000
,
3002
0013
1000
0002
0103
1000
0020
0130
2000
0000
3200
0000
0302
0000
0023
0000
,
2030
3010
0001
2000
3010
0100
0002
0013
0200
0000
0000
0000
0320
0230
1300
0002
,
0103
0010
2000
3100
0001
1000
0020
0130
2000
0000
0000
0000
3002
0000
0203
0000
,
1300
0000
0100
0001
0000
1000
0100
0000
0110
0000
0001
0000
1000
0000
0010
1000
,
0100
0000
0000
0000
0000
0000
0000
0000
0010
0100
1000
0001
0100
0000
0010
1000
,
0000
0000
0001
0000
0010
0100
0010
0100
1000
0001
0100
0000
0010
0000
0000
0000
,
0100
0010
1000
0001
0010
0100
1000
0000
0001
0010
1000
0000
0010
0000
0001
1000
,
0010
0000
0110
0000
0100
0001
1000
0100
0010
0000
0001
0010
0100
1000
0001
0100
,
0010
0000
0000
0100
0001
0100
0010
1000
0001
0000
0010
0000
0100
1000
0100
0010
,
0001
0000
0000
0000
1001
0000
0000
0000
1000
0000
0000
0000
0020
0000
0000
0000
1000
0000
1000
0000
0100
0000
0100
0000
0001
0000
1000
0000
0100
0000
0031
0010
,
1000
0000
0100
0000
0010
0000
0001
0100
1000
0000
0100
0000
1001
0000
0000
0000
,
0001
0000
0100
0000
0010
0000
1000
0100
0002
0000
0203
0000
2300
0000
3020
0000
,
0230
0000
0000
0000
1300
0000
0100
0001
0010
0000
0100
0000
0120
0000
0000
0000
,
0032
0000
0000
0000
1003
0000
0100
0001
0200
0000
0010
0000
1300
0000
0000
0000
,
2100
0000
0000
0000
3010
0000
0001
0010
1000
0000
0100
0000
0110
0000
0000
0000
,
0012
0000
0000
0000
0103
0000
1000
0100
0020
0000
1000
0000
0130
0000
0000
0000
,
0201
0000
0000
0000
0310
0000
1000
0100
0001
0000
0100
0000
0110
0000
0000
0000
,
2100
0000
0000
0000
3001
0000
0010
0000
1000
0000
0010
0001
1000
0001
0100
0010
,
1000
0100
0010
0012
0000
0103
1001
0000
,
0012
0000
0010
2003
0000
3100
1001
0000
,
2010
0000
0010
3002
0000
0103
1001
0000
,
0011
0000
0000
0000
0101
0000
0000
0000
1100
0000
0000
0000
1000
0000
0001
0100
,
2000
0000
3100
0000
0010
0000
1000
0100
0002
0000
0103
0000
0010
0000
0001
0010
,
2000
0000
3010
0000
0100
0000
1000
0010
0002
0000
0013
0000
0100
0000
0001
0000
,
1002
1003
0100
0220
0330
0022
0033
2200
,
3300
1000
0010
0001
1000
0100
0001
1000
,
0001
0010
1000
0001
,
1000
0010
0001
1000
,
0010
0001
1000
0001
,
0010
1000
0100
0010
0001
0000
1000
0000
,
0001
0100
1000
0001
,
1000
0100
0001
1000
,
1100
0100
0100
0101
,
0100
0100
1001
0100
,
1002
0010
1003
2000
0010
3001
0002
0100
,
1003
2000
0100
3001
1000
0010
0100
0001
,
1000
0100
0001
0100
1000
0100
0001
0100
1000
0000
1100
0000
0000
0000
0101
0000
0000
0000
0110
0000
0010
0000
1000
0000
1001
0000
0000
0000
0010
0000
0000
0000
,
0110
0100
1001
0000
1000
0000
0100
0000
,
0010
0100
1000
0010
0100
0000
1000
0000
,
0100
0010
1000
0100
,
0010
0001
0100
0010
0001
0000
0010
0000
,
1000
0001
0010
0100
,
0001
0100
0010
0001
0100
0000
0010
0000
,
1000
0100
0010
1000
,
0010
0100
1000
0010
0100
0000
0001
0000
,
0100
0000
0101
0001
0010
0110
0100
1000
,
1001
0000
1100
1000
0010
0110
0100
0001
,
1001
0000
0000
0000
0101
0000
0001
0010
0000
0000
1100
0000
1000
0010
0000
0000
,
0110
0000
0010
0000
1000
0000
1000
0000
0001
0000
0001
0000
1000
0100
0010
0001
,
0100
0000
0010
0000
1000
0000
0001
0000
2000
0000
0000
0000
0000
0000
3100
0000
0000
0000
1000
0000
0001
0000
1000
0000
0010
0100
0001
0100
0010
1000
0001
0010
,
0200
0000
0000
1000
0000
0000
0310
0000
0001
0000
1000
0000
0010
0000
0100
0000
0000
0000
1000
0000
0000
0000
0100
0000
0010
0000
1000
0001
1000
0000
0100
0000
,
0000
0000
0010
0000
0100
0000
1000
0001
1000
0000
0010
0100
0010
0000
1000
0000
0001
0000
1000
0000
0100
0000
1000
0000
0001
0000
0100
0000
0010
0000
1000
0000
,
0000
0000
0100
0000
0010
0000
1000
0000
0010
0100
0010
0100
1000
0000
0010
0100
0010
0100
1000
0000
0100
0010
0100
0000
0001
0000
0100
0010
0000
0010
1000
0000
,
0001
0000
0010
0100
0000
0000
1000
0100
0010
0000
0001
1000
0001
0000
0100
0000
0010
0000
1000
0000
0010
0000
0100
0000
0000
0000
0101
0000
0000
0000
1001
0000
,
0000
0000
1000
0100
0010
0001
1000
0001
0100
0010
1000
0001
0100
0010
0001
0000
0000
0000
0010
0000
0100
0000
0001
0000
0010
0000
0100
0000
1000
0000
0001
0000
,
0100
0010
1000
0001
0010
0000
0000
0000
1001
0000
0000
0000
2000
0000
0100
0000
,
3002
0000
0013
0000
1001
0000
0002
0100
,
2003
0000
3010
0000
1001
0000
0000
0001
,
0010
0000
0000
0000
0100
0000
0100
0000
1000
0000
0001
1000
0010
1000
0001
0000
,
0100
0000
0010
0000
0000
0000
0000
0000
0020
0030
0000
0000
1000
0000
0001
0010
,
0001
0000
1000
0000
0000
0000
0000
0000
2000
3000
0010
0000
0100
0000
0001
0000
,
1000
0100
0010
0000
0000
0000
0000
0000
0020
0030
0001
1000
0001
0000
0100
0010
,
0100
0000
0001
0000
0000
0000
0000
0000
0002
0003
1000
0100
0010
0000
0001
1000
,
0001
1000
0010
0000
0000
0000
0000
0000
0020
0030
0100
0010
1000
0000
0001
0000
,
0010
0000
0100
0000
0000
0000
0000
0000
0200
0300
0000
0000
1000
0000
0001
0010
,
0001
0000
1000
0000
0000
0000
0000
0000
2000
3000
0010
0000
0100
0000
0001
1000
,
0001
0000
0010
0000
0000
0000
0000
0000
0020
0030
0000
0000
0100
0000
2000
0000
,
3001
0000
0100
0000
0001
0000
0100
0000
0010
0000
0100
0000
0001
0000
0010
0000
1000
0000
0010
0000
0001
0000
0100
0010
0100
0000
0000
0000
1010
0000
0000
0000
,
1001
0000
0000
0000
0011
0000
0000
0000
0010
0000
0100
0000
1000
0000
0010
0000
0001
0000
0010
0000
1000
0000
0100
0010
0100
0000
0000
0000
0011
0000
0000
0000
,
1001
0000
0000
0000
1100
0000
0000
0000
0100
0000
1000
0000
0010
0000
0001
0000
0010
0000
1000
0000
0100
0000
0010
0100
0010
0000
0000
0000
1100
0000
0000
0000
,
1000
0000
0001
0000
0000
0000
0001
0000
0100
0000
0001
0000
0010
0000
1000
0000
0010
0000
0001
0000
0100
0000
0010
0100
0010
0000
0000
0000
0101
0000
0000
0000
,
1001
0000
0000
0000
1000
0100
0010
0001
1000
0000
0000
0000
0100
0000
0000
0000
0010
0000
0000
0000
0100
0000
0000
0000
0001
0000
0000
0000
0100
0000
0000
0000
,
0010
0000
0100
1000
0001
0000
0100
0000
0010
0000
0100
0000
1000
0000
0100
0000
,
0010
0000
0100
0001
1000
0000
0010
0000
0100
0000
0010
0000
0001
0000
0010
0000
,
0100
0000
0010
1000
0001
0000
0010
0000
0100
0000
0010
0000
1000
0000
0010
0000
,
0100
0000
0010
0001
1000
0000
0001
0100
0001
0000
1000
0100
1000
0000
0001
0100
,
0001
0000
1000
0100
1000
0000
0010
0100
0001
0000
0010
0100
1000
0000
0010
0100
,
0001
0000
0010
0100
1000
0001
0100
0001
1000
0001
0100
0010
1000
0100
0010
0001
,
0100
0000
0010
0000
1000
0000
0001
0000
0020
0000
0000
0000
0000
0000
0130
1000
0100
0010
0001
0100
0010
1000
0100
0010
0001
0000
0000
0000
0000
0000
0000
0000
,
0000
0000
0100
0000
0010
0000
0000
1000
,
0010
1000
0100
0010
0001
0100
0020
0000
,
0000
0000
0030
1000
,
0000
0000
0001
0000
0000
0000
1000
0100
,
0010
0001
1000
0010
0100
0001
1000
0100
,
0010
0001
1000
0010
0100
0001
0010
0000
,
0100
1000
0002
0000
,
1003
0000
0010
1000
0001
1000
0100
0010
,
0001
0100
0010
1000
0100
0010
0001
0100
,
0010
1000
0100
0010
0001
0100
0010
0000
,
1000
0100
0002
0000
,
0103
0000
0010
0000
1000
0000
0010
0001
,
0010
0100
0000
1000
0010
0001
0010
1000
,
0010
0100
0000
0001
0010
1000
0010
0001
,
0010
0100
0000
1000
0100
0001
0100
0010
,
0001
0100
0010
1000
0100
0010
0001
0000
,
0100
1000
0200
0000
,
0301
1001
0000
1000
,
0100
0001
0100
2000
,
0000
0000
3001
0000
0010
0001
0200
0000
,
0000
1300
0100
0000
,
0001
0100
0010
1000
,
0001
1000
0001
1000
,
0100
0010
0001
1000
,
0001
0100
1000
0000
0100
0000
1000
0100
,
0001
0000
1000
0000
0001
0010
1000
0000
,
0010
0000
1000
0010
0001
0000
1000
0000
,
0001
0000
0100
0000
1000
0100
1000
0100
,
0001
0100
0010
1000
0001
0010
0100
0000
,
1000
0000
0010
0000
0100
0000
0001
0100
,
0010
1000
0001
0100
0010
1000
0100
0010
,
0001
0000
1000
0000
0010
0000
0000
0000
0100
0000
0000
0000
1001
1000
0200
0301
,
1000
0020
0031
1000
0200
0301
1000
0020
0031
1000
0200
0300
1001
0001
0200
1300
,
0001
0020
1030
0001
0200
1300
0001
0020
1030
0001
0200
0300
1001
1000
0020
0031
,
1000
0200
1300
0001
0020
1030
0001
0200
0301
1000
0020
0030
1001
0001
0020
1030
,
0001
0200
0301
1000
0020
0031
1000
0200
1300
0001
0010
0100
1001
0001
0200
1300
,
0001
0020
1030
0001
0200
1300
0001
0020
1030
0001
0200
0300
1001
1000
0200
0301
,
1000
0020
0031
1000
0200
0301
1000
0020
0031
1000
0200
0300
1001
0001
0020
1030
,
0001
0200
0301
1000
0020
0031
1000
0200
1300
0001
0020
0030
1001
1000
0020
0031
,
1000
0200
1300
0001
0020
1030
0001
0200
0301
1000
0010
0100
0000
0000
0000
0000
;

//---------------dance-double - XX Team-BDP----------------
#NOTEDATA:;
#CHARTNAME:XX Team-BDP;
#STEPSTYPE:dance-double;
#DESCRIPTION:XX Team-BDP;
#DIFFICULTY:Easy;
#METER:11;
#CREDIT:XX Team;
#OFFSET:-0.079;
#DISPLAYBPM:200;
#BPMS:0=200;
#LABELS:0=Song Start,6=RGTM,72=Kekkle,136=Marten,200=Talkion,296=Pandemonium X,360=NewbStepper,424=RGTM,487.5=Song End;
#NOTES:
00000000
00000000
00000000
00000000
,
00000000
00000000
00000000
00000000
,
00000000
00000000
00000000
00000000
,
00000000
00000000
00000000
00000000
,
00000000
00000000
00000000
00000000
,
00000000
00000000
00000000
00000000
,
00000000
00000000
00000000
00000000
,
00000000
00000000
00000000
00000000
,
00000000
00000000
00000000
00000000
,
00000000
00000000
00000000
00000000
,
10000000
00000000
00000000
00100000
01000000
00000000
00001000
00000000
,
00010000
00000000
00000000
00000000
,
00001000
00000000
00000000
00000010
00000100
00000000
00000000
00001000
,
00000001
00000000
00000000
00000000
,
00001000
00000000
00000000
00000100
00000010
00000000
00000000
00001000
,
00000000
00010000
00000000
00000000
00100000
00000000
01000000
00000000
,
01000000
00000000
00010000
10000000
00010000
10000000
00000000
02000000
,
00000000
00000000
00000000
00000000
00000000
00010000
00010000
00000000
,
13000000
00000000
00010000
00000000
00000000
01000000
00100000
00000000
,
00010000
00000000
00001000
00000000
00000100
00000010
00000100
00000010
,
00000100
00000000
00000001
00000000
00000000
00001000
00000100
00000000
,
00020000
00000000
02030000
00000000
,
03100000
00000000
00010000
00000000
00000000
10000000
00100000
00000000
,
02000000
00000000
03002000
00000000
,
00003200
00000000
00000000
00000301
,
00001000
00000000
00000100
00010000
00000000
00001000
00010000
00001000
,
00010000
00000000
00001000
00200000
00000000
00000000
00000000
00000000
,
00310000
00000000
00000000
10000000
00000000
00000000
00100000
00000000
,
01000000
00000000
00001000
00010000
00000000
00000000
00000100
00000000
,
00001000
00000001
00000100
00001000
,
00010000
00100000
00010000
00001000
,
00000010
00001000
00010000
01000000
,
10000000
00010000
10000000
00010000
00000000
01000000
00000000
02000000
,
00000000
00000000
00010000
03010000
,
00100000
00000000
00010000
00000000
01000000
00001000
00010000
00000000
,
00000100
00000000
00000010
00000000
00000001
00000100
00000001
00000000
,
00001000
00000000
00000100
00000000
00010000
00001000
00100000
00000000
,
00110000
00000000
00000000
10010000
00000000
00000000
10100000
00000000
,
10000000
00000000
10000000
00100000
00000000
00100000
01000000
00000000
,
01000000
00010000
00000000
00010000
00100000
00000000
00001000
00000000
,
00020000
00000000
00000000
00000000
00001000
00031000
00000000
00001000
,
00000000
00001000
00010000
00000000
00011000
00000000
00001010
00000000
,
00000010
00001000
00000100
00000010
,
00000001
00000100
00000010
00010000
,
00001000
01000000
00100000
10000000
,
01000000
00100000
00001000
00010000
,
00000100
00000000
00000010
00000001
00000000
00000001
00000010
00000000
,
00000100
00000000
00001000
00000010
00000000
00000010
00001000
00000000
,
00011000
00000000
00000000
01010000
00000000
00000000
10100000
00000000
,
10000000
00000000
00010000
00000000
00100000
01000000
00100000
01000000
,
10000000
00000000
00000000
00010000
00000000
00010000
01000000
00000000
,
00002000
00023000
00030100
00000010
,
00000002
00000000
00000000
00001003
00000000
00000010
00000000
00001000
,
00000001
00000000
00000000
00000010
00000000
00000000
00000010
00000000
,
00000100
00010000
00001000
00100000
,
00010000
00000000
00000000
10000000
00000000
10000000
00100000
00000000
,
00020000
00000000
00000000
00032000
00000000
00000000
00003100
00000000
,
00000002
00000013
00000200
00000310
,
00000001
00000001
00001000
00001000
,
00000100
00000100
00010000
00010000
,
00002000
00000000
00000000
01003000
00000000
01000000
00100000
00000000
,
10000000
10000000
00010000
00010000
,
00100000
00000000
01000000
00000000
00000000
00100000
01000000
00000000
,
00010000
00000000
00001000
00000000
00000000
00010000
00001000
00000000
,
00000010
00000000
00000100
00000000
00000000
00000010
00000100
00000000
,
00001000
00000001
00001000
00000010
00000000
00000010
00000000
00000110
,
00000000
00000000
00000110
00000000
00000000
00000000
00000000
00010010
,
00000000
00000000
00010010
00000000
00000000
00000000
00000000
00101000
,
00000000
00000000
00101000
00000000
00000000
00000000
00000000
10010000
,
00000000
00000000
10010000
00000000
00000000
00000000
00000000
01001000
,
00000000
01001000
00000000
00010100
,
00000000
00000000
00010100
00000000
00000000
00000000
00000000
00000110
,
00000000
00000000
00000110
00000000
00000000
00000000
00000000
00001001
,
00000000
00000000
00001001
00000000
00000000
00011000
00000000
00000000
,
10010000
00000000
00000000
00000000
,
01000000
00000000
00001000
00010000
,
00000100
00000000
00000000
00001000
00000000
00000000
00000010
00000000
,
00000100
00000001
00000100
00000010
,
00010000
00000000
00000000
00000100
00000000
00000000
00010000
00000000
,
00010000
00000000
00011000
00000000
,
01100000
00000000
10000000
00100000
00000000
00000000
01000000
00000000
,
00011000
00000000
00000000
00010100
00000000
00000000
00002100
00000000
,
00003010
00000100
00000001
00001000
,
00001100
00000100
00010100
00011000
,
00010100
00000000
00000100
00010000
00000000
00001000
01000000
00000000
,
00100000
10000000
10100000
00110000
,
00101000
00000000
00100000
00001000
00000000
00010000
00000010
00000000
,
00000100
00000000
00000001
00001000
00000000
00000100
00010000
00000000
,
00001000
00010000
00001000
00010000
00001000
00010000
00001000
00010000
,
00011000
00000000
00000000
00010000
00010000
00000100
00000010
00000001
,
00000001
00000000
00000000
00001000
00000000
00000001
00000010
00000100
,
00001000
00000000
00000100
00010000
,
00001000
00100000
00010000
01000000
00001000
00100000
00010000
01000000
,
00100000
00100000
10000000
10000000
,
00010000
01000000
00100000
01000000
00010000
01000000
00100000
01000000
,
00010000
00100000
00001000
00010000
,
00000010
00001010
00000100
00000110
,
00000001
00000000
00001001
00000000
00001000
00000000
00000100
00010000
,
00001000
00000000
00100000
00010000
00000000
00100000
00001000
00000000
,
00010000
00000000
00000010
00001000
00000000
00000010
00010000
00000000
,
00001000
00000000
01000000
00010000
00000000
01000000
00001000
00000000
,
00010000
00000000
00000100
00001000
00000000
00000100
00010000
00000000
,
00100000
00000000
10000000
00000000
00010000
00010000
00000000
01000000
,
01000000
00000000
00001000
00001000
00000000
00010000
00010000
00000000
,
00001000
00000100
00000001
00000010
,
00000100
00010000
00000100
00010000
00001000
00100000
00001000
00100000
,
00010000
00000000
01000000
00000000
00000000
01000000
00000000
00000000
,
01000000
00000000
00000000
01000000
00000000
00000000
00100000
00000000
,
10000000
00000000
01000000
00000000
00000000
01000000
00000000
00000000
,
01000000
00000000
00000000
01000000
00000000
00000000
00100000
00000000
,
00001000
00000000
00010000
00000000
00000000
00010000
00000000
00000000
,
00010000
00000000
00000000
00010000
00000000
00000000
00001000
00000000
,
00000010
00000000
00000001
00000000
00000000
00000001
00000000
00000000
,
00000001
00000000
00000000
00000001
00000000
00000000
00000001
00000000
,
00002000
00000000
00000001
00000000
00000000
00000001
00000000
00000000
,
00000010
00000000
00000000
00000010
00000000
00000000
00000100
00000000
,
00003200
00000000
00001000
00000000
00000000
00001000
00000000
00000000
,
00000010
00000000
00000000
00000010
00000000
00000000
00010000
00000000
,
00020300
00000000
00000100
00000000
00000000
00000100
00000000
00000000
,
00001000
00000000
00000000
00001000
00000000
00000000
00100000
00000000
,
00230000
00000000
00010000
00000000
00000000
00010000
00000000
00000000
,
01000000
00000000
00000000
01000000
00000000
00000000
10000000
00300000
;

//---------------dance-double - XX Team-DDP----------------
#NOTEDATA:;
#CHARTNAME:XX Team-DDP;
#STEPSTYPE:dance-double;
#DESCRIPTION:XX Team-DDP;
#DIFFICULTY:Medium;
#METER:13;
#CREDIT:XX Team;
#OFFSET:-0.079;
#DISPLAYBPM:100:200;
#BPMS:0=100,36=200,164=100,188=200,236=100,252=200,348=100;
#LABELS:0=Song Start,3=RGTM,36=Kekkle,100=Marten,164=Talkion,236=Pandemonium X,284=NewbStepper,348=RGTM,379.75=Song End;
#NOTES:
00000000
00000000
00000000
00000000
00000000
00000000
00010000
00001000
,
00200000
00000000
00000000
00000000
02300000
00000000
13000000
00010000
,
01000000
00000000
00000000
00100000
00000000
00000000
00010000
00000000
00001000
00000000
00000010
00000000
00000001
00000000
00000100
00000000
,
00001000
00000000
00000000
00010000
00000000
00000000
00100000
00000000
02000000
00000000
00000000
00000000
03010000
10000000
00000000
00010000
,
00000000
00200000
00000000
01300000
00020000
00000000
00031000
00000100
,
00000001
00000000
00000010
00000100
00001000
00000001
00000000
00000100
00000010
00000000
00000000
00000000
00010000
00000000
00001000
00000000
,
00010000
00100000
00000000
10000000
00010000
00100000
00000000
01000000
10000000
00000000
00000000
00000000
00100000
01000000
00100000
00000000
,
01000000
00000000
00010000
00100000
00001000
00010000
00000000
00011000
00000000
00001000
00000000
00000100
00000010
00000000
00001000
00000001
,
00000010
00000000
00000100
00010000
00001000
00010000
00200000
01000000
00000000
00000000
00000000
00000000
00000000
00010000
00010000
01000000
,
10300000
00000000
01000000
10000000
00000000
10000000
00010000
00000000
,
00100000
00000000
00101000
00000000
00001000
00010000
00001000
00000010
,
00000001
00000000
00000100
00000001
00000000
00000001
00001000
00000000
,
00001001
00000000
00000001
00000100
00000000
00000100
00001000
00000000
,
00010000
00000000
00000010
00001000
00000000
00000100
00000010
00000000
,
00001000
00101000
00010000
00010010
,
00001000
00000000
00100000
00010000
00000000
01000000
00100000
00000000
,
10000000
00000000
01000000
00010000
00001000
00000100
00000001
00000000
,
00001000
00000100
00000010
00000001
00000000
00000100
00001000
00000000
,
00010000
00000000
00000100
00001000
00000100
00010000
00001000
00000000
,
00010000
00000000
01000000
10000000
00000000
10000000
00010000
00000000
,
01010000
00000000
01100000
00000000
10100000
00000000
10000000
01000000
,
00010000
00000000
00001000
00000010
00000001
00000000
00000001
00000100
,
00001000
00000000
00010000
00100000
10000000
00000000
00010000
10000000
,
00010000
00100000
00001000
00010000
00000000
00000100
00000010
00000000
,
00000001
00000100
00001000
00000100
00001000
00010000
01000000
00000000
,
10000000
00000000
00100000
10000000
01000000
00100000
00010000
00000000
,
10000000
01000000
00010000
00001000
00000010
00000001
00001000
00000000
,
00000001
00000000
00000010
00000001
00000100
00000010
00001000
00000000
,
00000001
00000100
00001000
00010000
00100000
10000000
00010000
00100000
,
20000000
00000000
00000000
30200000
00000000
00000000
00320000
00000000
,
00000000
02030000
00000000
00000000
03001000
00010000
01000000
00100000
,
00002000
00000000
00000000
00000000
00013000
00001000
00000000
00011000
,
00000000
00010000
00000100
00000010
00000001
00000100
00001000
00000100
,
00000001
00001000
00000100
00000000
00010000
00001000
00100000
00000000
,
01000000
10000000
00100000
00000000
01000000
00001000
00010000
00000000
,
00001000
00000010
00000001
00000000
00000001
00000100
00001000
00000000
,
00010000
00100000
10000000
00000000
10000000
01000000
00010000
01000000
,
01100000
00000000
00100000
10000000
00000000
00100000
00010000
00000000
,
01000000
00000000
00100000
00010000
00000000
00100000
10000000
00000000
,
10010000
00000000
00000000
00100000
00000000
00000000
00011000
00000000
00000000
00000010
00000000
00000000
00001001
00000000
00001000
00000000
,
00000001
00000100
00000010
00001000
00010000
01000000
00100000
10000000
,
20010000
00000000
00000000
00000000
00000000
00000000
31000000
00000000
00000000
00000000
00100000
00000000
01000000
00000000
00000000
00000000
00100000
00000000
00001000
00000000
00100000
00000000
00001000
00000000
00010000
00000000
00000000
00010000
00000000
00000000
00010000
00000000
,
00000010
00001000
00000010
00000100
00000000
00000001
00000000
00001000
00000100
00000000
00000100
00000010
00000000
00000100
00010000
00001000
,
01000000
00001000
00010000
00000000
00001000
00100000
00010000
00000000
10000000
00010000
10000000
00100000
00000000
01000000
00100000
00010000
,
00200000
00000000
01000000
00000000
00300000
00000000
00200000
00000000
00010000
00000000
00300000
00000000
00011000
00000000
00000000
00000000
00001000
00000000
00000000
00001000
00000000
00000000
00010000
00000000
00000100
00000000
00000000
00000100
00000000
00000000
00000000
00000000
,
00001000
00000100
00001000
00000001
00000000
00000010
00000100
00000010
00000000
00001010
00000000
00011000
00000000
00001000
00010000
00001000
,
01000000
00010000
01000000
00100000
00000000
00010000
00100000
01000000
00010000
00000000
10000000
00000000
01000000
10000000
00010000
00100000
,
00001000
00000000
00011000
00000000
00000000
00001000
00000100
00000000
,
00000001
00000000
00001001
00000000
00000000
00000001
00000010
00000000
,
00001000
00000000
00011000
00000000
00000000
00001000
01000000
00000000
,
00010000
00010000
10000000
00000000
01000000
00100000
00001000
00012000
,
00000000
00000000
00003100
00000000
00001000
00010000
00000000
00021000
,
00000000
00000000
01030000
00100000
01000000
10000000
00000000
20010000
,
00000000
00000000
30100000
00000000
01000000
00100000
00000000
20010000
,
00000000
00000000
31000000
00100000
01000000
00010000
00000000
00021000
,
00000000
00000000
00130000
00000000
00010000
00001000
00000000
00012000
,
00000000
00000000
00003010
00000000
00000100
00001000
00000000
00002001
,
00000000
00000000
00003010
00000000
00000100
00000010
00000000
00002001
,
00000000
00000000
00003100
00000000
00000010
00002000
00000000
00013000
,
00011000
00001000
01000000
00100000
10100000
10000000
10010000
00110000
,
00101000
00000000
00100000
00001000
00000000
00001000
00010000
00000000
00000100
00000000
00010000
00000000
00000010
00000000
00000001
00000000
,
00000010
00000000
00000100
00000001
00000000
00000001
00000010
00000000
00000110
00000000
00000100
00000000
00001100
00000000
00000100
00000000
,
00000000
00000000
00000000
00000000
00011000
00000000
00000000
00000000
00000000
00000000
00000000
00000000
00000100
00000000
00000000
00000000
00010000
00000000
00000000
00000000
00001000
00000000
01000000
00000000
00000000
00000000
01000000
00000000
00100000
10000000
00100000
10000000
,
01000000
00100000
01000000
00000000
00100000
00010000
00100000
00000000
,
00001000
00100000
00001000
00000000
00010000
00000100
00010000
00000000
,
00001000
00010000
00001000
00000000
00010000
00000100
00010000
00000000
,
00000010
00001000
00000010
00000000
00000100
00000001
00000010
00000000
,
00000100
00000010
00000010
00000000
00000001
00000100
00000100
00000000
,
00000010
00010000
00010000
00000000
00001000
00100000
00100000
00000000
,
00001000
00000000
01000000
00100000
00000000
10000000
00010000
00000000
,
10010000
00000000
00000000
00010000
01000000
00001000
00100000
00001000
,
00011000
00000000
00010000
01000000
00000000
10000000
00100000
01000000
,
00020000
00030000
10000000
01000000
,
00010000
00001000
00000100
00000010
00010000
00001000
00000100
00000010
,
00001000
00000001
00000100
00000010
00000000
00010000
00001000
00010000
,
00100000
01000000
00001000
00010000
01000000
00100000
00001000
00010000
,
00100000
01000000
00010000
10000000
00000000
01000000
00100000
00010000
,
01000000
00000000
00000000
01000000
00000000
00000000
00001000
00000000
00010000
00000000
00000000
00010000
00000000
00000000
00000100
00000000
,
00000010
00000000
00000000
00000010
00000000
00000000
00000100
00000000
00000110
00000000
00000000
00000000
00000001
00000000
00000100
00000000
,
00001000
00010000
01000000
00010000
00000000
00001000
00011000
00000000
,
00010000
00001000
00000100
00001000
00010000
00000000
00011000
00000000
,
00001000
00010000
00100000
10000000
00000000
00010000
01000000
00100000
,
10000000
01000000
10000000
01000000
00100000
00001000
00010000
00000000
,
00000100
00001000
00000001
00000000
00000100
00000010
00000000
00000100
,
00001000
00000000
00010000
00001000
00000000
00010000
00100000
10000000
,
00010000
10000000
01000000
00010000
00001000
00000010
00000001
00001000
,
00000001
00000100
00001000
00010000
00100000
10000000
00010000
01000000
,
01100000
00000000
00100000
00000000
00000000
10000000
00000000
00000000
01000000
00000000
00000000
00100000
00000000
00000000
00001000
00000000
,
00010000
00001000
00000010
00000000
00000000
00000001
00000000
00000000
00000100
00000000
00000000
00000010
00000000
00000000
00010000
00000000
,
00001000
00010000
01000000
00000000
00000000
10000000
00000000
00000000
00100000
00000000
00000000
01000000
00000000
00000000
00001000
00000000
,
00010000
00001000
00000100
00000000
00000000
00000001
00000000
00000000
00000010
00000000
00000000
00000100
00000000
00000000
00010000
00000000
,
00002000
00000000
00010000
00000000
00000000
00100000
00000000
00000000
00010000
00000000
00000000
00000100
00000000
00000000
00010000
00000000
,
00023000
00000000
00001000
00000000
00000000
00000010
00000000
00000000
00001000
00000000
00000000
01000000
00000000
00000000
00001000
00000000
,
00032000
00000000
00010000
00000000
00000000
00000010
00000000
00000000
00100000
00000000
00000000
00000010
00000000
00000000
00010000
00000000
,
00023000
00000000
00001000
00000000
00000000
00100000
00000000
00000000
00000010
00000000
00000000
00100000
00000000
00000000
00001000
00031000
;

//---------------dance-double - XX Team-EDP----------------
#NOTEDATA:;
#CHARTNAME:XX Team-EDP;
#STEPSTYPE:dance-double;
#DESCRIPTION:XX Team-EDP;
#DIFFICULTY:Hard;
#METER:17;
#CREDIT:XX Team;
#OFFSET:-0.079;
#DISPLAYBPM:100:400;
#BPMS:0=100,20=200,48=100,50=200,114=400,146=200,162=400,226=100,250=200,290=100,306=200,334=100,336=400,464=100;
#STOPS:265.5=0.3,268.5=0.3,271.5=0.3,274.5=0.3,277.5=0.3,280.5=0.3,283.5=0.3,286.5=0.3;
#TIMESIGNATURES:0=4=4,48=2=4,50=4=4,334=2=4,336=4=4;
#LABELS:0=Song Start,3=RGTM,50=Marten,226=Talkion,290=Pandemonium X,336=NewbStepper,464=RGTM,495.75=Song End;
#NOTES:
00000000
00000000
00000000
00000000
,
10000000
01000000
00010000
10000000
00100000
00010000
00000000
01000000
00000000
00000000
00000000
00000000
00000000
00000000
00000000
00000000
,
00001000
00000010
00000001
00001000
00000000
00000100
00000001
00001000
00000000
00000000
00000000
00000000
00000000
00000000
00000000
00000000
,
00010000
00100000
10000000
00010000
01000000
10000000
00010000
00100000
00000000
00000000
00000000
00000000
00010000
00000000
00001000
00000000
,
00001000
00000100
00000001
00001000
00000100
00000001
00001000
00000010
00000000
00000000
00000000
00000000
00000000
00000000
00000000
00000000
,
00000001
00000000
00000010
00000000
00000000
00000010
00000100
00000000
00010000
00000000
00001000
00000000
01000000
00000000
00100000
01000000
,
00100000
00000000
00000000
10000000
,
01000000
00000000
00100000
00010000
00100000
00000000
01000000
00000000
10000000
00000000
00100000
00000000
00000000
00100000
01000000
00000000
,
00001000
00000000
00000000
00000000
00010000
00000000
00001000
00010000
00001000
00000000
00010000
00000100
00010000
00000000
00000100
00000010
,
00000001
00000000
00000000
00000000
00000100
00000010
00001000
00000010
00000100
00000000
00001000
00000000
00000000
00001000
00010000
00000000
,
00000000
00000000
00010000
00000000
01000000
00100000
01000000
00000000
10000000
00000000
00000000
10000000
00100000
00000000
00000000
00100000
,
01000000
00000000
00100000
00000000
00010000
00000000
00001000
00010000
00001000
00000000
00000010
00000000
00000001
00000000
00000200
00000000
,
00000000
00000000
00000000
00000000
00000000
00000000
00000000
00000000
00000000
00000000
00001000
00000000
00000010
00000000
00001300
00000100
00000001
00000000
00000000
00000000
00000000
00000000
00000000
00000000
00000010
00000000
00000000
00000000
00000100
00000000
00001000
00000000
,
00000100
00010000
00000010
00000000
00000100
00000000
00000101
00000000
,
00000002
00000000
00000023
00000000
00002030
00000000
00023000
00000000
02030000
00000000
00000000
00000000
13000000
00000000
00100000
10000000
,
00100000
00000000
01000000
00000000
00020000
00000000
00000000
00000000
00230000
00000000
00000000
00000000
10300000
00000000
00100000
00010000
,
00200000
00000000
01000000
00000000
01300000
00000000
00000000
00000000
20000000
00000000
00000000
00000000
30010000
00000000
01000000
00010000
,
00100000
00000000
00001000
00000000
00010000
00000000
00000000
00000000
00000020
00000000
00000000
00000000
00000130
00000000
00000001
00000010
,
00000002
00000000
00000010
00000000
00000023
00000000
00000000
00000000
00000230
00000000
00000000
00000000
00001300
00000000
00000010
00010000
,
00001000
00000000
01000000
00000000
00200000
00000000
00000000
00000000
20300000
00000000
00000000
00000000
30010000
00000000
01000000
00100000
,
10000000
01000000
00010000
00002000
00003020
00000032
00002003
00003020
,
00000000
00000031
00000010
00000000
00000100
00000001
00000010
00001000
,
00010000
01000000
10000000
00000000
01000000
10000000
00100000
00010000
,
00001000
00000100
00000001
00000000
00001001
00000000
00011000
00000000
,
10020000
00000000
00000000
00000000
00130000
00000000
01000000
10000000
01000000
00000000
00100000
00000000
00001000
00000000
01000000
00010000
,
01000000
00000000
00001000
00000000
00010000
00000000
00000010
00001000
00000010
00000000
00000100
00000000
00000001
00000000
00000010
00000100
,
00000010
00000100
00010000
01000000
00100000
00010000
01000000
00100000
,
00000000
10100000
00000000
01010000
00000000
01000000
00001000
00100000
,
01000000
10000000
10010000
00000000
10000000
00000000
01000000
00000000
,
00100000
00010000
00001000
00000100
,
00000010
00000001
00000100
00000010
,
00001000
00010000
01000000
00100000
,
10000000
00010000
10000000
01000000
,
00010000
10000000
00100000
00010000
,
01000000
00001000
00100000
00001000
,
00000100
00000001
00000010
00001000
,
00010000
00000000
01000000
00000000
10000000
00100000
00010000
10000000
,
01000000
00001000
00010000
00000100
00000010
00000001
00000100
00001000
,
00000001
00000000
00000010
00000000
00001000
00000000
00000010
00000000
00010000
00001000
00010000
00001000
00010000
00001000
00010000
00000000
,
00001000
00011000
00000000
01100000
00000000
10000000
01000000
00010000
,
00001000
00101000
00100000
00001000
,
01000000
00000000
00100000
10000000
00100000
00000000
01000000
00000000
,
00001000
00010000
00000100
00000010
,
00000001
00000000
00000010
00000100
00000010
00000000
00000100
00000000
,
00010000
00000010
00000100
00001000
,
00010000
00000000
00001000
01000000
00001000
00000000
00100000
00000000
,
10000000
00100000
00010000
01000000
,
00001000
00000000
00010000
00000100
00010000
00000000
00001000
00000000
,
01000000
00100000
10100000
00000000
,
00010000
01010000
00000000
00001000
,
00011000
00000000
00000011
00000000
,
00001000
00001100
00000000
00010000
,
00011000
00000000
00000000
00000000
10010000
00000000
00000000
00011000
,
00000000
00000000
00001001
00000000
00000000
00011000
00000000
00000000
,
10010000
00010000
10000000
10000000
,
00010000
00000000
00010000
00000000
01000000
00010000
01000000
00001000
,
00010000
00000000
00001000
00000000
00010000
00000000
00000100
00000000
00000020
00000000
00000000
00000031
00000000
00000010
00000100
00001000
,
00000001
00000000
00000010
00000000
00000001
00000000
00001000
00000010
00000100
00000000
00000000
00000100
00000000
00000000
00000100
00000000
00001000
00000000
00010000
00000000
00100000
00000000
01000000
00000000
00000000
00000000
00010000
00000000
00000000
00000000
10000000
00000000
,
01000000
00000000
00100000
00010000
00100000
00000000
01000000
00000000
00000000
00000000
10000000
00000000
00010000
00000000
01000000
00100000
01000000
00000000
00010000
10000000
00010000
00000000
00100000
00000000
01000000
00000000
00100000
00000000
00001000
00000000
00010000
00000000
,
00001000
00000000
00000100
00000000
00000010
00000000
00001000
00000000
00000000
00000000
00000100
00000000
00000010
00000000
00001000
00000000
00000010
00000100
00000010
00000000
00000001
00000000
00000010
00000100
00000010
00000000
00001000
00000000
00010000
00001000
00010000
00000000
,
00000100
00000000
00000000
00000100
00000000
00000000
00010000
00000000
00001000
00000000
00000000
00001000
00000000
00000000
00000000
00000000
01000000
00000000
00010000
10000000
00010000
00000000
01000000
00000000
00000000
00000000
00100000
00000000
01000000
00000000
00010000
00000000
,
00000000
00000000
10010000
00000000
00000000
00000000
11000000
00000000
00000000
00000000
10000000
00000000
00010000
00000000
00100000
00000000
00001000
00010000
00001000
00010000
00000100
00000000
00000010
00000000
00000000
00000000
00000001
00000000
00001000
00000000
00000010
00000000
,
00000100
00000010
00001000
00000100
00000010
00001000
00010000
01000000
00100000
00000000
00000000
00000000
00110000
00000000
00000000
00000000
,
00002000
00100000
00023000
00000000
00030010
00000000
00001010
00000000
,
00020000
00000010
00032000
00000000
01003000
00000000
01001000
00000000
,
00000000
00000000
00001000
00000000
00010000
00000000
00000000
00000000
00000100
00000000
00000100
00000000
00001000
00000000
00000001
00001000
,
00000001
00000100
00001000
00021000
01030000
00000000
00100000
00001000
,
00010000
00012000
00003100
00000010
00001000
00000100
00010000
00012000
,
00003010
00000000
00000100
00010000
00001000
00021000
00130000
01000000
,
00010000
00000000
00100000
00000000
00001000
00000000
00021000
00000000
01030000
00000000
00100000
01000000
10000000
00000000
01000000
00000000
,
00010000
00012000
00003100
00000000
00000010
00010000
00001000
00021000
,
00130000
01000000
00010000
00100000
00001000
00021000
01030000
00000000
,
00100000
00000000
02000000
00000000
13000000
00010000
00100000
00010000
10000000
01000000
00010000
01000000
10000000
00100000
01000000
00010000
,
01010000
00000000
00100000
00000000
00101000
00000000
00011000
00000000
00010100
00000000
00000000
00000110
00000000
00000000
00000011
00000000
,
00001100
00000000
00000101
00000000
00000110
00000000
00010010
00000000
00011000
00000000
00001000
01000000
00000000
01000000
00100000
00000000
,
01100000
00000000
01000000
00000000
00010000
00100000
00000000
00101000
00000000
00000000
00011000
00000000
00000000
00000000
00001010
00000000
,
00000110
00000000
00000000
00000000
00000000
00000000
00000000
00000000
00000001
00000000
00001000
00000000
00000001
00001000
00000001
00001000
00000001
00000000
00000000
00000000
00001000
00000000
00000000
00000000
00000100
00000000
00000000
00000000
00010000
00000000
00000000
00000000
,
00001000
01000000
00100000
10000000
01000000
00100000
00010000
00100000
,
00001000
00010000
00000100
00001000
00000010
00000100
00000001
00000010
,
00000100
00001000
00000100
00010000
00001000
01000000
00100000
10000000
,
01000000
00100000
00001000
00010000
00000100
00000100
00010000
00010000
,
00001000
00001000
01000000
01000000
00100000
00100000
10000000
10000000
,
01000000
00000000
01000000
00000000
00100000
00000000
00100000
00000000
00001000
00010000
00001000
00010000
00001000
00010000
00001000
00010000
,
00001000
00000000
00010000
00000000
00001000
00000000
00010000
00000000
00001000
00000000
00010000
00000000
00001000
00000000
00010000
00000000
00000200
00000000
00000000
00000000
00000000
00000000
00010300
00001000
00010000
00000010
00010000
00001000
00100000
00001000
00010000
00000000
,
00011000
00000000
00001000
00000010
,
00000000
00000001
00001000
00000001
00001000
00000001
00000100
00000010
,
00002000
00000000
00003000
00000000
,
00000001
00000000
00001000
00000000
,
00000010
00000100
00000010
00000000
00000100
00000000
00001000
00000000
,
00010000
00001000
00010000
00000000
00100000
00000000
01000000
00000000
,
10000000
01000000
00010000
00200000
,
00000000
00000000
00301000
00000000
00010000
00001000
00010000
00000000
,
00001000
00000010
00001000
00000000
00000010
00000001
00000010
00000000
,
00000001
00000100
00000001
00000000
00000100
00001000
00000100
00000000
,
00001000
00010000
01000000
20000000
,
00000000
30010000
01000000
00100000
,
10000000
00000000
10000000
01000000
00000000
10000000
00100000
10000000
,
00010000
00000000
00010000
00100000
00000000
00100000
00001000
00010000
,
00001000
00000000
00001000
00010000
00000000
00000100
00001000
00000001
,
00001000
00000000
00000001
00000000
00000100
00000010
00000100
00000010
,
00000100
00001000
00010000
00002000
,
00000000
00103000
00010000
20000000
,
00000000
30100000
10000000
00020000
,
00130000
00000000
00010000
00000000
10000000
00000000
01000000
00010000
,
00002000
00003000
00000010
00000100
,
00000000
00000001
00000100
00001000
,
00000001
00000010
00000001
00000010
,
00000001
00000100
00001000
00010000
,
00100000
00000000
01000000
00010000
01000000
00000000
00000000
00000000
,
00000100
00001000
00000100
00000000
00000000
00000000
00100000
00010000
,
00100000
00000000
00000000
00000000
00000010
00001000
00000010
00000000
,
00000000
00000000
00010000
00000000
00001000
00000000
00010000
00100000
,
01000000
00100000
10000000
01000000
,
00010000
00001000
00000010
00000001
,
00000100
00000010
00000100
00000010
00001000
00000010
00001000
00000010
,
00010000
00001000
00010000
00001000
00100000
00000000
00001000
00000000
,
00011000
00010000
00000200
00000300
00000010
00000200
00000300
00000001
00000200
00000300
00000010
00000200
00000300
00001000
00000200
00010300
,
00001000
01000000
00200000
00300000
00010000
00200000
00300000
01000000
00200000
00300000
10000000
00200000
00300000
01000000
00200000
00300000
,
00010000
00001000
00000200
00000300
00000010
00000200
00000300
00000001
00000200
00000300
00001000
00000200
00000300
00000010
00000200
00001300
,
00010000
00100000
02000000
03000000
10000000
02000000
03000000
00010000
00200000
00300000
10000000
00200000
00300000
01000000
00200000
00301000
,
00020000
00001000
00001000
00000000
00000010
00000010
00000000
00001000
00001000
00000000
00000100
00000100
00000000
00001000
00001000
00000000
,
00032000
00010000
00010000
00000000
00100000
00100000
00000000
00010000
00010000
00000000
01000000
01000000
00000000
00010000
00010000
00000000
,
00023000
00001000
00001000
00000000
00000010
00000010
00000000
00000001
00000001
00000000
00000100
00000100
00000000
00001000
00001000
00000000
,
00032000
00010000
00010000
00000000
00100000
00100000
00000000
10000000
10000000
00000000
01000000
01000000
00000000
00010000
00013000
00001000
;

//---------------dance-single - XX Team-CDP----------------
#NOTEDATA:;
#CHARTNAME:XX Team-CDP;
#STEPSTYPE:dance-double;
#DESCRIPTION:XX Team-CDP;
#DIFFICULTY:Challenge;
#METER:18;
#CREDIT:XX Team;
#OFFSET:-0.079;
#DISPLAYBPM:100:400;
#BPMS:0=100,20=200,24=100,25=200,31=100,31.5=200,38=100,38.5=200,46=100,48=200,112=400,144=200,152=100,153.25=200,154.25=100,155=200,157=400,189=200,205=100,229=200,277=100,293=200,321=100,323=400,451=100;
#STOPS:153.25=0.15,153.75=0.15;
#SCROLLS:0=1,19.792=1.1,19.813=1.2,19.833=1.3,19.854=1.4,19.875=1.5,19.896=1.6,19.917=1.7,19.938=1.8,19.958=1.9,19.979=2,20=1,25=0.5,26=1,31.5=0.5,32=1,46=2,46.063=1.95,46.125=1.9,46.188=1.85,46.25=1.8,46.313=1.75,46.375=1.7,46.438=1.65,46.5=1.6,46.563=1.55,46.625=1.5,46.688=1.45,46.75=1.4,46.813=1.35,46.875=1.3,46.938=1.25,47=1.2,47.063=1.15,47.125=1.1,47.188=1.05,47.25=1,47.313=0.95,47.375=0.9,47.438=0.85,47.5=0.8,47.563=0.75,47.625=0.7,47.688=0.65,47.75=2,48=1,244.5=-1,244.563=-0.966,244.688=-0.866,244.813=-0.707,244.938=-0.5,245.063=-0.259,245.188=0,245.313=0.259,245.438=0.5,245.563=0.707,245.688=0.866,245.813=0.966,245.938=1,248.5=-1,248.563=-0.966,248.688=-0.866,248.813=-0.707,248.938=-0.5,249.063=-0.259,249.188=0,249.313=0.259,249.438=0.5,249.563=0.707,249.688=0.866,249.813=0.966,249.938=1,252.5=-1,252.563=-0.966,252.688=-0.866,252.813=-0.707,252.938=-0.5,253.063=-0.259,253.188=0,253.313=0.259,253.438=0.5,253.563=0.707,253.688=0.866,253.813=0.966,253.938=1,256.5=-1,256.563=-0.966,256.688=-0.866,256.813=-0.707,256.938=-0.5,257.063=-0.259,257.188=0,257.313=0.259,257.438=0.5,257.563=0.707,257.688=0.866,257.813=0.966,257.938=1,260.5=-1,260.563=-0.966,260.688=-0.866,260.813=-0.707,260.938=-0.5,261.063=-0.259,261.188=0,261.313=0.259,261.438=0.5,261.563=0.707,261.688=0.866,261.813=0.966,261.938=1,264.5=-1,264.563=-0.966,264.688=-0.866,264.813=-0.707,264.938=-0.5,265.063=-0.259,265.188=0,265.313=0.259,265.438=0.5,265.563=0.707,265.688=0.866,265.813=0.966,265.938=1,268.5=-1,268.563=-0.966,268.688=-0.866,268.813=-0.707,268.938=-0.5,269.063=-0.259,269.188=0,269.313=0.259,269.438=0.5,269.563=0.707,269.688=0.866,269.813=0.966,269.938=1,272.5=-1,272.563=-0.966,272.688=-0.866,272.813=-0.707,272.938=-0.5,273.063=-0.259,273.188=0,273.313=0.259,273.438=0.5,273.563=0.707,273.688=0.866,273.813=0.966,273.938=1,455=0.938,459=0.875,463=0.825,467=0.75,471=0.688,475=0.625,479=0.563,483=0.5;
#TIMESIGNATURES:0=4=4,24=3=4,27=4=4,39=3=4,42=4=4,46=2=4,48=4=4,152=5=4,157=4=4,321=2=4,323=4=4;
#LABELS:0=Song Start,3=RGTM,48=Marten,205=Talkion,277=NewbStepper,482.75=Song End;
#NOTES:
00000000
00000000
00000000
00000000
00000000
00000000
00000002
00000023
,
00002030
00003010
00000001
00001000
00000010
00000001
00000000
00000010
00000200
00000000
00000000
00000000
00002300
00000000
00023000
00000000
,
02030000
13000000
00100000
00020000
10030000
01000000
00200000
10300000
02000000
00000000
03020000
00000000
00032000
00000000
00003200
00000000
,
00000320
00010030
00001000
00000020
00000031
00000100
00002000
00013000
00000200
00000000
00000000
00000000
00000320
00002030
00013000
00200000
,
01300000
00001000
00020000
00130000
10000000
01000000
00200000
00310000
20000000
00000000
00000000
00000000
30200000
00000000
00320000
00000000
,
00031000
00000000
00010000
00000100
00000000
00000100
00000010
00000000
00000011
00000000
00000001
00000000
00001000
00000000
00000010
00001000
,
00000100
00000000
00000000
00000000
00000000
00000000
00000000
00000000
00000010
00000001
00000010
00000100
00001000
00000000
00000010
00010000
,
00000000
00000000
00001000
00000000
00011000
00000000
00010000
00001000
01000000
00001000
01000000
00000000
00010000
00000000
00000000
00000000
,
00100000
00010000
00100000
00010000
00100000
01000000
10000000
00000000
00010000
10000000
00100000
00000000
01000000
00000000
00100000
10000000
,
00010000
00000000
00110000
00000000
00100000
00001000
00010000
00001000
00010000
00000000
00000010
00001000
00000010
00001000
00000100
00000010
,
00000001
00000000
00000000
00000100
00000001
00000100
00000001
00001000
00000100
00000000
00010000
00000000
00001000
01000000
00001000
01000000
,
00010000
00000000
00000000
00000000
10010000
00000000
00000000
00000000
10000000
00000000
00000000
00000000
00200000
00000000
00000000
00000000
00000000
00000000
00000000
00000000
00000000
00000000
00000000
00000000
00000000
00000000
10000000
00000000
01000000
00000000
00310000
00100000
,
10000000
00000000
00010000
00000000
00100000
00000000
10000000
00100000
01000000
00000000
10000000
00000000
11000000
00000000
00000000
00000000
,
00100000
00000000
00010000
00000000
01000000
00000000
00001000
00010000
00000020
00000000
00000230
00000000
00000302
00000000
00000023
00000000
,
00000230
00000000
00000000
00000000
00001300
00000000
00000100
00010000
00001000
00000000
01000000
00000000
00200000
00000000
00000000
00000000
,
20300000
00000000
00000000
00000000
30010000
00000000
00100000
10000000
00200000
00000000
01000000
00000000
00310000
00000000
00000000
00000000
,
02000000
00000000
00000000
00000000
03100000
00000000
00010000
00001000
00000010
00000000
00000100
00000000
00000110
00000000
00000000
00000000
,
00000020
00000000
00000000
00000000
00000130
00000000
00001000
00000100
00000020
00000000
00000001
00000000
00000130
00000000
00000000
00000000
,
00002100
00000000
00000000
00000000
00003010
00000000
00000001
00000010
00001000
00000000
00010000
00000000
01000000
00000000
00000000
00000000
,
01020000
00000000
00000000
00000000
00130000
00000000
10000000
00100000
00010000
00000000
00001000
00000000
00000100
00000000
00000010
00000000
,
00000001
00000100
00001000
00021000
00000000
00130000
10010000
00000000
,
20100000
00000000
00100000
30020000
00000000
00031000
00000100
00000000
,
00000012
00000000
00000010
00002003
00000000
00013000
01000000
00000000
,
10100000
00000000
00000000
00000000
11000000
00000000
00000000
00000000
01010000
00000000
00000000
00000000
00010000
00000000
00001000
00000100
,
00000002
00000000
00000103
00000000
00000010
00000000
00000001
00000010
00002000
00000000
00003010
00000000
00000100
00000000
00001000
00010000
,
02000000
00000000
03100000
00000000
00010000
00000000
10000000
01000000
00020000
00000000
01030000
00000000
00100000
00000000
00001000
00000000
,
00012000
00013000
00000100
00000220
00000330
00000022
00000033
00002200
,
00003300
00000001
00000010
00001000
00010000
01000000
10000000
00000000
,
00010000
00100000
00001000
00010000
,
01000000
00001000
00010000
00100000
,
00001000
00010000
01000000
00100000
,
00001000
00010000
00001000
00010000
00000100
00000000
00000000
00000000
,
00001000
00000010
00010000
00001000
,
00000100
00010000
00001000
00000010
,
00010010
00010000
00001000
00101000
,
00001000
00010000
00011000
00001000
,
00012000
00100000
00013000
00020000
00000010
00001000
00032000
01000000
,
00013000
00020000
00000100
00031000
00010000
00100000
10000000
00010000
,
01000000
00001000
00010000
00001000
01000000
00001000
00010000
00001000
01000000
00000000
01001000
00000000
00000000
00000000
00010100
00000000
00000000
00000000
00011000
00000000
00001000
00000000
00000010
00000000
00000001
00000000
00000000
00000000
00000100
00000000
00000000
00000000
,
00000010
00001000
00001001
00000000
00000001
00000000
00000100
00000000
,
00001000
00010000
00001000
00010000
00001000
00000000
00100000
00000000
,
00010000
01000000
00100000
10000000
,
01000000
00100000
01000000
00100000
01000000
00000000
00010000
00000000
,
00001000
00000100
00000001
00000010
,
00001000
00010000
00001000
00010000
00001000
00000000
01000000
00000000
,
00010000
00100000
01000000
10000000
,
00100000
01000000
00100000
01000000
00100000
00000000
00010000
00000000
,
00001000
00000000
00011000
00010000
00200000
10300000
02000000
03020000
,
00031000
00000000
00011000
00001000
00000020
00000031
00000200
00002300
,
00013000
00000000
00000000
00000000
00011000
00000000
00001000
01000000
00000000
00000000
00011000
00000000
00010000
00000100
00000000
00000000
,
00000010
00000000
00000001
00000000
00000100
00000000
00001000
00000000
00010000
00000000
01000000
00000000
10000000
01000000
10000000
00100000
,
01000000
00000000
00010000
00000000
00100000
00000000
00001000
00000000
00020000
00000000
00000000
00000000
00000000
00000000
00030100
00000000
00000000
00000000
00001000
00000000
00000001
00000000
00001000
00000000
00000010
00000100
00000001
00000100
00000010
00001000
00000001
00000010
,
00000200
00000000
00000000
00001000
00000000
00000000
00010300
00000000
00001000
00000000
01000000
00000000
00100000
00000000
00010000
00000000
00000000
00000000
00001000
00000000
00000000
00000000
00010000
00000000
01000000
00000000
00100000
00010000
00100000
00000000
01000000
00000000
,
00000000
00000000
10000000
00000000
00010000
00000000
01000000
00100000
01000000
00000000
00010000
10000000
00010000
00000000
00100000
00000000
01000000
00000000
00010000
00000000
00001000
00000000
00010000
00000000
00000100
00000000
00000010
00000000
00000001
00000000
00000100
00000000
,
00000000
00000000
00000010
00000000
00000001
00000000
00000010
00000000
00000100
00000010
00000100
00000010
00001000
00000000
00000100
00000010
00000100
00000010
00001000
00000000
00010000
00001000
00010000
00000000
00000100
00000000
00010000
00001000
00000000
00001000
01000000
00000000
,
00010000
00000000
01000000
00100000
00000000
00000000
10000000
00100000
01000000
00000000
00010000
10000000
00010000
00000000
00100000
00000000
01000000
00000000
00100000
00000000
00001000
00000000
00010000
00000000
00000000
00000000
00010010
00000000
00000000
00000000
00001001
00000000
,
00000000
00000000
00001000
00000100
00000010
00000001
00001000
00000001
00000100
00000010
00001000
00000010
00010000
00001000
01000000
00000000
00000000
00000000
00100000
00000000
01000000
00000000
00010000
00000000
00100000
00000000
01000000
00000000
10000000
00000000
00010000
00000000
,
01000000
00010000
10000000
01000000
00100000
00000000
00000000
00000000
00110000
00000000
00000000
00000000
00002000
00000000
00100000
00000000
,
00023000
00000000
00030010
00000000
00001010
00000000
00020000
00000010
,
00032000
00000000
01003000
00000000
01001000
00000000
00000000
00001000
,
00010000
00000000
00000000
00000000
00000100
00000000
00000100
00000000
00001000
00000000
00000001
00001000
00000010
00001000
00000001
00000000
,
00000010
00000000
00001000
00000000
00000000
00000000
00000000
00000000
00002000
00003000
00000000
00000000
00010000
00000000
01000000
00000000
,
00100000
00000000
00010000
00000000
00000000
00000000
00000000
00000000
00020000
00030000
10000000
00000000
00100000
00000000
01000000
00000000
,
00100000
00000000
00010000
00000000
00000000
00000000
00000000
00000000
00020000
00030000
00000000
00000000
00001000
00000000
00100000
00000000
,
00010000
00000000
01000000
00000000
00000000
00000000
00000000
00000000
02000000
03000000
00001000
00000000
00010000
00000000
00000100
00000000
,
00000010
00000000
00001000
00000000
00000000
00000000
00000000
00000000
00002000
00003000
00010000
00000010
00010000
00000000
00001000
00000000
,
00100000
00000000
00010000
00000000
00000000
00000000
00000000
00000000
00020000
00030000
00000000
00000000
01000000
00000000
10000000
00000000
,
01000000
00000000
00100000
00000000
00000000
00000000
00000000
00000000
00200000
00300000
00010000
00000000
00001000
00000000
00000100
00000000
,
00000010
00000000
00010000
00000000
00000000
00000000
00000000
00000000
00020000
00030000
00000000
00000000
00000200
00000000
00001000
00000000
,
00010300
00001000
00010000
00001000
00100000
00001000
00010000
00100000
10000000
00010000
10000000
01000000
00010000
00000000
00011000
00000000
,
00010010
00000000
00001010
00000000
00000010
00010000
00001000
00000010
00000001
00001000
00000001
00000100
00001000
00000000
00011000
00000000
,
01001000
00000000
01010000
00000000
01000000
00001000
00010000
01000000
10000000
00010000
10000000
00100000
00010000
00000000
00011000
00000000
,
00010000
00000100
00000000
00000100
00000010
00000100
00000001
00001000
00000010
00000001
00000100
00001000
00010000
01000000
10000000
00100000
,
01000000
00000000
00010000
00000000
10000000
01000000
00100000
00010000
10000000
00000000
00000000
00000000
01000000
00000000
00000000
00000000
00100000
00000000
00000000
00000000
01000000
00000000
00000000
00000000
00010000
00000000
00000000
00000000
00001000
00000000
00000000
00000000
,
00000010
00000000
00000100
00001000
00000001
00000000
00000100
00000000
00000010
00000000
00000100
00000000
00001000
00000000
00010000
00000000
,
00100000
00000000
01000000
00010000
10000000
00000000
00100000
00000000
01000000
00000000
00100000
00000000
00010000
00000000
00001000
00000000
,
00000100
00000000
00000010
00001000
00000001
00000000
00000010
00000000
00000100
00000000
00000010
00000000
00001000
00000000
00010000
00000000
,
01000000
00000000
00100000
00010000
10000000
00000000
01000000
10000000
01000000
00000000
00010000
01000000
00010000
00000000
00001000
00010000
,
00001000
00000000
00000010
00001000
00000010
00000000
00000001
00000010
00000001
00000000
00000100
00000001
00000100
00000000
00001000
00000100
,
00001000
00000000
00010000
00001000
00100000
00001000
00010000
00001000
00100000
00001000
00010000
00000010
00010000
00001000
00010000
00000010
,
00010000
00000000
00001000
00000000
00100000
00000000
00010000
00000000
20000000
00000000
00000000
00000000
30000000
00000000
01000000
10000000
01000000
00100000
00010000
00100000
00010000
00100000
00001000
00010000
00001000
00000000
00000000
00000000
00000000
00000000
00000000
00000000
,
00000000
00000000
00000010
00000000
00000100
00000000
00000000
00001000
,
00000001
00001000
00000100
00000010
00000001
00001000
00000020
00000000
,
00000000
00000000
00000030
00010000
,
00000000
00000000
00001000
00000000
00000000
00000000
00100000
00010000
,
10000000
00100000
10000000
00010000
00100000
00000000
00001000
00010000
,
00000010
00001000
00000010
00001000
00000001
00000000
00000100
00000000
,
00001000
00010000
02000000
03000000
,
10000000
00000000
00010000
01000000
00010000
01000000
00100000
10000000
,
01000000
00000000
00100000
00010000
00100000
00000000
00001000
00010000
,
00001000
00000000
00000100
00000010
00000100
00000010
00001000
00000100
,
00000010
00000001
00000200
00000000
,
00001300
00000000
00000100
00000000
00000001
00000000
00000010
00000001
,
00000010
00000100
00000000
00010000
00000100
00001000
00000100
00010000
,
00001000
00100000
00000000
00001000
01000000
00010000
01000000
00001000
,
00010000
00000010
00000000
00000100
00001000
00010000
00001000
00100000
,
00010000
10000000
00100000
01000000
00010000
10000000
00100000
00000000
,
10000000
01000000
00020000
00000000
,
00031000
00011000
00000000
00001000
,
00000010
00000001
00000100
00002000
,
00000000
00000000
00013000
00000000
00001000
00010000
02000000
00000000
,
00000000
03100000
01000000
00000000
,
00010000
01000000
10000000
00010000
,
01000000
00010000
01000000
00010000
,
00100000
00001000
00000010
00000001
,
00000100
00001000
00010000
00000000
00000100
00000000
00010000
00001000
,
00000100
00000000
00001000
00000000
00010000
00001000
00000010
00000000
,
00000100
00000000
00000010
00001000
00010000
00000000
00100000
00000000
,
10000000
00000000
00010000
00000000
10000000
00100000
10000000
00100000
,
01000000
00010000
01000000
00010000
00100000
00001000
00100000
00001000
,
00010000
00000000
00001000
00000000
00000010
00000000
00000100
00001000
,
00000001
00001000
00000010
00010000
00001000
00100000
00010000
10000000
,
00100000
00000000
01000000
00000000
00010000
00000000
00000000
00000000
00100000
00000000
00000000
00000000
00101000
00001000
00020000
00130000
,
00001000
00020000
01030000
00001000
00020000
00130000
00001000
00020000
01030000
00001000
00020000
00030000
00010010
00010000
00002000
00003010
,
00010000
00002000
00003100
00010000
00002000
00003010
00010000
00002000
00003100
00010000
00002000
00003000
00011000
00001000
00020000
00130000
,
10000000
00020000
01030000
00001000
00020000
00130000
10000000
00020000
01030000
00001000
00020000
00030000
00011000
00010000
00002000
00003010
,
00000001
00002000
00003100
00010000
00002000
00003010
00000001
00002000
00003100
00010000
00001000
01000000
01001000
00001000
00020000
01030000
,
00001000
00020000
00130000
00001000
00020000
01030000
00001000
00020000
00130000
00001000
00020000
00030000
00010100
00010000
00002000
00003100
,
00010000
00002000
00003010
00010000
00002000
00003100
00010000
00002000
00003010
00010000
00002000
00003000
00011000
00001000
00020000
01030000
,
10000000
00020000
00130000
00001000
00020000
01030000
10000000
00020000
00130000
00002000
00023000
00030000
00011000
00010000
00002000
00003100
,
00000001
00002000
00003010
00010000
00002000
00003100
00000001
00002000
00003010
00010000
00001000
00100000
00000000
00000000
00000000
00000000
;
