#TITLE:forget me now;
#ARTIST:dj vortivask;
#BANNER:forget me now.png;
#BACKGROUND:forget me now-bg.png;
#MUSIC:forget me now.ogg;
#OFFSET:1.805;
#SAMPLESTART:92.03;
#SAMPLELENGTH:15;
#BPMS:0=133;
#STOPS:68=1.353,197=3.158;

//---------------dance-single - Marten-ESP----------------
#NOTES:
     dance-single:
     Marten:
     Hard:
     13:
     0.452301,0.574937,0.045123,0.353461,0.304578,421,415,6,47,0,0,0.452301,0.574937,0.045123,0.353461,0.304578,421,415,6,47,0,0:
0000
0000
0000
0000
,
0000
0000
0000
0000
,
0000
0000
0000
0000
,
0000
0000
0000
0000
,
0000
0000
0000
0000
,
1000
0000
0000
0100
0000
0000
0100
0000
0110
0000
0000
0000
0001
0000
1000
0000
,
0010
0000
0000
0100
0000
0000
0100
0000
0110
0000
0000
0000
0100
0000
0000
0000
,
0001
0000
0000
0100
0000
0000
0100
0000
0110
0000
0000
0000
0010
0000
1000
0000
,
0001
0010
0001
1000
0010
0001
0010
1000
,
0002
0000
0000
0000
0103
0000
0000
0010
0100
0010
0100
0000
0001
0000
1000
0000
,
0100
0000
0000
0000
0010
0000
0000
0001
1000
0001
1000
0000
0010
0000
0100
0001
,
0100
0000
0000
0000
0010
0000
0000
1000
0100
1000
0100
0000
0010
0000
0001
0000
,
1000
0000
0000
0000
0010
0000
0000
0100
0001
0100
0001
0000
0010
0000
0100
1000
,
0001
0000
0100
0000
0001
0000
1000
0010
0000
1000
0100
0000
0010
0000
0001
0000
,
1000
0000
0010
0000
1000
0000
0001
0100
0000
0001
0010
0000
0100
0000
0010
0000
,
0001
0000
1000
0000
0001
0000
0100
0010
0000
1000
0010
0000
0100
0000
0001
0000
,
1000
0000
0100
0000
1000
0000
0001
0010
0000
0100
0010
0001
1000
0001
1000
0001
,
0100
0002
0000
0000
,
0000
2003
0000
0000
,
0000
3200
0000
0000
,
0000
0320
0000
0000
,
0032
2003
0000
0000
,
0000
3020
0000
0000
,
0000
0230
0000
0000
,
0000
0302
0000
0000
,
1003
0000
0020
0000
0130
0001
1000
0000
,
0100
0000
0010
0000
0001
1000
0010
0000
,
0100
0000
0001
0000
1000
0100
0001
0000
,
0100
0000
0010
0000
0001
0100
1000
0000
,
0100
0001
1000
1010
,
0100
0001
1000
0000
0100
0000
0011
0000
,
0100
0010
0001
1001
,
1000
0010
0001
0000
1000
0100
0010
1000
,
0001
0000
0010
0000
0200
0000
0000
1300
0001
0000
0100
0000
0010
0100
0000
0000
,
0001
0000
0010
0000
0100
0000
0000
0010
0001
0000
1000
0000
0010
0100
0000
0000
,
0010
0000
0000
0000
1000
0000
0000
0001
0010
0000
0001
0000
0100
0010
0000
0000
,
0100
0000
0001
0000
1000
0000
0000
0010
0100
0000
0001
0000
1000
0100
0000
0000
,
0010
0000
0000
0000
0001
0000
0000
0100
0010
0000
0001
0000
0010
1000
0000
0000
,
0100
0000
0010
0000
0001
0000
0000
1000
0100
0000
0001
0000
0100
1000
0000
0000
,
0001
0000
0000
0000
1000
0000
0000
0100
0010
0000
1000
0000
0010
0001
0000
0000
,
0100
0000
0010
0000
1000
0000
0000
0001
0100
0000
1000
0000
0100
0001
0000
0000
,
1000
0000
0000
0000
0020
0000
0000
0000
0130
0000
0000
0001
1000
0001
1000
0000
,
0100
0000
0010
0000
0001
0000
0000
0000
0100
0000
0010
1000
0010
1000
0010
0000
,
0100
0000
0001
0000
1000
0000
0000
0000
0100
0000
0000
0010
0001
0010
0001
0000
,
1000
0000
0010
0000
0100
0000
0001
1000
0001
0000
0010
0000
0001
1000
0001
0000
,
0100
0000
0000
0000
0010
0000
0000
0100
0001
0000
0000
1000
0010
1000
0010
0000
,
0100
0000
0001
0000
1000
0000
0100
0000
0010
0000
0000
0001
1000
0001
1000
0000
,
0100
0000
0000
0000
0010
0000
0000
0000
0001
0000
0000
1000
0010
1000
0010
0000
,
0100
0001
1000
0100
0010
1000
0001
0100
,
0010
0000
0000
0000
0002
0000
0000
0000
0000
0003
0000
0000
0000
0000
0000
0000
0200
0000
0000
0000
0000
0000
0000
0000
0310
0000
0000
0000
1000
0000
0001
0000
,
1000
0001
1000
0000
0100
0000
0010
0000
0001
0000
0100
0010
0000
0100
0001
0000
,
1000
0100
0000
0010
0100
0000
1000
0000
0010
0000
0000
0100
0002
0000
0023
0000
,
0100
0032
0103
0000
0010
1000
0200
2300
,
0010
0000
3002
0000
0023
0000
0000
0000
0130
0000
0000
1000
0010
0000
0100
0001
,
0100
0001
0100
0000
0010
0000
1000
0000
0001
0000
0010
0100
0000
1000
0010
0000
,
0100
0001
0000
1000
0100
0000
0010
0000
0001
0000
0000
0000
2000
0000
3020
0000
,
0100
2030
3100
0000
0010
0001
0200
0302
,
0010
0000
2003
0000
3020
0000
0000
0000
0230
0000
0000
0000
0301
0000
0010
0001
,
0010
0001
0010
0000
0100
0000
1000
0000
0010
0000
1000
0001
0000
0010
0100
0000
,
0010
0001
0000
1000
0010
0000
0100
0000
0001
0000
1000
0000
0200
0000
0302
0000
,
0100
2003
3010
0001
0100
0010
0002
2003
,
0100
0000
3002
0000
0023
0000
0000
0000
1030
0000
0001
0000
0010
0000
0001
0100
,
0001
0100
0001
0000
1000
0000
0100
0000
1000
0000
0010
0100
0000
0001
1000
0000
,
0100
0010
0000
0001
1000
0000
0010
0000
0100
0000
0001
0000
0020
0000
2030
0000
,
0001
3020
0031
0100
0010
1000
0020
0032
,
1000
0023
2030
0000
3002
0000
0000
0000
,
0000
0000
2003
0000
,
0000
0000
3020
0000
,
0000
0000
0000
0000
,
0000
0000
0030
0000
;

//---------------dance-single - Marten-DSP----------------
#NOTES:
     dance-single:
     Marten:
     Medium:
     9:
     0.313710,0.392003,0.097766,0.188011,0.116567,292,279,13,25,0,0,0.313710,0.392003,0.097766,0.188011,0.116567,292,279,13,25,0,0:
0000
0000
0000
0000
,
0000
0000
0000
0000
,
0000
0000
0000
0000
,
0000
0000
0000
0000
,
0000
0000
0000
0000
,
1000
0000
0000
1000
0000
0000
1000
0000
0100
0000
0000
0000
0010
0000
0000
0000
,
0001
0000
0000
0001
0000
0000
0001
0000
0100
0000
0000
0000
0010
0000
0000
0000
,
0100
0000
0000
0100
0000
0000
0100
0000
0001
0000
0000
0000
1000
0000
0000
0000
,
0100
1000
0001
0000
0100
0001
1000
0000
,
1010
0000
0101
0000
0001
1000
0001
0000
,
1000
0000
0100
0000
0010
0000
0001
0010
,
0001
0100
0010
0010
,
1000
0000
0001
0000
0100
0000
0001
1000
,
0100
0000
0100
0000
0010
0001
1000
0000
,
0010
0000
0010
0000
0100
0001
1000
0000
,
0001
0100
0001
0000
1000
0100
1000
0000
,
0001
0010
0100
1000
0001
1000
0001
0000
,
1001
2000
0000
0000
,
0000
3002
0000
0000
,
0000
0203
0000
0000
,
0000
0320
0000
0000
,
2030
3002
0000
0000
,
0000
0023
0000
0000
,
0000
0230
0000
0000
,
0000
2300
0000
0000
,
3010
0110
0100
1001
,
0001
1000
0100
0110
,
0100
0010
0001
1001
,
0001
1000
0010
0110
,
0100
0001
1000
1100
,
1000
0001
0100
0000
0010
0000
0110
0000
,
0100
0001
1000
1001
,
0001
0010
0100
0000
0010
0000
0110
0000
,
0100
0000
0000
0000
1000
0000
0000
0010
0000
0000
0100
0000
0010
0000
0000
0000
,
1000
0000
0000
0000
0001
0000
0000
0010
0000
0000
0100
0000
0000
1000
0000
0000
,
0001
0000
0000
0000
0001
0000
0000
0010
0000
0000
0100
0000
0010
0000
0000
0000
,
0001
0000
0000
0000
1000
0000
0000
0010
0000
0000
0100
0000
0000
0001
0000
0000
,
1000
0000
0000
0000
0001
0000
0000
0100
0000
0000
0010
0000
0100
0000
0000
0000
,
0001
0000
0000
0000
1000
0000
0000
0100
0000
0000
0010
0000
0000
0001
0000
0000
,
1000
0000
0000
0000
1000
0000
0000
0100
0000
0000
0010
0000
0100
0000
0000
0000
,
1000
0000
0000
0000
0001
0000
0000
0100
0000
0000
0010
0000
0000
1000
0000
0000
,
0001
0000
1001
0000
0100
0000
0010
0010
,
0100
0000
0001
0000
1000
0000
0100
0010
,
0100
0000
1000
0000
0001
0000
0010
0001
,
0010
0000
0100
0000
0010
0000
0001
1000
,
0001
0000
0100
0000
0100
0000
0010
1000
,
0010
0000
0100
0000
0001
0000
1000
0100
,
1000
0000
0001
0000
0010
0000
0100
0010
,
0100
0000
0010
0000
0001
0000
0100
0010
,
0200
0000
0000
0000
0000
0000
0000
0000
0000
0300
0000
0000
0000
0000
0000
0000
0001
0000
0000
0000
0000
0000
0010
0000
0000
0000
0000
0000
0001
0000
0000
0000
,
0000
1000
0000
0000
0100
0000
1000
0000
0100
0000
0000
0010
0000
0000
0001
0000
,
0000
0100
0000
0000
0010
0000
0100
0000
0010
0000
0000
0000
1000
0000
0020
0000
,
0000
0130
0010
0000
1000
0000
0001
0020
,
0000
0000
0130
0000
0020
0000
0000
0000
0130
0000
0000
1000
0000
0000
0010
0000
,
0000
1000
0000
0000
0001
0000
0100
0000
0001
0000
0000
0010
0000
0000
0100
0000
,
0000
1000
0000
0000
0010
0000
1000
0000
0010
0000
0000
0000
0100
0000
0002
0000
,
0000
1003
0001
0000
0010
0000
0100
2000
,
0000
0000
3001
0000
2000
0000
0000
0000
3010
0000
0000
0010
0000
0000
0100
0000
,
0000
0100
0000
0000
0001
0000
1000
0000
0100
0000
0000
0100
0000
0000
0010
0000
,
0000
0010
0000
0000
0001
0000
1000
0000
0010
0000
0000
0000
1000
0000
0002
0000
,
0000
0013
0001
0000
0100
0000
0001
2000
,
0000
0000
3010
0000
2000
0000
0000
0000
3001
0000
0000
0001
0000
0000
1000
0000
,
0000
1000
0000
0000
0010
0000
0100
0000
0010
0000
0000
0010
0000
0000
1000
0000
,
0000
1000
0000
0000
0100
0000
0010
0000
0100
0000
0000
0000
1000
0000
0020
0000
,
0000
0130
0001
0000
1000
0000
0001
0020
,
0000
0130
2000
0000
3002
0000
0000
0000
,
0000
0000
2003
0000
,
0000
0000
3020
0000
,
0000
0000
0000
0000
,
0000
0000
0030
0000
;

//---------------dance-single - Marten-BSP----------------
#NOTES:
     dance-single:
     Marten:
     Easy:
     5:
     0.211647,0.261335,0.045123,0.157929,0,197,191,6,21,0,0,0.211647,0.261335,0.045123,0.157929,0,197,191,6,21,0,0:
0000
0000
0000
0000
,
0000
0000
0000
0000
,
0000
0000
0000
0000
,
0000
0000
0000
0000
,
0000
0000
0000
0000
,
0001
0100
1001
0000
,
1000
0100
1001
0000
,
0001
0010
1001
0000
,
1000
0010
1001
0000
,
0001
0100
0001
0001
,
1000
0100
1000
1000
,
0010
0100
0010
0010
,
1000
0100
0010
0001
,
1000
0100
0010
0010
,
0001
0100
0010
0010
,
1000
0010
0100
0001
,
1000
0100
0001
0100
,
1000
0002
0000
0000
,
0000
2003
0000
0000
,
0000
3200
0000
0000
,
0000
0320
0000
0000
,
0032
2003
0000
0000
,
0000
3020
0000
0000
,
0000
0230
0000
0000
,
0000
0302
0000
0000
,
1003
0100
1000
0001
,
0000
0100
0001
1000
,
0000
0010
1000
0100
,
0000
0010
0001
0100
,
0000
0001
0010
0100
,
0000
1000
0010
0100
,
0000
0001
1000
0100
,
0000
1000
0001
0100
,
0000
1001
0000
0010
,
1000
0001
0000
0010
,
0001
1000
0000
0100
,
0010
0001
0000
0100
,
0010
0110
0000
0010
,
1000
0001
0000
0010
,
0100
1000
0000
0001
,
0100
1000
0000
1000
,
0100
0001
0001
1000
,
1000
0100
0010
0001
,
0000
1000
0010
0100
,
0010
1000
0001
0010
,
0000
0100
0010
0001
,
0100
0001
1000
0100
,
0000
0010
0001
1000
,
0010
0100
0100
0010
,
0020
0000
0000
0000
0000
0000
0000
0000
0000
0030
0000
0000
0000
0000
0000
0000
1000
0000
0000
0000
0000
0000
0000
0000
0100
0000
0000
0000
0000
0000
0000
0000
,
0010
0100
1000
0010
,
0100
0010
1000
0002
,
0000
1003
1000
2000
,
0000
3001
0010
0001
,
0100
0001
0010
0100
,
0010
0001
1000
0020
,
0000
0130
0100
0200
,
0000
0310
1000
0100
,
0010
0001
0010
0100
,
0001
0100
1000
0020
,
0000
0130
0100
0200
,
0000
0310
1000
0010
,
0100
1000
0100
0010
,
1000
0001
0010
0200
,
0000
0310
0010
0020
,
0000
0130
2000
0000
,
0000
0000
3002
0000
,
0000
0000
0023
0000
,
0000
0000
0000
0000
,
0000
0000
0030
0000
;

//---------------dance-single - Marten-bSP----------------
#NOTES:
     dance-single:
     Marten:
     Beginner:
     3:
     0.142888,0.177670,0.015041,0,0,133,131,2,0,0,0,0.142888,0.177670,0.015041,0,0,133,131,2,0,0,0:
0000
0000
0000
0000
,
0000
0000
0000
0000
,
0000
0000
0000
0000
,
0000
0000
0000
0000
,
0000
0000
0000
0000
,
1000
0000
0100
0000
,
0001
0000
0100
0000
,
1000
0000
0001
0000
,
1000
0000
0001
0000
,
0010
0010
0010
0000
,
0001
0001
0001
0000
,
1000
1000
1000
0000
,
0010
0010
0010
0000
,
0100
0000
0010
0000
,
1000
0000
0001
0000
,
0010
0000
0100
0000
,
1000
0000
0001
0000
,
1001
1000
0000
0000
,
0000
0001
0000
0000
,
0000
0100
0000
0000
,
0000
0010
0000
0000
,
1000
0001
0000
0000
,
0000
0010
0000
0000
,
0000
0100
0000
0000
,
0000
1000
0000
0000
,
0010
0010
0000
1000
,
0000
1000
0000
0001
,
0000
0001
0000
0010
,
0000
0010
0000
0100
,
0000
0100
0000
1000
,
0000
1000
0000
0001
,
0000
0001
0000
0100
,
0000
0100
0000
0001
,
0000
0010
0000
0100
,
0000
0010
0000
0001
,
0000
1000
0000
0010
,
0000
0100
0000
0010
,
0000
1000
0000
0100
,
0000
0010
0000
0001
,
0000
1000
0000
0001
,
0000
0100
0000
0010
,
0000
1000
1000
0000
,
0001
0001
0001
0000
,
0100
0100
0100
0000
,
0010
0010
0010
0000
,
1000
1000
0000
0001
,
0000
0010
0000
0100
,
0000
1000
0000
0001
,
0000
0100
0000
0010
,
0010
0000
1001
0000
,
0001
0000
1000
0000
,
0100
0000
0010
0010
,
0000
0010
0000
0100
,
0100
0000
1000
0000
,
0001
0000
0100
0000
,
0010
0000
0100
0100
,
0000
0100
0000
0010
,
0010
0000
1000
0000
,
0100
0000
0001
0000
,
0100
0000
1000
1000
,
0000
1000
0000
0001
,
0001
0000
0001
0000
,
0100
0000
1000
0000
,
0100
0000
0001
0001
,
0000
0001
0000
1000
,
1000
0000
1000
0000
,
0000
0000
0001
0000
,
0000
0000
0010
0000
;

//---------------dance-double - NewbStepper-EDP----------------
#NOTES:
     dance-double:
     NewbStepper:
     Hard:
     13:
     0.452301,0.601071,0.052643,0.105286,0.285777,421,414,7,14,0,0,0.452301,0.601071,0.052643,0.105286,0.285777,421,414,7,14,0,0:
// measure 0
00000000
00000000
00000000
00000000
,  // measure 1
00000000
00000000
00000000
00000000
,  // measure 2
00000000
00000000
00000000
00000000
,  // measure 3
00000000
00000000
00000000
00000000
,  // measure 4
00000000
00000000
00000000
00000000
,  // measure 5
00010000
00000000
00000000
00010000
00000000
00000000
00000100
00000000
00000110
00000000
00000000
00000000
00000001
00000000
00000100
00000000
,  // measure 6
00001000
00000000
00000000
00001000
00000000
00000000
01000000
00000000
01100000
00000000
00000000
00000000
00100000
00000000
10000000
00000000
,  // measure 7
00010000
00000000
00000000
10000000
00000000
00000000
01000000
00000000
00010000
00000000
00000000
00000000
00001000
00000000
00000000
00000000
,  // measure 8
00000010
00000001
00000100
00000010
00001000
00000100
00000010
00000000
,  // measure 9
00000001
00000100
00000001
00000100
00000001
00000000
00000000
00000000
00001000
00000100
00001000
00000000
00000100
00000000
00010000
00000000
,  // measure 10
00001000
00000000
00100000
00000000
10000000
00000000
00100000
00000000
00010000
01000000
00010000
00000000
00100000
00000000
00000000
00000000
,  // measure 11
00001000
00000000
00010000
00000000
01000000
00000000
00100000
00000000
00001000
00010000
00001000
00000000
00000010
00000000
00001000
00000000
,  // measure 12
00010000
00000000
00001000
00000000
00000100
00000000
00000010
00000000
00010000
00001000
00010000
00000000
00100000
00000000
00000000
00000000
,  // measure 13
10000000
01000000
10000000
01000000
10000000
00000000
00000000
00000000
00010000
01000000
00010000
00000000
01000000
00000000
00001000
00000000
,  // measure 14
00010000
00000000
00000010
00000000
00000001
00000000
00000010
00000000
00001000
00000100
00001000
00000000
00000010
00000000
00000000
00000000
,  // measure 15
00010000
00000000
00001000
00000000
00000100
00000000
00000010
00000000
00010000
00001000
00010000
00000000
00100000
00000000
00010000
00000000
,  // measure 16
00001000
00010000
01000000
00100000
00010000
10000000
00100000
00010000
,  // measure 17
00001000
02000000
00000000
00000000
,  // measure 18
00000000
03020000
00000000
00000000
,  // measure 19
00000000
00032000
00000000
00000000
,  // measure 20
00000000
00003020
00000000
00000000
,  // measure 21
00000230
00000302
00000000
00000000
,  // measure 22
00000000
00002003
00000000
00000000
,  // measure 23
00000000
00023000
00000000
00000000
,  // measure 24
00000000
20030000
00000000
00000000
,  // measure 25
31000000
00000000
00200000
00000000
01300000
00010000
00001000
00000000
,  // measure 26
00100000
00000000
01000000
00000000
00010000
00001000
00000100
00000000
,  // measure 27
00000010
00000000
00001000
00000000
00000001
00000100
00001000
00000000
,  // measure 28
00100000
00000000
00010000
00000000
10000000
01000000
00010000
00000000
,  // measure 29
00000010
00000000
00001000
00000000
00000001
00000100
00001000
00000000
,  // measure 30
00010000
00000000
00001000
00000000
00000010
00001000
00010000
00000000
,  // measure 31
00100000
00000000
00010000
00000000
00100000
10000000
01000000
00000000
,  // measure 32
00010000
00001000
00100000
00000000
01000000
00000000
00010000
00000000
,  // measure 33
00001000
00000000
00000200
00000000
00000301
00000010
00001000
00010000
,  // measure 34
00100000
00000000
10000000
00000000
00010000
00000000
00000000
01000000
00000000
00000000
10000000
00000000
00000000
01000000
00000000
00000000
,  // measure 35
00010000
00000000
00000000
00000000
10000000
00000000
00000000
01000000
00000000
00000000
00010000
00000000
00000000
00001000
00000000
00000000
,  // measure 36
00000010
00000000
00000100
00000000
00010000
00000000
00000000
00001000
00000000
00000000
00000010
00000000
00000001
00000100
00000000
00000000
,  // measure 37
00000010
00000000
00000000
00000000
00001000
00000000
00000000
00001000
00000001
00000000
00000000
00000001
00000100
00000000
00000000
00000100
,  // measure 38
00001000
00000000
00000000
00001000
00010000
00000000
00000000
00010000
00100000
00000000
00000000
00100000
10000000
00000000
00000000
10000000
,  // measure 39
01000000
00000000
00000000
01000000
00010000
00000000
00000000
00010000
00001000
00000000
00000000
00001000
00100000
00000000
00000000
00100000
,  // measure 40
00010000
00000000
00000000
00010000
00000010
00000000
00000000
00000010
00000100
00000000
00000000
00000100
00001000
00000000
00000000
00000000
,  // measure 41
00001001
00000000
00000000
00000000
00000010
00000001
00000010
00000001
00000010
00000000
00001000
00000000
00010000
00000000
00001000
00000000
,  // measure 42
00000100
00000000
00001000
00000000
00010000
00000000
00100000
00010000
00000000
00001000
00010000
00000000
00100000
00010000
00000000
00000000
,  // measure 43
00011000
00000000
00000000
00001000
01000000
00000000
00100000
00000000
00010000
00000000
00001000
00000000
00100000
01000000
00000000
00000000
,  // measure 44
10000000
00000000
00010000
00000000
01000000
00000000
00100000
10000000
00000000
10000000
01000000
00000000
00010000
00001000
00000000
00000000
,  // measure 45
00010000
00000000
00100000
10000000
00100000
00010000
00001000
00010000
,  // measure 46
01000000
00000000
00010000
00000000
00001000
00000000
00000010
00001000
00000000
00010000
00001000
00000000
00000010
00001000
00000000
00000000
,  // measure 47
00011000
00000000
00000000
00010000
00000100
00000000
00000010
00000000
00001000
00000000
00010000
00000000
00000010
00000100
00000000
00000000
,  // measure 48
00000001
00000000
00001000
00000000
00000100
00000000
00000010
00000001
00000000
00000001
00000100
00000000
00001000
00010000
00000000
00000000
,  // measure 49
00100000
01000000
00100000
01000000
00000000
00000000
00000000
00000000
00010000
10000000
00010000
10000000
00010000
00000000
01000000
00000000
,  // measure 50
10000000
01000000
00100000
01000000
00001000
00010000
01000000
00010000
,  // measure 51
00000100
00000000
00000010
00000000
00000001
00000000
00000000
00000001
00000100
00000000
00000010
00000000
00001000
00000000
00000001
00000100
,  // measure 52
00000001
00000100
00000001
00000000
00000100
00000000
00001000
00000000
00010000
00000000
01000000
00000000
10000000
00000000
00100000
00000000
,  // measure 53
00010000
00001000
00000000
00000000
00011000
00000000
00000000
00000000
00000100
00000000
00000010
00000000
00001000
00000000
00000100
00000000
,  // measure 54
00000001
00000100
00000010
00000100
00010000
00001000
00000100
00001000
,  // measure 55
01000000
00000000
00100000
00000000
10000000
00000000
00000000
10000000
01000000
00000000
00100000
00000000
00010000
00000000
10000000
01000000
,  // measure 56
10000000
01000000
10000000
00000000
01000000
00000000
00010000
00000000
00001000
00000000
00000100
00000000
00000001
00000000
00000010
00000000
,  // measure 57
00001000
00010000
00000000
00000000
00011000
00000000
00000000
00000000
00100000
00001000
00100000
00001000
00100000
00000000
00010000
00000000
,  // measure 58
01000000
10000000
00010000
00100000
10000000
01000000
00010000
00001000
,  // measure 59
00100000
00001000
00000010
00000000
00000100
00000001
00000100
00001000
,  // measure 60
00000010
00000000
00001000
00000000
00000100
00000000
00000010
00000000
00001000
00000000
00010000
00000000
00100000
00000000
00010000
00001000
,  // measure 61
00010000
00001000
00010000
00000000
00001000
00000000
00000000
00000000
00100000
00000000
10000000
00000000
00100000
00000000
00010000
01000000
,  // measure 62
00010000
01000000
00010000
00000000
10000000
00000000
00100000
00000000
00010000
00000000
00001000
00000000
00000010
00000000
00000100
00000000
,  // measure 63
00000001
00000000
00000100
00000000
00001000
00000000
00000000
00000000
00000010
00000000
00000001
00000000
00000010
00000000
00001000
00000100
,  // measure 64
00001000
00000100
00001000
00000000
00000001
00000000
00000010
00000000
00001000
00000000
00010000
00000000
00100000
00000000
00010000
00001000
,  // measure 65
00010000
00001000
00010000
00000000
00000100
00010000
00000100
00010000
00002000
00000000
00000000
00000000
00000000
00000000
00000000
00000000
,  // measure 66
00000000
00000000
00203000
00000000
,  // measure 67
00000000
00000000
00320000
00000000
,  // measure 68
00000000
00000000
00000000
00000000
,  // measure 69
00000000
00000000
00030000
00000000
;

//---------------dance-double - NewbStepper-DDP----------------
#NOTES:
     dance-double:
     NewbStepper:
     Medium:
     10:
     0.323379,0.392003,0.082725,0.105286,0.067684,301,290,11,14,0,0,0.323379,0.392003,0.082725,0.105286,0.067684,301,290,11,14,0,0:
// measure 0
00000000
00000000
00000000
00000000
,  // measure 1
00000000
00000000
00000000
00000000
,  // measure 2
00000000
00000000
00000000
00000000
,  // measure 3
00000000
00000000
00000000
00000000
,  // measure 4
00000000
00000000
00000000
00000000
,  // measure 5
10000000
00000000
00000000
10000000
00000000
00000000
10000000
00000000
00000000
00000000
00000000
00000000
00000000
00000000
00000000
00000000
,  // measure 6
00010000
00000000
00000000
00010000
00000000
00000000
00010000
00000000
00000000
00000000
00000000
00000000
00000000
00000000
00000000
00000000
,  // measure 7
00001000
00000000
00000000
00001000
00000000
00000000
00001000
00000000
00000000
00000000
00000000
00000000
00000000
00000000
00000000
00000000
,  // measure 8
00000002
00000000
00000000
00000003
,  // measure 9
00001010
00000000
00000101
00000000
00000001
00000100
00001000
00000000
,  // measure 10
00010000
00000000
00000010
00000000
00001000
00010000
00001000
00000000
,  // measure 11
00000010
00000100
00001000
00010000
,  // measure 12
01000000
10000000
01000000
00000000
00100000
00010000
00100000
00000000
,  // measure 13
00110000
00000000
11000000
00000000
10000000
01000000
00010000
00000000
,  // measure 14
00001000
00000000
00100000
00000000
00010000
00001000
00010000
00000000
,  // measure 15
00100000
01000000
00010000
00001000
,  // measure 16
00000100
00000001
00000100
00000001
00000010
00001000
00000010
00001000
,  // measure 17
00010000
00200000
00000000
00000000
,  // measure 18
00000000
00302000
00000000
00000000
,  // measure 19
00000000
00003020
00000000
00000000
,  // measure 20
00000000
00020030
00000000
00000000
,  // measure 21
00032000
00003020
00000000
00000000
,  // measure 22
00000000
00020030
00000000
00000000
,  // measure 23
00000000
00230000
00000000
00000000
,  // measure 24
00000000
00302000
00000000
00000000
,  // measure 25
00013000
00000000
00011000
00000000
00000010
00000100
00000010
00000000
,  // measure 26
00001000
00000000
00011000
00000000
00100000
01000000
00100000
00000000
,  // measure 27
00010000
00000000
00011000
00000000
00001000
00000000
00000010
00000001
,  // measure 28
00000010
00000000
00001000
00000000
00010000
00001000
00010000
00000000
,  // measure 29
00001000
00000000
00011000
00000000
00100000
01000000
00100000
00000000
,  // measure 30
00010000
00000000
00011000
00000000
00000010
00000100
00000010
00000000
,  // measure 31
00001000
00000000
00011000
00000000
00010000
00000000
00100000
10000000
,  // measure 32
00100000
00000000
00010000
00000000
00001000
00010000
00001000
00000000
,  // measure 33
00010000
00000000
00000000
00000000
00001000
00000000
00000010
00000000
00000001
00000000
00000000
00000100
00000000
00000000
00000010
00000000
,  // measure 34
00001000
00000000
00000001
00000000
00000100
00000000
00001000
00010000
,  // measure 35
00001000
00000000
00000000
00000000
00010000
00000000
00100000
00000000
10000000
00000000
00000000
01000000
00000000
00000000
00100000
00000000
,  // measure 36
00010000
00000000
10000000
00000000
00100000
00000000
00010000
00001000
,  // measure 37
00010000
00000000
00000000
00000000
00001000
00000000
00000000
00000100
00000000
00000000
00000001
00000000
00000000
00000100
00000000
00000000
,  // measure 38
00001000
00000000
00010000
00000000
00001000
00000000
00000000
00000010
00000000
00000000
00001000
00000000
00010000
00000000
00000000
00000000
,  // measure 39
00001000
00000000
00000000
00000000
00010000
00000000
00000000
01000000
00000000
00000000
10000000
00000000
00000000
01000000
00000000
00000000
,  // measure 40
00010000
00000000
00001000
00000000
00010000
00000000
00000000
00100000
00000000
00000000
00010000
00000000
00001000
00000000
00000000
00000000
,  // measure 41
00011000
00000000
00010000
00001000
00000100
00000000
00000001
00001000
,  // measure 42
00000100
00000010
00000100
00000000
00001000
00000000
00000001
00000000
,  // measure 43
00000100
00000000
00001000
00010000
01000000
00000000
10000000
00010000
,  // measure 44
01000000
00100000
01000000
00000000
00010000
00000000
10000000
00000000
,  // measure 45
01000000
00000000
00010000
00001000
00000010
00000000
00000001
00001000
,  // measure 46
00000010
00000100
00000010
00000000
00001000
00000000
00000001
00000000
,  // measure 47
00000010
00000000
00001000
00010000
00100000
00000000
10000000
00010000
,  // measure 48
00100000
01000000
00100000
00000000
00010000
00000000
10000000
00000000
,  // measure 49
02000000
00000000
00000000
00000000
00000000
03000000
00000000
00000000
00010000
00000000
00000000
00001000
00000000
00000000
00010000
00000000
,  // measure 50
00000000
00000100
00000000
00000000
00001000
00000000
00000010
00000000
00000001
00000000
00000000
00000010
00000000
00000000
00001000
00000000
,  // measure 51
00000000
00000100
00000000
00000000
00000010
00000000
00000000
00000000
00001000
00000000
00000000
00010000
00000000
00000000
00001000
00000000
,  // measure 52
00000000
01000000
00000000
00000000
00010000
00000000
00100000
00000000
10000000
00000000
00000000
00100000
00000000
00000000
00010000
00000000
,  // measure 53
01000000
00000000
00100000
00000000
10000000
01000000
00100000
00000000
,  // measure 54
01000000
00100000
00010000
00000000
00100000
00010000
00001000
00000000
,  // measure 55
00010000
00001000
00000100
00000000
00001000
00000100
00000010
00000000
,  // measure 56
00000100
00000010
00000001
00000000
00001000
00000010
00001000
00000000
,  // measure 57
00000001
00000010
00000001
00000000
00000001
00000100
00000010
00000000
,  // measure 58
00000100
00000010
00001000
00000000
00000010
00001000
00010000
00000000
,  // measure 59
00001000
00010000
01000000
00000000
00010000
01000000
00100000
00000000
,  // measure 60
01000000
00100000
10000000
00000000
01000000
00000000
00010000
00000000
,  // measure 61
00100000
00000000
10000000
00000000
10000000
01000000
00100000
00010000
,  // measure 62
01000000
00100000
00010000
00000000
00001000
00100000
00010000
01000000
,  // measure 63
00100000
00010000
00001000
00000000
00010000
00001000
00000010
00000100
,  // measure 64
00010000
00001000
00000100
00000000
00000001
00000010
00000100
00001000
,  // measure 65
00000010
00000100
00001000
00000000
00020000
00000000
00000000
00000000
,  // measure 66
00000000
00000000
00032000
00000000
,  // measure 67
00000000
00000000
00203000
00000000
,  // measure 68
00000000
00000000
00000000
00000000
,  // measure 69
00000000
00000000
00300000
00000000
;

//---------------dance-double - NewbStepper-BDP----------------
#NOTES:
     dance-double:
     NewbStepper:
     Easy:
     4:
     0.182639,0.235202,0.022561,0.090245,0,170,167,3,12,0,0,0.182639,0.235202,0.022561,0.090245,0,170,167,3,12,0,0:
// measure 0
00000000
00000000
00000000
00000000
,  // measure 1
00000000
00000000
00000000
00000000
,  // measure 2
00000000
00000000
00000000
00000000
,  // measure 3
00000000
00000000
00000000
00000000
,  // measure 4
00000000
00000000
00000000
00000000
,  // measure 5
00010000
01000000
10000000
00000000
,  // measure 6
10000000
01000000
00010000
00000000
,  // measure 7
00001000
00000010
00000001
00000000
,  // measure 8
00000001
00000010
00001000
00000000
,  // measure 9
00010000
01000000
00010000
00010000
,  // measure 10
00001000
00000100
00001000
00001000
,  // measure 11
00010000
00100000
00010000
00010000
,  // measure 12
00001000
00000010
00001000
00001000
,  // measure 13
00010000
01000000
00100000
00000000
,  // measure 14
00001000
00000100
00000010
00000000
,  // measure 15
00010000
00100000
01000000
00000000
,  // measure 16
00001000
00000010
00000100
00000000
,  // measure 17
00001000
00020000
00000000
00030000
,  // measure 18
00000000
00002000
00000000
00003000
,  // measure 19
00000000
00000020
00000000
00000030
,  // measure 20
00000000
00000002
00000000
00000003
,  // measure 21
00000000
00000200
00000000
00000300
,  // measure 22
00000000
00002000
00000000
00003000
,  // measure 23
00000000
00020000
00000000
00030000
,  // measure 24
00000000
02000000
00000000
03000000
,  // measure 25
00000000
10000000
00000000
01000000
,  // measure 26
00000000
00010000
00001000
00000100
,  // measure 27
00000000
00000001
00000000
00000100
,  // measure 28
00000000
00001000
00010000
01000000
,  // measure 29
00000000
10000000
00000000
00100000
,  // measure 30
00000000
00010000
00001000
00000010
,  // measure 31
00000000
00000001
00000000
00000010
,  // measure 32
00000000
00001000
00010000
00100000
,  // measure 33
00000000
10000000
00010000
10000000
,  // measure 34
00000000
00010000
00001000
00010000
,  // measure 35
00000000
00001000
00000001
00001000
,  // measure 36
00000000
00000100
00001000
00000001
,  // measure 37
00000100
00000001
00001000
00000001
,  // measure 38
00000000
00001000
00010000
00001000
,  // measure 39
00000000
00010000
10000000
00010000
,  // measure 40
00000000
01000000
00010000
01000000
,  // measure 41
00000000
01100000
00000000
00010000
,  // measure 42
00000000
00001000
00000010
00000001
,  // measure 43
00000000
00000110
00000000
00001000
,  // measure 44
00000000
00010000
00100000
10000000
,  // measure 45
00000000
00100000
10000000
01000000
,  // measure 46
00000000
00100000
00010000
01000000
,  // measure 47
00000000
00001000
00010000
00000100
,  // measure 48
00000000
00000010
00000001
00000100
,  // measure 49
00000010
00001000
00000000
00000001
,  // measure 50
00000000
00001000
00000000
00010000
,  // measure 51
00000000
10000000
00000000
10000000
,  // measure 52
00000000
00010000
00000000
00001000
,  // measure 53
00000000
00000001
00000100
00000100
,  // measure 54
00000100
00000000
00001000
00001000
,  // measure 55
00001000
00000000
00010000
00010000
,  // measure 56
00010000
00000000
00100000
00100000
,  // measure 57
00100000
00000000
01000000
01000000
,  // measure 58
01000000
00000000
00010000
00010000
,  // measure 59
00010000
00000000
00001000
00001000
,  // measure 60
00001000
00000000
00000010
00000010
,  // measure 61
00000010
00000000
00000100
00000001
,  // measure 62
00000010
00000100
00001000
00000010
,  // measure 63
00000100
00000000
00001000
00010000
,  // measure 64
00001000
00100000
00010000
00100000
,  // measure 65
00001000
00000000
00020000
00000000
,  // measure 66
00030000
00000000
00000020
00000000
,  // measure 67
00000030
00000000
00002002
00000000
,  // measure 68
00000000
00000000
00000000
00000000
,  // measure 69
00000000
00000000
00003003
00000000
;
