#TITLE:fancy cake!!;
#ARTIST:あるふぁ;
#ARTISTTRANSLIT:Alpha;
#BANNER:fancy cake!!.png;
#BACKGROUND:fancy cake!!-bg.png;
#MUSIC:fancy cake!!.ogg;
#OFFSET:-1.529;
#SAMPLESTART:85.529;
#SAMPLELENGTH:15;
#BPMS:0=160;

//---------------dance-single - Marten-ESP----------------
#NOTES:
     dance-single:
     Marten:
     Hard:
     11:
     0.512332,0.543603,0.468854,0.477080,0.045240,436,379,57,58,0,0,0.512332,0.543603,0.468854,0.477080,0.045240,436,379,57,58,0,0:
// measure 0
0000
0000
0000
0000
,  // measure 1
0000
0000
0000
0000
,  // measure 2
0000
0000
0000
0000
,  // measure 3
0000
0000
0000
0000
,  // measure 4
0101
0000
0000
0011
0000
0000
1100
0000
,  // measure 5
0000
1010
0000
0100
0010
0000
0100
0000
,  // measure 6
1001
0000
0000
0110
0000
0100
0000
0011
,  // measure 7
0000
0100
0000
1010
0000
0001
1000
0000
,  // measure 8
0010
1000
0100
1000
0010
0100
0001
0010
,  // measure 9
0000
0010
0001
0100
0010
1000
0100
0010
,  // measure 10
0100
1000
0001
0100
0010
1000
0010
0100
,  // measure 11
0001
0010
0100
1000
0001
0100
0010
1000
,  // measure 12
0002
0000
0103
0010
2000
0000
3100
0010
,  // measure 13
0200
0000
1300
0010
0200
0000
0301
0100
,  // measure 14
0010
1000
0010
1000
0001
0100
0001
0100
,  // measure 15
0001
0010
1000
0010
0002
0000
2003
3000
,  // measure 16
2020
0000
0000
0000
3030
0000
0000
0000
1010
0000
0000
1001
0000
0000
0102
0000
,  // measure 17
0000
1000
0000
0010
0000
0200
0003
0300
,  // measure 18
0202
0000
0300
0010
0000
0013
0000
0001
,  // measure 19
0010
0100
1000
0002
0000
1003
0001
0000
,  // measure 20
0022
0000
0000
0000
0033
0000
0000
0000
0011
0000
0000
1001
0000
0000
2100
0000
,  // measure 21
0000
0000
0000
3010
0100
0000
0001
0000
,  // measure 22
1001
0000
0000
0000
0000
0000
0010
0000
1000
0000
0000
0001
0000
0000
0010
0000
,  // measure 23
0200
0000
0000
2300
0000
0001
3001
0000
,  // measure 24
1001
0000
0010
0001
0010
0100
1000
0001
,  // measure 25
0000
0101
0000
2100
0000
0000
3001
0000
,  // measure 26
1001
0000
1000
0010
0000
0010
1000
0000
,  // measure 27
0001
1000
0100
0020
0000
0130
0010
0000
,  // measure 28
0022
0000
0000
0000
0033
0000
0000
0000
1100
0000
0000
1001
0000
0000
1020
0000
,  // measure 29
0000
0000
0000
0130
0001
0000
1000
0000
,  // measure 30
2002
0000
0000
3003
,  // measure 31
0220
0000
0330
2002
0000
0000
3003
0000
,  // measure 32
0001
0101
0010
1010
,  // measure 33
1000
0100
0000
1100
0000
1000
0001
0000
,  // measure 34
1000
0000
0100
0001
0000
0100
1000
0000
,  // measure 35
0010
0001
0000
0010
2000
0000
3001
0000
,  // measure 36
1000
1100
0010
0011
,  // measure 37
0001
0100
0000
0101
0000
0001
1000
0000
,  // measure 38
0001
0000
0100
1000
0000
0100
0001
0010
,  // measure 39
0100
1000
0010
0100
0001
0100
0010
1000
,  // measure 40
0100
0000
0110
0000
0010
0001
0010
0100
,  // measure 41
1000
0000
0010
0100
0000
0001
1000
0001
,  // measure 42
0100
0000
1000
0100
0000
0001
0010
0000
,  // measure 43
1000
0010
0000
0001
0100
0010
1000
0001
,  // measure 44
0010
0000
0100
0000
1000
0010
1000
0001
,  // measure 45
0100
0001
0000
1001
0000
0000
1010
0000
,  // measure 46
0110
0000
0010
1000
0000
1000
0100
0000
,  // measure 47
0100
0010
0000
0010
0001
0000
1001
0000
,  // measure 48
0001
0000
0000
0000
0001
0000
0000
0000
0100
0000
0000
0100
0000
0000
0100
0000
,  // measure 49
0010
0000
0000
0000
0010
0000
0000
0000
1000
0000
0000
1000
0000
0000
1000
0000
,  // measure 50
0100
0000
0000
0000
0100
0000
0000
0000
0010
0000
0000
0010
0000
0000
0010
0000
,  // measure 51
0001
0000
1000
0000
0010
0100
0010
0000
,  // measure 52
2000
3020
0230
0302
,  // measure 53
0023
0230
2300
3002
,  // measure 54
1003
0010
0100
0001
0010
0100
1000
0001
,  // measure 55
2000
0000
0000
3001
,  // measure 56
0101
0000
0020
0000
1030
0010
0100
0001
,  // measure 57
0000
0000
0011
0000
0000
0000
1100
0000
0000
0000
1000
0100
1000
0000
0010
0000
,  // measure 58
0200
0000
0302
0000
1003
0010
1000
0200
,  // measure 59
0000
0310
0001
0200
0000
0000
0310
0000
,  // measure 60
1000
0010
0100
0001
0000
0000
1000
0010
,  // measure 61
0100
0001
0000
1000
0100
0010
0001
1000
,  // measure 62
0001
0010
0100
1000
0000
0000
0001
0010
,  // measure 63
0100
1000
0000
0001
0001
0010
0100
1000
,  // measure 64
0001
0000
0020
0000
0031
0100
0010
1000
,  // measure 65
0000
0000
1100
0000
0000
0000
0101
0000
0000
0000
0001
0100
0001
0000
0010
0000
,  // measure 66
0200
0000
2300
0000
3001
0010
0001
0200
,  // measure 67
0000
0310
1000
0200
0000
0000
0310
0000
,  // measure 68
0001
0100
0010
1000
0000
0000
0001
0100
,  // measure 69
0010
1000
0000
0010
1000
0001
0010
0100
,  // measure 70
2100
3010
0102
0013
,  // measure 71
0110
2001
3002
1003
,  // measure 72
0102
0000
1003
0000
2100
0000
3001
0100
,  // measure 73
0010
1000
0001
0000
1001
0000
0110
0000
,  // measure 74
2010
3001
0012
1003
,  // measure 75
0110
0000
0110
0000
1000
0010
0100
0001
,  // measure 76
2000
0000
0000
0000
,  // measure 77
3000
0000
0001
0000
0100
0000
0010
0000
0100
0001
0000
1000
0010
0000
0000
0000
;

//---------------dance-single - Marten-bSP----------------
#NOTES:
     dance-single:
     Marten:
     Beginner:
     1:
     0.090481,0.159883,0.123383,0.024677,0,77,62,15,3,0,0,0.090481,0.159883,0.123383,0.024677,0,77,62,15,3,0,0:
0000
0000
0000
0000
,
0000
0000
0000
0000
,
0000
0000
0000
0000
,
0000
0000
0000
0000
,
1000
0000
0000
0000
,
0000
0000
0000
0000
,
1001
0000
0000
0000
,
1001
0000
0000
0000
,
0001
0000
0000
0000
,
0001
0000
0000
0000
,
1000
0000
0000
0000
,
1000
0000
0000
0000
,
0001
0000
0000
0000
,
1000
0000
0000
0000
,
0010
0000
0000
0000
,
0010
0000
0000
0000
,
0110
0000
0000
0000
,
0000
0000
0000
0000
,
1001
0000
0000
0000
,
0000
0000
0000
0000
,
0110
0000
0000
0000
,
0000
0000
0000
0000
,
1001
0000
0000
0000
,
0000
0000
0000
0000
,
0010
0000
0000
0000
,
0010
0000
0000
0000
,
0100
0000
0000
0000
,
0100
0000
0000
0000
,
0110
0000
0000
0000
,
0000
0000
0000
0000
,
1001
0000
0000
0000
,
0000
0000
0000
0000
,
0001
0000
0000
0000
,
0001
0000
0000
0000
,
1000
0000
0000
0000
,
1000
0000
0000
0000
,
0001
0000
0000
0000
,
0001
0000
0000
0000
,
1000
0000
0000
0000
,
1000
0000
0000
0000
,
0100
0000
0000
0000
,
0100
0000
0000
0000
,
0110
0000
0000
0000
,
0000
0000
0000
0000
,
0001
0000
0000
0000
,
1000
0000
0000
0000
,
1001
0000
0000
0000
,
0110
0000
0000
0000
,
0001
0000
0000
0000
,
0001
0000
0000
0000
,
0001
0000
0000
0000
,
0001
0000
0000
0000
,
1000
0000
0000
0000
,
1000
0000
0000
0000
,
0010
0000
0000
0000
,
0200
0000
0300
0000
,
0010
0000
0000
0000
,
0010
0000
0000
0000
,
1000
0000
0000
0000
,
1000
0000
0000
0000
,
0001
0000
0000
0000
,
0000
0000
0000
0000
,
0001
0000
0000
0000
,
0000
0000
0000
0000
,
0010
0000
0000
0000
,
0010
0000
0000
0000
,
0001
0000
0000
0000
,
0001
0000
0000
0000
,
1000
0000
0000
0000
,
0000
0000
0000
0000
,
1000
0000
0000
0000
,
0000
0000
0000
0000
,
1001
0000
0000
0000
,
0001
0000
0000
0000
,
1001
0000
0000
0000
,
1000
0000
0000
0000
,
2002
0000
0000
0000
,
0000
0000
3003
1001
;

//---------------dance-single - Marten-BSP----------------
#NOTES:
     dance-single:
     Marten:
     Easy:
     6:
     0.287893,0.383720,0.337246,0.230314,0,245,204,41,28,0,0,0.287893,0.383720,0.337246,0.230314,0,245,204,41,28,0,0:
0000
0000
0000
0000
,
0000
0000
0000
0000
,
0000
0000
0000
0000
,
0000
0000
0000
0000
,
0001
0000
0001
0000
,
1000
0000
1000
0000
,
1001
0000
0000
0000
0000
0000
0000
1001
,
0000
0000
0000
1001
0000
0000
0001
0000
,
1000
0000
1000
0000
,
0001
0000
0001
0000
,
0010
0000
0010
0000
,
0100
0000
0100
0000
,
1001
0000
1001
0000
,
0110
0000
0110
0000
,
1000
0010
0100
0001
,
2000
0000
0001
3001
,
2002
0000
0000
3003
,
1000
0001
2000
0000
,
3010
0000
0010
0000
,
0100
0010
0200
0000
,
0301
0000
1000
0001
,
1001
0000
0110
0000
,
2000
0000
3002
0000
,
2003
0000
3001
1001
,
0001
0100
0010
1000
,
0100
1000
0100
0000
,
1000
0100
1000
0010
,
0100
0001
0100
0000
,
0210
0000
0001
0302
,
0023
0000
0100
0230
,
2300
0000
0000
3000
,
0110
0000
0000
1001
0000
0000
0000
0000
,
1001
0001
1000
1000
,
0001
0010
0100
0000
,
1100
0000
0000
1100
0000
0000
0110
0000
,
0000
0110
0000
0000
0011
0000
0000
0000
,
1001
1000
0001
0001
,
1000
0010
0100
0000
,
0101
0000
0000
0101
0000
0000
0110
0000
,
0000
0110
0000
0000
1010
0000
1000
0000
,
0001
0001
1000
1000
,
0010
0100
0001
0000
,
1000
0000
0000
1000
0000
0000
0001
0000
,
0000
0001
0000
0000
0100
0000
0010
0000
,
1000
1000
0001
0001
,
0010
0100
1000
0001
,
0011
0000
0000
0101
0000
0000
1010
0000
,
0000
1100
0000
0000
1001
0000
0001
0000
,
1000
0000
1000
0000
,
0001
0000
0001
0000
,
1000
0000
0001
0000
,
0010
0000
0110
0000
,
1000
0100
0010
0001
,
1000
0010
0100
0001
,
1000
1000
0001
0001
,
2002
0000
0000
3003
,
1001
0001
1000
0001
,
1000
0100
0001
0000
,
0200
0000
2300
0000
,
3010
0010
0200
0000
,
0301
0001
0000
1000
,
1000
0000
0010
0000
,
0100
0100
0000
0010
,
0010
0000
0110
0000
,
1001
1000
0001
1000
,
0001
0100
1000
0000
,
0200
0000
0302
0000
,
0013
0010
0200
0000
,
1300
1000
0000
0001
,
0001
0000
0010
0000
,
0220
0330
2002
3003
,
1010
0202
0000
0303
,
1000
0100
0001
0100
,
1000
0001
1000
0000
,
0001
0100
1000
0100
,
0001
0001
1000
1000
,
0020
0000
0000
0000
,
0000
0100
0130
0110
;

//---------------dance-single - Marten-DSP----------------
#NOTES:
     dance-single:
     Marten:
     Medium:
     8:
     0.406575,0.511627,0.493531,0.370148,0.020564,346,286,60,45,0,0,0.406575,0.511627,0.493531,0.370148,0.020564,346,286,60,45,0,0:
0000
0000
0000
0000
,
0000
0000
0000
0000
,
0000
0000
0000
0000
,
0000
0000
0000
0000
,
1010
0000
0000
0101
0000
0000
0011
0000
,
0000
1100
0000
0000
1001
0000
0000
0000
,
0110
0000
0000
0110
0000
0000
0000
1001
,
0000
0000
0000
1001
0000
0000
1000
0000
,
0010
0000
1000
0100
1000
0000
0001
0010
,
0000
0100
1000
0000
0001
0000
1000
0000
,
1001
0000
0001
0100
0001
0000
1000
0010
,
0000
0100
0001
0000
1000
0000
0001
0000
,
0011
0000
1001
0000
,
1010
0000
0110
0000
,
0010
0010
0010
0010
,
0100
0010
2000
3002
,
0203
0000
0000
0000
0301
0020
0000
0230
,
0000
2300
0000
3002
0000
0000
0000
0000
,
0203
0000
0000
0010
0000
0310
0000
0010
,
1000
0100
1000
0002
0000
0000
1003
0000
,
1001
0000
0000
0000
0000
0000
0000
0000
0010
0000
0000
0010
0000
0000
0020
0000
,
0000
0000
0130
1000
,
1001
0000
0000
0001
1000
0000
0001
0000
,
1001
0000
0000
2002
0000
0000
3003
0000
,
0001
0000
0100
0000
0010
1000
0010
0000
,
1000
0100
0001
0100
,
1000
0000
0010
0000
0100
0010
0100
0000
,
0001
0010
0001
0010
0100
0000
1000
0000
,
2002
0000
0000
0000
3003
0000
0000
0000
1000
0000
0000
0001
0000
0000
2002
0000
,
0000
3003
1010
0101
,
0022
0000
0000
0030
,
1000
0000
0000
2000
0000
0000
3003
0000
,
1001
0001
1000
0010
,
0100
0001
0000
1000
0000
0100
0010
0000
,
0001
0000
0010
0100
0000
1000
0100
0000
,
0010
0001
0000
0010
0100
0000
1000
0000
,
1001
1000
0001
0010
,
0100
1000
0000
0001
0000
0100
0010
0000
,
1000
0000
0010
0100
0000
0001
0100
0000
,
0010
1000
0000
0100
0010
0000
0001
0000
,
1001
0101
1100
1000
,
0020
0000
0130
0000
0001
0000
0010
0100
,
2000
0000
0000
3002
0000
0000
0203
0000
,
0000
0320
0000
0000
1030
0000
0001
0000
,
0101
1100
1001
0001
,
0022
0033
0000
2200
0000
0000
3300
0000
,
0101
0000
0000
1001
0000
0000
1010
0000
,
0000
0110
0000
0000
1001
0000
0001
0000
,
1000
0000
0000
0000
0001
0000
0000
0000
1000
0000
0000
0010
0000
0000
0100
0000
,
0001
0000
0000
0000
1000
0000
0000
0000
0001
0000
0000
0010
0000
0000
0100
0000
,
1000
0000
0000
0000
0001
0000
0000
0000
1000
0000
0000
0100
0000
0000
0010
0000
,
0001
1000
1001
0110
,
0010
0010
0100
0100
,
0001
1000
0001
1000
,
0001
1000
0001
1000
0010
0100
0010
0100
,
0020
0000
0000
0130
,
0101
0000
1010
0000
0001
0000
1000
0200
,
0000
0320
0000
0032
0000
0000
0000
0000
,
1003
0000
0010
0000
0100
0001
0000
0020
,
0000
0230
0000
2300
0000
0000
3001
0000
,
0001
0000
1000
0001
0000
0000
1000
0000
,
0001
1000
0000
0010
0100
0000
0100
0000
,
0010
0000
0100
0010
0000
0000
0100
0000
,
0010
0100
0000
0001
1000
0000
1001
0000
,
1100
0000
0011
0000
1000
0000
0001
0200
,
0000
0320
0000
2030
0000
0000
0000
0000
,
3001
0000
1000
0000
0010
0000
0100
0002
,
0000
0023
0000
0230
0000
0000
1300
0000
,
0010
0000
0100
0001
0000
0100
0010
0000
,
1000
0010
0000
0100
0010
0000
0110
0000
,
0101
0000
1100
0000
,
1001
1002
1000
1003
,
0011
0001
0101
0001
,
1000
0010
0200
0310
,
1010
1000
1100
1000
,
1001
1001
1010
0101
,
0220
0000
0000
0330
,
0000
0001
0010
0100
1000
0000
1001
0000
;

//---------------dance-double - NewbStepper-EDP----------------
#NOTES:
     dance-double:
     NewbStepper:
     Hard:
     11:
     0.507631,0.543603,0.287893,0.320795,0.028789,432,397,35,39,0,0,0.507631,0.543603,0.287893,0.320795,0.028789,432,397,35,39,0,0:
00000000
00000000
00000000
00000000
,
00000000
00000000
00000000
00000000
,
00000000
00000000
00000000
00000000
,
00000000
00000000
00000000
00000000
,
00000101
00000000
00000000
00001010
00000000
00000000
00010100
00000000
,
00000000
00101000
00000000
00010000
01000000
00000000
00100000
00000000
,
11000000
00000000
00000000
00110000
00000000
10000000
00000000
02000000
,
00000000
03010000
00001000
00000200
00000000
00000301
00001000
00000001
,
00000010
00000100
00001000
00000100
00010000
00001000
00000010
00000001
,
00000000
00000100
00000010
00000100
00001000
00010000
01000000
10000000
,
00100000
01000000
00010000
01000000
00001000
00010000
00100000
01000000
,
00010000
10000000
01000000
00010000
00001000
00000100
00000001
00000000
,
00000001
00000100
00000010
00001000
00000000
00010000
01000000
00100000
,
10000000
01000000
00100000
00010000
01000000
00100000
00010000
00001000
,
00000010
00000101
00000010
00001100
,
00000010
00000001
00000100
00001000
00010000
01000000
10000000
00000000
,
00200000
00000000
00000000
00000000
00300000
00000000
00000000
00000000
10100000
00000000
00000000
10010000
00000000
00000000
02010000
00000000
,
00000000
00001000
00000000
03010000
00100000
00001000
00010000
00000000
,
00001020
00000000
00000000
00000100
00000000
00010030
00000000
00001000
,
00000100
00000001
00000010
00000200
00000000
00010300
00000100
00000000
,
00000020
00000000
00000000
00000000
00000030
00000000
00000000
00000000
00000011
00000000
00000000
00001001
00000000
00000000
00001200
00000000
,
00000000
00000000
00000000
00000300
00000010
00000000
00000001
00000000
,
00001001
00000000
00000000
00000000
00000000
00000000
00000010
00000000
00001000
00000000
00000000
00000001
00000000
00000000
00000100
00000000
,
00002000
00000000
00000000
00023000
00000000
01000000
01030000
00000000
,
10010000
00000000
00100000
10000000
00010000
00100000
00001000
01000000
,
00010000
00100000
00001000
00010000
00000100
00000010
00000001
00000000
,
00001001
00000000
00000010
00000001
00000100
00000010
00001000
00000100
,
00010000
00001000
00000100
00000001
00000000
00000100
00001000
00000000
,
00011000
00000000
00000000
00000000
00000000
00000000
00000000
00000000
01100000
00000000
00000000
01010000
00000000
00000000
01200000
00000000
,
00000000
00000000
00000000
00300000
10000000
00000000
01000000
00000000
,
00020000
00000000
00000000
00030000
,
00011000
00000000
00000000
00001010
00000000
00000000
00000000
00000000
,
00000001
00000000
00000010
00000001
00000100
00000000
00000010
00001000
,
00010000
01000000
00000000
00100000
00000000
10000000
01000000
00000000
,
10000000
00000000
00100000
10000000
01000000
00000000
00100000
00010000
,
00001000
00000100
00000000
00000010
00000001
00000000
00000100
00000000
,
00001001
00000000
00000010
00000001
00000100
00000010
00001000
00000100
,
00010000
00001000
00000000
00000100
00000000
00001000
00010000
01000000
,
10000000
00000000
01000000
00010000
00000000
01000000
10000000
00100000
,
01000000
00010000
00100000
00001000
00010000
00000100
00001000
00000100
,
00000010
00000000
00000110
00000000
00000001
00001000
00000100
00000010
,
00000001
00000100
00000000
00001000
00000000
00010000
01000000
00000000
,
00100000
00000000
01100000
00000000
10000000
00010000
01000000
00100000
,
10000000
01000000
00000000
00010000
00000000
00001000
00000100
00000000
,
00000001
00000000
00000010
00000000
00000001
00000100
00000001
00001000
,
00000100
00010000
00000000
00011000
00000000
01000000
00100000
00000000
,
10000000
01000000
00010000
01000000
10000000
01000000
00010000
00001000
,
00000100
00000001
00000100
00001000
00000100
00000001
00000100
00001000
,
00010000
00000000
00000000
00000000
00100000
00000000
00000000
00000000
10000000
00000000
00000000
10000000
00000000
00000000
10000000
00000000
,
01000000
00000000
00000000
00000000
00010000
00000000
00000000
00000000
00001000
00000000
00000000
00001000
00000000
00000000
00001000
00000000
,
00000010
00000000
00000000
00000000
00000001
00000000
00000000
00000000
00000100
00000000
00000000
00000100
00000000
00000000
00000100
00000000
,
00001000
00010000
00100000
00000000
,
20000000
32000000
03200000
00320000
,
00032000
00003200
00000320
00000032
,
00001003
00000100
00010000
00001000
00100000
00010000
01000000
00100000
,
10000000
00000000
00000000
00000000
,
00020000
00000000
20030000
00000000
32000000
00000000
03010000
00001000
,
00000000
00000010
00000001
00000100
00000000
00000010
00001000
00000000
,
00000002
00000000
00000023
00000000
00000031
00000100
00000010
00001000
,
00000000
00010000
01000000
00100000
01000000
00010000
10000000
01000000
,
10000000
00100000
01000000
00010000
00000000
00000000
00001000
00000010
,
00000100
00000001
00000000
00000000
00000001
00000010
00000100
00001000
,
00000001
00000100
00000010
00001000
00000000
00000000
00010000
01000000
,
00100000
10000000
00000000
01000000
00010000
01000000
10000000
00000000
,
00010000
10000000
01000000
10000000
00010000
10000000
00100000
00010000
,
00001000
00000100
00000001
00001000
00000100
00000010
00000001
00000000
,
00001000
00000001
00000100
00000001
00001000
00000001
00000010
00001000
,
00010000
01000000
10000000
00010000
01000000
00100000
10000000
00000000
,
10000000
01000000
00100000
00010000
00000000
00000000
00001000
00000100
,
00000010
00000001
00000000
00000000
00001000
00000010
00000100
00000001
,
00000022
00000033
00002200
00003300
,
00011000
00022000
00033000
00000000
,
00200000
00000000
00310000
01000000
00200000
00000000
10300000
01000000
,
00100000
00010000
00100000
00000000
00022000
00000000
00033000
00000000
,
00000020
00000000
00001030
00000100
00000020
00000000
00000031
00000100
,
00000010
00001000
00000001
00000100
00001000
00000000
00010000
00000000
,
02200000
00000000
00000000
03300000
,
00000000
10000000
01000000
00010000
00001000
00000000
00011000
00000000
;

//---------------dance-double - NewbStepper-DDP----------------
#NOTES:
     dance-double:
     NewbStepper:
     Medium:
     8:
     0.401875,0.479650,0.263216,0.148059,0.024677,342,310,32,18,0,0,0.401875,0.479650,0.263216,0.148059,0.024677,342,310,32,18,0,0:
00000000
00000000
00000000
00000000
,
00000000
00000000
00000000
00000000
,
00000000
00000000
00000000
00000000
,
00000000
00000000
00000000
00000000
,
10100000
00000000
00000000
01000000
00000000
00000000
00110000
00000000
,
00000000
01000000
00000000
00000000
10000000
00000000
00000000
00000000
,
00010000
00000000
00000000
00001000
00000000
00000000
00000000
00011000
,
00000000
00000000
00000000
00000110
00000000
00000000
00000000
00000000
,
00000001
00000000
00000100
00000000
00000001
00000100
00000010
00000000
,
00001000
00000000
00000100
00000000
00010000
00001000
00100000
00000000
,
00010000
00000000
01000000
00000000
00010000
01000000
00100000
00000000
,
10000000
00000000
01000000
00010000
00001000
00000000
00000010
00000000
,
00000001
00000100
00000001
00000100
00000000
00000010
00001000
00000010
,
00001000
00000000
00000100
00010000
,
00001000
00100000
00010000
01000000
,
00100000
10000000
00100000
10000000
00100000
00000000
00000000
00000000
,
11000000
00000000
00000000
00000000
00000000
00000000
00000000
00000000
00010000
00000000
00000000
00100000
00000000
00000000
00010000
00000000
,
00000000
00001000
00000000
00000100
00000000
00000000
00000000
00000000
,
00000011
00000000
00000000
00001000
00000000
00000100
00000000
00001000
,
00000001
00000010
00001000
00010000
00000000
00010000
00001000
00000000
,
00000101
00000000
00000000
00000000
00000000
00000000
00000000
00000000
00001000
00000000
00000000
00000010
00000000
00000000
00002000
00000000
,
00000000
00000000
00003100
00010000
,
00100000
00000000
00000000
10000000
00010000
00000000
01000000
00000000
,
01010000
00000000
00000000
20200000
00000000
00000000
30300000
00000000
,
00010000
00000000
10000000
00000000
01000000
00100000
01000000
00010000
,
00000000
00001000
00000000
00000100
00000000
00000000
00001001
00000000
,
00001000
00000000
00000001
00000010
00000000
00000100
00000000
00001000
,
00000010
00001000
00000010
00010000
00000000
00001000
00010000
00000000
,
00022000
00000000
00000000
00000000
00033000
00000000
00000000
00000000
00100000
00000000
00000000
10000000
00000000
00000000
00200000
00000000
,
00000000
00300000
10000000
01000000
,
00020000
00000000
00000000
00030000
,
00011000
00000000
00000000
00011000
00000000
00000000
00000000
00000000
,
00001100
00000001
00001000
00010000
,
10000000
01000000
00000000
00100000
00000000
00010000
01000000
00000000
,
01010000
10000000
00010000
00001000
,
00000001
00000010
00000000
00000100
00000000
00001000
00000010
00000000
,
00001010
00000001
00001000
00010000
,
10000000
00100000
00000000
01000000
00000000
00010000
00100000
00000000
,
00110000
00000000
01000000
10000000
00000000
01000000
10000000
00000000
,
01000000
00010000
00001000
00000000
00000010
00000001
00000010
00000000
,
00000110
00000001
00001000
00010000
,
10000000
01000000
00000000
00100000
00000000
00000000
00010000
10000000
,
00010000
10000000
00010000
00001000
,
00000001
00000100
00000000
00000010
00000000
00000000
00001000
00000001
,
00001000
00000001
00001000
00010000
,
10000000
00100000
10000000
00000000
01000000
00000000
00100000
00000000
,
00110000
00010000
01010000
00010000
,
00001010
00001000
00001100
00001000
,
00000001
00000000
00000000
00000000
00000001
00000000
00000000
00000000
00000010
00000000
00000000
00000010
00000000
00000000
00000010
00000000
,
00000001
00000000
00000000
00000000
00000001
00000000
00000000
00000000
00001000
00000000
00000000
00001000
00000000
00000000
00001000
00000000
,
00010000
00000000
00000000
00000000
00010000
00000000
00000000
00000000
00100000
00000000
00000000
00100000
00000000
00000000
00100000
00000000
,
00010000
01000000
10010000
00000000
,
10000000
10000000
01000000
01000000
,
00010000
00010000
00001000
00001000
,
00000100
00000010
00000100
00000010
00001000
00000001
00001000
00000001
,
00000020
00000000
00000000
00000130
,
00001000
00000000
00000001
00000000
00000100
00000000
00001000
00020000
,
00000000
00230000
00000000
20300000
00000000
30000000
00000000
00000000
,
00010000
00000000
10000000
00000000
01000000
00100000
01000000
00010000
,
00000000
00001000
00010000
00000000
00000010
00000000
00000100
00000000
,
00000001
00000100
00000001
00000100
00000000
00000000
00000010
00001000
,
00000010
00001000
00000000
00000000
00000100
00000000
00010000
00000000
,
00001000
00100000
00001000
00100000
00000000
00000000
00010000
01000000
,
00010000
01000000
00000000
00000000
00100000
00000000
10000000
00000000
,
00010000
00000000
10000000
00000000
01000000
00000000
00010000
00002000
,
00000000
00003020
00000000
00000032
00000000
00000003
00000000
00000000
,
00001000
00000000
00000001
00000000
00000100
00000010
00000100
00001000
,
00000000
00010000
00001000
00000000
00100000
00000000
01000000
00000000
,
10000000
01000000
10000000
01000000
00000000
00000000
00100000
00010000
,
00100000
00010000
00000000
00000000
01000000
00000000
00001000
00000000
,
00011000
00000000
00001010
00000000
,
00000101
00000101
00000000
00000000
,
00000011
00000000
00000001
00000100
00000001
00000000
00000100
00001000
,
00010000
00001000
00010000
00000000
00022000
00000000
00033000
00000000
,
10100000
00000000
10000000
01000000
10000000
00000000
01000000
00010000
,
00001000
00010000
00001000
00010000
00000100
00000000
00000010
00000000
,
00000220
00000000
00000000
00000330
,
00000000
00000001
00000010
00000100
00001000
00000000
00001001
00000000
;

//---------------dance-double - NewbStepper-BDP----------------
#NOTES:
     dance-double:
     NewbStepper:
     Easy:
     5:
     0.277317,0.319767,0.222089,0.164510,0,236,209,27,20,0,0,0.277317,0.319767,0.222089,0.164510,0,236,209,27,20,0,0:
00000000
00000000
00000000
00000000
,
00000000
00000000
00000000
00000000
,
00000000
00000000
00000000
00000000
,
00000000
00000000
00000000
00000000
,
00000001
00000000
00000001
00000000
,
00001000
00000000
00001000
00000000
,
00001001
00000000
00000000
00000000
00000000
00000000
00000000
00000110
,
00000000
00000000
00000000
00000110
00000000
00000000
00000001
00000000
,
00001000
00000000
00001000
00000000
,
00000001
00000000
00000001
00000000
,
00000010
00000000
00000010
00000000
,
00001000
00000000
00001000
00000000
,
00011000
00000000
00011000
00000000
,
01100000
00000000
01100000
00000000
,
10000000
00100000
01000000
00010000
,
20000000
00000000
00010000
30010000
,
20020000
00000000
00000000
30030000
,
10000000
01000000
20000000
00000000
,
30100000
00000000
00100000
00000000
,
00010000
00001000
00020000
00000000
,
00030100
00000000
00001000
00000001
,
00001001
00000000
00000110
00000000
,
00000002
00000000
00002003
00000000
,
00003002
00000000
00001003
00001001
,
00000001
00000100
00000010
00010000
,
00001000
01000000
00100000
00000000
,
10000000
01000000
00100000
00001000
,
00010000
00000100
00000010
00000000
,
00000120
00000000
00000031
00001000
,
00000200
00000000
00010000
00020300
,
00032000
00000000
00000000
00003000
,
00011000
00000000
00000000
01100000
00000000
00000000
00000000
00000000
,
10010000
10000000
01000000
00010000
,
00001000
00000100
00000001
00000000
,
00001001
00000001
00000100
00001000
,
00010000
01000000
10000000
00000000
,
10010000
10000000
00100000
00010000
,
00001000
00000010
00000001
00000000
,
00001000
00000010
00000100
00000001
,
00000010
00001000
00010000
01000000
,
10000000
00100000
00010000
00001000
,
00000010
00000001
00001000
00000000
,
00000001
00000010
00001000
00010000
,
00100000
10000000
00010000
00000000
,
10000000
01000000
00100000
00001000
,
00010000
00000100
00000010
00000001
,
00000020
00000000
00000000
00000030
,
00000200
00000000
00000000
00000300
,
00001000
00000100
00001000
00000000
,
00000001
00000100
00000001
00000000
,
00000100
00000010
00000100
00000000
,
00001000
00010000
00001000
00000000
,
00100000
00010000
10000000
00100000
,
10000000
00010000
00100000
00001000
,
00010000
00010000
00001000
00001000
,
00022000
00000000
00000000
00033000
,
00011000
00000000
00000100
00000000
,
00000010
00000001
00000100
00001000
,
00011000
00000000
01000000
00000000
,
00100000
10000000
01000000
00010000
,
00001000
00001000
00000000
00100000
,
00100000
00000000
01000000
00000000
,
00010000
00010000
00000000
00000010
,
00000010
00000000
00000100
00000000
,
00011000
00000000
01000000
00000000
,
00100000
10000000
01000000
00010000
,
00011000
00000000
00000100
00000000
,
00000010
00000001
00000100
00001000
,
00010000
00010000
00000000
00000010
,
00000010
00000000
00000100
00000000
,
00011000
00000000
00011000
00000000
,
01100000
02200000
00000000
03300000
,
10000000
01000000
00010000
00001000
,
00010000
00001000
00000020
00000030
,
00000001
00000100
00001000
00000100
,
00001000
00010000
00100000
00010000
,
00200000
00000000
00000000
00000000
,
00000000
01000000
01300000
01100000
;
