#TITLE:extinguisher;
#ARTIST:lixound;
#BANNER:extinguisher.png;
#BACKGROUND:extinguisher-bg.png;
#MUSIC:extinguisher.ogg;
#OFFSET:1.326;
#SAMPLESTART:88.177;
#SAMPLELENGTH:15;
#BPMS:0=181,68=90.5,84=181,204=90.5,206=181,238=90.5,242=181,330=90.5,338=181;
#STOPS:67.75=0.663,111.75=1.326;
#BGCHANGES:3.5=extinguisher.avi=1=0=0=0=StretchNoLoop====,99999=-nosongbg-=1=0=0=0 // don't automatically add -songbackground-;

//---------------dance-single - NewbStepper-bSP----------------
#NOTES:
     dance-single:
     NewbStepper:
     Beginner:
     3:
     0.101206,0.226666,0.021468,0.014312,0,99,96,3,2,0,0,0.101206,0.226666,0.021468,0.014312,0,99,96,3,2,0,0:
0000
0000
0000
0000
,
0000
0000
0000
0000
,
0000
0000
0000
0000
,
0000
0000
0000
0000
,
0000
0000
0000
0000
,
0000
0000
0000
0000
,
0000
0000
0000
0000
,
0000
0000
0000
0000
,
0000
0000
0000
0000
,
1000
0000
0000
0000
,
0000
0000
0000
0000
,
0000
0000
0000
0000
,
0000
0000
0000
0000
,
1000
0000
0000
0000
,
0000
0000
0000
0000
,
0000
0000
0000
0000
,
0000
0000
0000
0000
,
0010
0000
0000
0000
,
0000
0000
0000
0000
,
0100
0000
0000
0000
,
0000
0000
0000
0000
,
0001
0000
0000
0000
,
1000
0000
0000
0000
,
0001
0000
0000
0000
,
0000
0000
0000
0000
,
1000
0000
1000
0000
,
1000
0000
1000
0000
,
0002
0000
0000
0003
,
0100
0000
0000
0000
,
0000
0000
0000
0000
,
0010
0000
0000
0000
,
0000
0000
0000
0000
,
0100
0000
0000
0000
,
0000
0000
0000
0000
,
0010
0000
0000
0000
,
0000
0000
0000
0000
,
1000
0000
0001
0000
,
1000
0000
0000
0000
,
0001
0000
1000
0000
,
0001
0000
0000
0000
,
0100
0000
0010
0000
,
0100
0000
0000
0000
,
0010
0000
0100
0000
,
0010
0000
0000
0000
,
1001
0000
0000
0000
,
0000
0000
0000
0000
,
0000
0000
0000
0000
,
0000
0000
0000
0000
,
0000
0000
0000
0000
,
0000
0000
0000
0000
,
0000
0000
0000
0000
,
0010
0000
0001
0000
,
0000
0100
0100
0000
,
0000
1000
1000
0000
,
0000
0100
0100
0000
,
0001
0000
1000
0000
,
0000
0100
0100
0000
,
0000
0001
0001
0000
,
0000
0100
0100
0000
,
1000
0000
1001
0000
,
0000
0000
0010
0000
,
0000
0000
0010
0000
,
0000
0000
0100
0000
,
0000
0000
0100
0000
,
0000
0000
0001
0000
,
1000
0000
0001
0000
,
0000
0000
1000
0000
,
1000
0000
0001
0000
,
0001
0000
1000
0000
,
0001
0000
1000
0000
,
0000
0000
0001
0001
,
0001
0000
1000
1000
,
1000
0000
0010
0000
,
0000
0100
0100
0000
,
0000
0010
0010
0000
,
0000
1000
1000
0000
,
0000
0001
0001
0000
,
0000
0100
0100
0000
,
0000
0000
0010
0000
,
0000
1000
1000
0000
,
0000
0001
0001
0000
,
0000
0100
0000
0000
,
0000
0010
0020
0000
,
0000
0000
0000
0000
,
0030
0000
1000
0000
,
0001
0000
1000
0000
,
0000
0000
0001
0000
,
1000
0000
0001
0000
,
0000
0000
0100
0000
,
0010
0000
0100
0000
,
0000
0000
1001
0000
;

//---------------dance-single - NewbStepper-BSP----------------
#NOTES:
     dance-single:
     NewbStepper:
     Easy:
     6:
     0.193212,0.291428,0.014312,0.078716,0,189,187,2,11,0,0,0.193212,0.291428,0.014312,0.078716,0,189,187,2,11,0,0:
0000
0000
0000
0000
,
0000
0000
0000
0000
,
0000
0000
0000
0000
,
0000
0000
0000
0000
,
0000
0000
0000
0000
,
0000
0000
0000
0000
,
0000
0000
0000
0000
,
0000
0000
0000
0000
,
0000
0000
0000
0000
,
0002
0000
0000
0000
,
0000
0000
0000
0003
,
0000
0000
0000
0000
,
0000
0000
0000
0000
,
2000
0000
0000
0000
,
0000
0000
0000
3000
,
0000
0000
0000
0000
,
0000
0000
0000
0000
,
0010
0000
0100
0000
,
0010
0000
0100
0000
,
0001
0000
1000
0000
,
0001
0000
1000
0000
,
0010
0000
0000
0010
0000
0000
0010
0000
,
0100
0000
0000
0100
0000
0000
0100
0000
,
0001
0000
0000
0001
0000
0000
0001
0000
,
1000
0000
0000
1000
0000
0000
1000
0000
,
0001
0001
0001
0001
,
1000
1000
1000
1000
,
0020
0000
0000
0000
0000
0000
0000
0030
,
0100
0001
0000
0001
,
0000
0001
0000
0001
,
1000
0001
0000
0001
,
0100
0010
1000
0000
,
0001
1000
0000
1000
,
0000
1000
0000
1000
,
0001
1000
0000
0100
,
0010
0100
0000
1000
,
0001
0100
0000
0100
,
0000
0010
0000
0010
,
0000
0100
0000
0100
,
0000
0010
0000
0010
,
0000
1000
0000
1000
,
0000
0001
0000
0001
,
0200
0000
0000
0300
,
0020
0000
0000
0030
,
1000
0000
0000
0000
,
0000
0000
0000
0000
,
0000
0000
0000
0000
,
0000
0000
0000
0000
,
0000
0000
0000
0000
,
0000
0000
0000
0000
,
0000
0000
0000
0000
,
0001
0000
1000
0100
,
0000
1000
0001
0100
,
0001
1000
0001
0100
,
0000
0001
1000
0010
,
0100
0000
0001
1000
,
0000
0100
0000
0000
0010
0000
0000
0001
,
0000
0100
0010
1000
,
0000
0100
0000
0000
0010
0000
0000
0001
,
0000
0100
0020
0000
,
0000
0030
1000
0100
,
0000
0100
0010
0100
,
0000
0001
0100
0001
,
0000
0100
1000
0100
,
0000
0010
0001
0010
,
0000
0010
1000
0010
,
0001
0100
0020
0000
,
1030
0000
0020
0000
,
0130
0000
0020
0000
,
1030
0000
0100
0010
,
0100
0000
1000
1000
,
1000
1000
0001
0001
,
0001
0000
0001
0000
0100
0000
0000
0010
,
0000
0100
0220
0000
,
0000
0000
0330
0000
1001
0000
0000
0001
,
0000
0000
0100
0000
0010
0000
0000
1000
,
0000
0000
0100
0000
0010
0000
0000
0001
,
0000
0000
0100
0000
0010
0000
0000
1000
,
0000
0000
0001
0000
0010
0000
0000
0010
,
0000
0000
0010
0000
0100
0000
0000
0100
,
0000
0000
0100
0000
1000
0000
0000
1000
,
0000
0000
1000
0000
0001
0000
0000
0001
,
0000
0001
1000
0001
,
1000
0001
1000
0001
,
1000
0001
1000
0100
,
0000
0100
0010
0100
,
0000
0001
0100
0001
,
0000
0100
1000
0100
,
0000
0010
0001
0100
,
0000
0010
1000
0100
,
0000
0010
0100
0000
;

//---------------dance-single - NewbStepper-DSP----------------
#NOTES:
     dance-single:
     NewbStepper:
     Medium:
     9:
     0.330198,0.473369,0.107340,0.143120,0.025046,323,308,15,20,0,0,0.330198,0.473369,0.107340,0.143120,0.025046,323,308,15,20,0,0:
0000
0000
0000
0000
,
0000
0000
0000
0000
,
0000
0000
0000
0000
,
0000
0000
0000
0000
,
0000
0000
0000
0000
,
0000
0000
0000
0000
,
0000
0000
0000
0000
,
0000
0000
0000
0000
,
0000
0000
0000
0000
,
0020
0000
0000
0000
,
0000
0000
0000
0000
,
0000
0000
0000
0000
,
0000
0000
0000
0030
,
2000
0000
0000
0000
,
0000
0000
0000
0000
,
0000
0000
0000
0000
,
0000
0000
3000
0000
,
0002
0000
0000
0003
,
2000
0000
0000
3000
,
1010
0001
0100
0010
,
1000
0001
0100
0000
0001
1000
0100
0000
,
0010
0000
0001
0100
0000
0001
0100
0000
,
0010
0000
1000
0100
0000
1000
0100
0000
,
1000
0000
0001
0010
0000
0001
0100
0000
,
0001
0000
1000
0010
0000
1000
0100
0000
,
1000
0010
0100
0001
,
0100
0010
0100
0000
0010
0100
0010
0000
,
2002
0000
0000
3003
,
0010
0001
0000
0001
,
1000
0001
0000
0100
,
0001
0000
0100
0000
0000
0010
0100
0000
,
0010
0000
1000
0100
0010
0000
0001
0000
,
1000
0010
0000
0010
,
0100
0010
0000
1000
,
0001
0100
1000
0100
,
0001
0010
0100
1000
,
0010
1010
0000
0101
,
0000
0110
0000
1001
,
0000
0011
0000
1100
,
0000
0110
0000
1001
,
0001
0000
0100
0000
0001
0100
0001
0000
,
1000
0000
0100
0000
1000
0100
1000
0000
,
0010
0010
0100
0100
,
0001
0000
0000
0001
0000
0000
0001
0000
1000
0000
0100
0000
0010
0000
0000
0000
,
0002
0000
0000
0000
,
0000
0000
0000
0000
,
0000
0000
0000
0003
,
0000
0000
0000
0000
0000
0000
0000
0010
,
0000
0000
0002
0000
0000
0003
0000
0100
,
0000
0000
0020
0000
0000
0030
0000
1000
,
0000
0000
0200
0000
0000
0310
0000
0001
,
2002
0000
0000
3003
0010
0000
1000
0001
,
0000
1000
0001
0000
1000
0001
0000
1000
,
0001
0010
0100
0000
0010
0000
0001
1000
,
0000
0001
1000
0000
0001
1000
0000
0001
,
1000
0010
0100
0000
0001
0000
0100
0010
,
0000
0100
0010
0000
0100
0010
0000
0100
,
0010
0010
1000
0001
1000
0000
0010
0100
,
0000
0010
0100
0000
0010
0100
0000
0010
,
0100
0001
2002
0000
,
0000
3003
0010
1000
,
0000
0001
0100
0010
1000
0000
0001
0010
,
0000
0000
0110
0000
1000
0001
1000
0000
,
0100
0000
0000
0000
0010
0001
0010
0000
,
0100
1000
0100
0000
0010
0000
0001
0100
,
0000
1000
0100
0001
0000
0001
0000
0100
,
0000
0010
0000
1000
0001
1000
0001
0000
,
0100
0000
0000
0000
0001
1000
0001
0000
,
0100
0000
0000
0000
0010
1000
0010
0100
,
0000
0001
1000
0100
0000
0010
0000
0100
,
0000
0100
0000
0100
1000
0000
1000
0000
,
0100
0100
0010
0010
,
0001
0000
0001
0000
0100
0010
0010
0100
,
0010
0010
1000
0000
0001
0000
0100
0000
,
0010
0100
0001
1000
0100
0000
1000
0010
,
0000
1000
0010
0000
0100
0010
0000
0100
,
0010
0000
0110
0000
1000
0000
0001
0010
,
0000
0001
0010
0000
0100
0000
1000
0010
,
0000
1000
0010
0000
0100
0000
0001
1000
,
0000
0001
0100
0000
0010
0000
1000
0001
,
0000
1000
0100
0000
0010
0000
0001
0100
,
0000
1000
0100
0001
0000
0001
0000
0100
,
0000
0010
0000
1000
0002
0000
0103
0000
,
2000
3010
0002
0103
,
2000
3010
0001
0100
,
0001
0100
0001
0000
1000
0000
0100
0000
,
1000
0000
0100
0000
1000
0000
0000
0000
0001
0000
0000
0001
0000
0000
0010
0000
,
0000
0010
0000
0000
0001
0000
0000
0000
1000
0000
0000
1000
0000
0000
0010
0000
,
1000
0000
0001
0000
1000
0000
0000
0000
0100
0000
0000
0010
0000
0000
0100
0000
,
0000
0010
0000
0000
0100
0000
0000
0000
1000
0000
0000
0001
0000
0000
1000
0000
,
0100
0010
0001
0000
2002
0000
0000
0000
,
0000
0000
0000
0000
,
0000
0000
0000
0000
,
0000
0000
0000
0000
,
0000
0000
3003
0000
;

//---------------dance-single - NewbStepper-ESP----------------
#NOTES:
     dance-single:
     NewbStepper:
     Hard:
     13:
     0.491719,0.710053,0.472296,0.157432,0.042936,481,415,66,22,0,0,0.491719,0.710053,0.472296,0.157432,0.042936,481,415,66,22,0,0:
0000
0000
0000
0000
,
0000
0000
0000
0000
,
0000
0000
0000
0000
,
0000
0000
0000
0000
,
0000
0000
0000
0000
,
0000
0000
0000
0000
,
0000
0000
0000
0000
,
0000
0000
0000
0000
,
0000
0000
0000
0000
,
1000
0000
0010
0000
0000
0100
0000
0001
,
0000
0000
0010
0000
0000
0100
0000
1000
,
0000
0000
0001
0000
0000
0100
0000
0010
,
0000
0000
1000
0000
0100
0000
0000
0010
,
0000
0000
0001
0000
0000
0100
0000
1000
,
0000
0000
0100
0000
0000
0001
0000
0010
,
0000
0000
0100
0000
0000
1000
0000
0010
,
0000
0000
0100
0000
0001
0010
0100
1000
,
0002
0000
0000
0003
,
2000
0000
0000
3000
,
0100
0000
0010
0000
0110
0000
0000
0001
0100
0000
0010
1000
0010
0100
0001
0000
,
2000
0100
3100
0020
0001
0031
0100
0010
,
1000
0010
0010
0100
0010
0010
1000
0001
,
0010
0001
0001
0100
0001
0001
1000
0010
,
0110
0000
0000
0101
0000
0000
1001
0000
,
1100
0000
0000
0011
0000
0000
0110
0000
,
1000
0100
0010
0001
,
0010
0001
0100
0010
1000
0100
0010
0001
,
1000
0100
0001
1000
0010
0001
0100
0020
,
1030
0000
1100
0000
0000
0010
0001
0000
,
1000
0000
1010
0000
0000
0100
0001
0000
,
0010
0000
0001
0100
0001
1000
0100
0000
,
0010
0000
0001
0100
1000
0000
0110
0000
,
0001
0000
0101
0000
0000
0010
1000
0000
,
0001
0000
0011
0000
0000
0100
1000
0000
,
0010
0000
1000
0100
1000
0001
0100
0010
,
0000
1000
0100
0001
0100
1000
0010
0100
,
0001
0101
1000
1100
,
0001
0011
1000
1010
,
0100
0000
0001
0010
0000
0100
1000
0010
,
0000
0100
0001
1000
0100
0001
0100
1000
,
0010
0000
0110
0000
1000
0100
0001
0000
,
0100
0000
0110
0000
0001
0100
1000
0000
,
0100
0010
0100
0001
0100
1000
0100
0010
,
0110
0000
0000
0001
0000
0000
1000
0000
0100
0000
0010
0000
0001
0000
0100
0000
,
0020
0000
0000
0000
,
0000
0000
0000
0000
,
0000
0000
0000
0030
,
0000
0000
0000
0000
0000
0000
0000
2000
,
0000
0000
3200
0000
0000
0320
0000
0032
,
0000
0000
0203
0000
0000
2300
0000
3200
,
0000
0000
0302
0000
0003
0010
0001
0100
,
0220
0000
0000
0330
1001
0000
1100
0010
,
0000
0101
0010
0000
1001
0010
0000
0101
,
0001
1000
0010
0100
1001
0000
0101
0010
,
0000
1100
0010
0000
1001
0010
0000
1100
,
1000
0001
0010
0000
0100
0000
1010
0100
,
0000
0011
0100
0000
1001
0100
0000
1010
,
1000
0001
0100
0010
1001
0000
0011
0100
,
0000
1010
0100
0000
1001
0000
0011
0100
,
0000
1000
0010
0100
0002
0000
0000
0000
,
0000
0003
1000
0010
,
0000
0100
0001
0010
0100
0000
1000
0010
,
0001
0010
1000
0100
0010
0001
0010
0000
,
0100
0000
0000
1000
0100
1000
0001
0100
,
1000
0100
0001
0000
0010
0000
0001
0100
,
0000
0010
1000
0100
0000
0001
0100
1000
,
0010
0100
0001
0000
1000
0100
0010
0001
,
1000
0000
0010
0000
0100
0001
1000
0100
,
0010
0000
0001
0000
0100
0010
1000
0001
,
0100
1000
0100
0001
1000
0100
0001
0100
,
1000
0010
0100
0001
1000
0000
1000
0000
,
0010
0010
0001
0001
,
0100
0000
0100
0000
1000
0010
0010
0001
,
0010
0000
0010
0000
1000
0000
0100
0000
0001
0000
0000
0100
0000
0000
0010
0000
,
0001
1000
0100
0001
0100
0000
1000
1010
,
0000
0001
0011
0000
1000
0000
0100
0110
,
0000
1000
0001
0001
0010
0000
0001
0011
,
0000
1000
1010
0000
0001
0000
0100
0110
,
0000
0001
1000
1000
0010
0000
0100
0011
,
0000
0100
1010
0000
0001
0000
0100
0110
,
0000
1000
0010
0010
0100
0000
0010
0101
,
0000
0010
1100
0000
0001
0000
1000
1100
,
0000
0001
0010
0010
0200
0000
0001
0010
,
2300
0000
0100
0001
3020
0000
1000
0001
,
0230
0000
1000
0001
0310
0000
1001
0000
,
0000
0100
0001
0000
0010
0000
0001
0100
,
1000
0000
0100
0000
0001
0000
0000
0000
0011
0000
0000
0101
0000
0000
1010
0000
,
0000
1100
0000
0000
1001
0000
0000
0000
1100
0000
0000
0011
0000
0000
1000
0000
,
0100
0000
0001
0000
0100
0000
1000
0000
1010
0000
0000
1100
0000
0000
0011
0000
,
0000
0101
0000
0000
1001
0000
0000
1000
0001
0000
0000
0011
0000
0000
1100
0000
,
1000
0010
0100
0001
0020
0000
0000
0000
,
0000
0000
0000
0000
,
0000
0000
0000
0000
,
0000
0000
0000
0000
,
0000
0000
0030
0000
;

//---------------dance-double - NewbStepper-BDP----------------
#NOTES:
     dance-double:
     NewbStepper:
     Easy:
     7:
     0.193212,0.291428,0.014312,0.078716,0,189,187,2,11,0,0,0.193212,0.291428,0.014312,0.078716,0,189,187,2,11,0,0:
00000000
00000000
00000000
00000000
,
00000000
00000000
00000000
00000000
,
00000000
00000000
00000000
00000000
,
00000000
00000000
00000000
00000000
,
00000000
00000000
00000000
00000000
,
00000000
00000000
00000000
00000000
,
00000000
00000000
00000000
00000000
,
00000000
00000000
00000000
00000000
,
00000000
00000000
00000000
00000000
,
00000002
00000000
00000000
00000000
,
00000000
00000000
00000000
00000003
,
00000000
00000000
00000000
00000000
,
00000000
00000000
00000000
00000000
,
00002000
00000000
00000000
00000000
,
00000000
00000000
00000000
00003000
,
00000000
00000000
00000000
00000000
,
00000000
00000000
00000000
00000000
,
00000010
00000000
00000100
00000000
,
00000010
00000000
00000100
00000000
,
00001000
00000000
00010000
00000000
,
00001000
00000000
00010000
00000000
,
00100000
00000000
00000000
00100000
00000000
00000000
00100000
00000000
,
10000000
00000000
00000000
10000000
00000000
00000000
10000000
00000000
,
01000000
00000000
00000000
01000000
00000000
00000000
01000000
00000000
,
00010000
00000000
00000000
00010000
00000000
00000000
00010000
00000000
,
00001000
00001000
00001000
00001000
,
00010000
00010000
00010000
00010000
,
00000020
00000000
00000000
00000030
,
00001000
00000001
00000000
00000001
,
00000000
00000001
00000000
00000001
,
00000100
00001000
00000000
00010000
,
01000000
10000000
00010000
00000000
,
00010000
10000000
00000000
10000000
,
00000000
10000000
00000000
10000000
,
01000000
00010000
00000000
01000000
,
00010000
00001000
00000000
00010000
,
00001000
00000100
00000000
00000100
,
00000000
00000010
00000000
00000010
,
00000000
00001000
00000000
00001000
,
00000000
00000001
00000000
00000001
,
00000000
00000100
00000000
00000100
,
00000000
00001000
00000000
00001000
,
00020000
00000000
00000000
00030000
,
00002000
00000000
00000000
00003000
,
00010000
00000000
00000000
00000000
,
00000000
00000000
00000000
00000000
,
00000000
00000000
00000000
00000000
,
00000000
00000000
00000000
00000000
,
00000000
00000000
00000000
00000000
,
00000000
00000000
00000000
00000000
,
00000000
00000000
00000000
00000000
,
00100000
00000000
10000000
01000000
,
00000000
10000000
00010000
01000000
,
00001000
00010000
00000100
00001000
,
00000000
00000001
00001000
00000010
,
00000100
00000000
00001000
00010000
,
00000000
01000000
00000000
00000000
00100000
00000000
00000000
00010000
,
00000000
01000000
00100000
10000000
,
00000000
01000000
00000000
00000000
00010000
00000000
00000000
00001000
,
00000000
00000100
00000020
00000000
,
00000000
00000030
00001000
00000001
,
00000000
00000100
00000010
00000100
,
00000000
00000100
00001000
00000100
,
00000000
00001000
00010000
00001000
,
00000000
00010000
00100000
00010000
,
00000000
00100000
10000000
00100000
,
00010000
00001000
00000020
00000000
,
00000031
00000000
00000020
00000000
,
00000130
00000000
00000020
00000000
,
00001030
00000000
00010000
00001000
,
00010000
00000000
00100000
00100000
,
00100000
00100000
10000000
10000000
,
10000000
00000000
10000000
00000000
01000000
00000000
00000000
00010000
,
00000000
00001000
00022000
00000000
,
00000000
00000000
00033000
00000000
00011000
00000000
00000000
00000100
,
00000000
00000000
00000010
00000000
00000001
00000000
00000000
00000100
,
00000000
00000000
00001000
00000000
00010000
00000000
00000000
01000000
,
00000000
00000000
10000000
00000000
00010000
00000000
00000000
01000000
,
00000000
00000000
00001000
00000000
00010000
00000000
00000000
00000100
,
00000000
00000000
00000010
00000000
00000001
00000000
00000000
00000001
,
00000000
00000000
00000001
00000000
00000100
00000000
00000000
00000100
,
00000000
00000000
00000100
00000000
00001000
00000000
00000000
00001000
,
00000000
00001000
00010000
00001000
,
00010000
00001000
00010000
00001000
,
00010000
00001000
00010000
01000000
,
00000000
01000000
00100000
01000000
,
00000000
01000000
10000000
01000000
,
00000000
00010000
01000000
00010000
,
00000000
00001000
00010000
00001000
,
00000000
00000010
00001000
00000010
,
00000000
00000001
00000100
00000000
;

//---------------dance-double - NewbStepper-DDP----------------
#NOTES:
     dance-double:
     NewbStepper:
     Medium:
     10:
     0.324064,0.439557,0.093028,0.135964,0.025046,317,304,13,19,0,0,0.324064,0.439557,0.093028,0.135964,0.025046,317,304,13,19,0,0:
00000000
00000000
00000000
00000000
,
00000000
00000000
00000000
00000000
,
00000000
00000000
00000000
00000000
,
00000000
00000000
00000000
00000000
,
00000000
00000000
00000000
00000000
,
00000000
00000000
00000000
00000000
,
00000000
00000000
00000000
00000000
,
00000000
00000000
00000000
00000000
,
00000000
00000000
00000000
00000000
,
00002000
00000000
00000000
00000000
,
00000000
00000000
00000000
00000000
,
00000000
00000000
00000000
00000000
,
00000000
00000000
00000000
00003000
,
00020000
00000000
00000000
00000000
,
00000000
00000000
00000000
00000000
,
00000000
00000000
00000000
00000000
,
00000000
00000000
00030000
00000000
,
00000020
00000000
00000000
00000030
,
00002000
00000000
00000000
00003000
,
00001010
00000001
00000100
00000010
,
00001000
00000001
00000100
00000000
00001000
00010000
01000000
00000000
,
00100000
00000000
00010000
01000000
00000000
00010000
01000000
00000000
,
00100000
00000000
10000000
01000000
00000000
10000000
01000000
00000000
,
00010000
00000000
00001000
00000010
00000000
00001000
00010000
00000000
,
00001000
00000000
00010000
00100000
00000000
00010000
00001000
00000000
,
00000010
00000001
00000100
00000010
,
00001000
00000100
00010000
00001000
,
00022000
00000000
00000000
00033000
,
00100000
10000000
00000000
10000000
,
00010000
10000000
00000000
01000000
,
00010000
00000000
01000000
00000000
00000000
00010000
00001000
00000000
,
00000010
00000000
00000001
00000100
00000010
00000000
00001000
00000000
,
00000001
00000010
00000000
00000010
,
00000100
00000010
00000000
00001000
,
00010000
01000000
10000000
01000000
,
00010000
00001000
00000100
00000001
,
00000010
00000011
00000000
00001100
,
00000000
00011000
00000000
00110000
,
00000000
11000000
00000000
00110000
,
00000000
00001100
00000000
00001001
,
00000001
00000000
00000100
00000000
00000001
00000100
00000001
00000000
,
00001000
00000000
00000100
00000000
00001000
00000100
00001000
00000000
,
00010000
00100000
01000000
10000000
,
00010000
00000000
00000000
00010000
00000000
00000000
00010000
00000000
10000000
00000000
01000000
00000000
00010000
00000000
00000000
00000000
,
00002000
00000000
00000000
00000000
,
00000000
00000000
00000000
00000000
,
00000000
00000000
00000000
00003000
,
00000000
00000000
00000000
00000000
00000000
00000000
00000000
00000010
,
00000000
00000000
00000002
00000000
00000000
00000000
00000003
00000100
,
00000000
00000000
00000020
00000000
00000000
00000030
00000000
00001000
,
00000000
00000000
00000200
00000000
00000000
00010300
00000000
00001000
,
00022000
00000000
00033000
00000000
00100000
00000000
10000000
01000000
,
00000000
00100000
00010000
00000000
00001000
00000100
00000000
00000010
,
00000001
00000100
00001000
00000000
00000010
00000000
00000001
00000100
,
00000000
00000010
00001000
00000000
00010000
01000000
00000000
00100000
,
10000000
01000000
00010000
00000000
00100000
00000000
01000000
00010000
,
00000000
00100000
00010000
00000000
00001000
00010000
00000000
00001000
,
00000010
00000100
00000001
00000000
00000010
00000000
00000100
00001000
,
00000000
00000010
00001000
00000000
00010000
00001000
00000000
00010000
,
00100000
01000000
10000000
00000000
20020000
00000000
00000000
00000000
,
00000000
30030000
00100000
10000000
,
00000000
00010000
01000000
00100000
00010000
00000000
00001000
00000010
,
00000000
00000000
00000110
00000000
00000001
00001000
00000001
00000000
,
00000100
00000000
00000000
00000000
00001000
00010000
00001000
00000000
,
00100000
01000000
00100000
00000000
00010000
00000000
10000000
01000000
,
00000000
00010000
00001000
00010000
00000000
00001000
00000000
00000010
,
00000000
00000001
00000000
00001000
00000100
00000010
00000100
00000000
,
00001000
00000000
00000000
00000000
00000001
00000100
00000001
00000000
,
00001000
00000000
00000000
00000100
00000010
00000000
00000001
00000100
,
00000000
00001000
00010000
00001000
00000000
00010000
00000000
00100000
,
00000000
10000000
00000000
00010000
10000000
00000000
10000000
00000000
,
01000000
01000000
00100000
00100000
,
00010000
00000000
00010000
00000000
00001000
00000000
00000100
00000010
,
00000000
00000100
00000010
00000000
00000001
00000000
00000100
00000000
,
00000001
00001000
00000010
00000100
00000001
00000000
00000100
00001000
,
00000000
00000100
00001000
00000000
00010000
00001000
00000000
00010000
,
00001000
00000000
00100000
00010000
10000000
00000000
00000000
01000000
,
00000000
00010000
00001000
00000000
00010000
00000000
00100000
00000000
,
10000000
01000000
00010000
00000000
00001000
00000000
00000000
00000010
,
00000000
00000000
00000001
00000100
00000001
00000100
00000000
00000010
,
00000000
00010000
00001000
00000000
00000100
00000000
00000001
00000100
,
00000000
00001000
00010000
00001000
00000000
00010000
00000000
00100000
,
00000000
10000000
00000000
00010000
20000000
00000000
31000000
00000000
,
00020000
00130000
20000000
31000000
,
00020000
00031000
00000010
00000001
,
00000010
00000001
00000010
00000000
00000100
00000000
00001000
00000000
,
00000100
00000000
00001000
00000000
00000100
00000000
00000000
00000000
00010000
00000000
00000000
00010000
00000000
00000000
00001000
00000000
,
00000000
00001000
00000000
00000000
00100000
00000000
00000000
00000000
00010000
00000000
00000000
00010000
00000000
00000000
01000000
00000000
,
00010000
00000000
10000000
00000000
00010000
00000000
00000000
00000000
10000000
00000000
00000000
00100000
00000000
00000000
10000000
00000000
,
00000000
00100000
00000000
00000000
01000000
00000000
00000000
00000000
00001000
00000000
00000000
00010000
00000000
00000000
00000100
00000000
,
00001000
00000001
00000100
00000010
00002000
00000000
00000000
00000000
,
00000000
00000000
00000000
00000000
,
00000000
00000000
00000000
00000000
,
00000000
00000000
00000000
00000000
,
00000000
00000000
00003000
00000000
;

//---------------dance-double - NewbStepper-EDP----------------
#NOTES:
     dance-double:
     NewbStepper:
     Hard:
     13:
     0.478429,0.710053,0.300552,0.157432,0.035780,468,426,42,22,0,0,0.478429,0.710053,0.300552,0.157432,0.035780,468,426,42,22,0,0:
// measure 0
00000000
00000000
00000000
00000000
,  // measure 1
00000000
00000000
00000000
00000000
,  // measure 2
00000000
00000000
00000000
00000000
,  // measure 3
00000000
00000000
00000000
00000000
,  // measure 4
00000000
00000000
00000000
00000000
,  // measure 5
00000000
00000000
00000000
00000000
,  // measure 6
00000000
00000000
00000000
00000000
,  // measure 7
00000000
00000000
00000000
00000000
,  // measure 8
00000000
00000000
00000000
00000000
,  // measure 9
10000000
00000000
00100000
00000000
00000000
01000000
00000000
00010000
,  // measure 10
00000000
00000000
00100000
00000000
00000000
00001000
00010000
00001000
,  // measure 11
00000010
00000000
00000001
00000000
00000000
00000100
00000000
00000010
,  // measure 12
00000000
00000000
00001000
00000000
00000100
00000000
00000000
00000010
,  // measure 13
00001000
00000000
00010000
00000000
00000000
01000000
00000000
00100000
,  // measure 14
00000000
00000000
00010000
00000000
10000000
01000000
00100000
01000000
,  // measure 15
00010000
00000000
00000000
00001000
00000000
00000010
00000000
00000001
,  // measure 16
00000000
00000000
00000100
00000000
00000010
00000100
00001000
00010000
,  // measure 17
00022000
00000000
00000000
00000000
,  // measure 18
00000000
00000000
00000000
00033000
,  // measure 19
01100000
00000000
00000000
00000000
10000000
00000000
00000000
00000000
01000000
00000000
00010000
00000000
00001000
00000010
00000001
00000000
,  // measure 20
00000200
00001000
00001300
00020000
00001000
00031000
00100000
00010000
,  // measure 21
10000000
01000000
01000000
00100000
01000000
01000000
00010000
00001000
,  // measure 22
00000010
00000100
00000100
00000001
00000100
00000100
00001000
00000001
,  // measure 23
00000100
00000010
00000010
00000100
00001000
00001000
00010000
01000000
,  // measure 24
00010000
00001000
00100000
00010000
10000000
01000000
00010000
00001000
,  // measure 25
00001010
00000011
00000101
00001100
,  // measure 26
00011000
00110000
10100000
10010000
,  // measure 27
10000000
01000000
00100000
00010000
00001000
00000100
00000010
00000002
,  // measure 28
00001003
00000000
00001100
00000000
00000000
00000010
00000001
00000000
,  // measure 29
00000100
00000000
00001000
00000000
00010000
00100000
10000000
00000000
,  // measure 30
00010000
00000000
01010000
00000000
00000000
00100000
10000000
00000000
,  // measure 31
01000000
00000000
00010000
00001000
00000100
00000000
00000110
00000000
,  // measure 32
00001000
00000000
00001010
00000000
00000000
00000100
00000001
00000000
,  // measure 33
00000010
00000000
00001000
00000000
00010000
01000000
10000000
00000000
,  // measure 34
00100000
00000000
10000000
01000000
10000000
00010000
01000000
00100000
,  // measure 35
00000000
00010000
00001000
00000100
00000001
00000100
00000010
00001000
,  // measure 36
00000001
00000101
00001000
00001100
,  // measure 37
00010000
00011000
00100000
00110000
,  // measure 38
01000000
00000000
10000000
00100000
00000000
01000000
00001000
00010000
,  // measure 39
00000000
00100000
00010000
00001000
00000010
00000001
00000100
00000000
,  // measure 40
00000010
00000000
00000110
00000000
00000001
00000100
00001000
00000000
,  // measure 41
01000000
00000000
01100000
00000000
10000000
01000000
00010000
00000000
,  // measure 42
00001000
00010000
01000000
00010000
00001000
00000010
00001000
00010000
,  // measure 43
00001000
00000000
00000000
00000100
00000000
00000000
00000001
00000000
00000010
00000000
00001000
00000000
00010000
00000000
00100000
00000000
,  // measure 44
20000000
00000000
00000000
00000000
,  // measure 45
00000000
00000000
00000000
00000000
,  // measure 46
00000000
00000000
00000000
30000000
,  // measure 47
00000000
00000000
00000000
00000000
00000000
00000000
00000000
00020000
,  // measure 48
00000000
00000000
02030000
00000000
00000000
03200000
00000000
20300000
,  // measure 49
00000000
00000000
32000000
00000000
00000000
03200000
00000000
00320000
,  // measure 50
00000000
00000000
00032000
00000000
00000000
00003100
00000000
00000220
,  // measure 51
00000000
00000000
00000330
00000000
00001001
00000000
00000010
00001000
,  // measure 52
00000000
00000100
00001000
00000000
00010000
00001000
00000000
00010000
,  // measure 53
00100000
01000000
10000000
00000000
10010000
00000000
00100000
00010000
,  // measure 54
00000000
01000000
00010000
00000000
00001000
00010000
00000000
00001000
,  // measure 55
00000010
00000100
00000001
00000010
00001000
00000000
00010000
00100000
,  // measure 56
00000000
00010000
00001000
00000000
00000010
00001000
00000000
00010000
,  // measure 57
00100000
10000000
01000000
00010000
00011000
00000000
00001000
00000010
,  // measure 58
00000000
00001000
00010000
00000000
00100000
00000000
00010000
00001000
,  // measure 59
00000000
00000100
00000001
00000010
00000200
00000000
00000000
00000000
,  // measure 60
00000000
00000300
00010000
00001000
,  // measure 61
00000000
00010000
00100000
10000000
00010000
00000000
10000000
01000000
,  // measure 62
00010000
00001000
00000100
00000001
00001000
00000100
00000010
00001000
,  // measure 63
00010000
00000000
00000000
00100000
10000000
00100000
00010000
00001000
,  // measure 64
00000010
00000001
00000100
00000000
00001000
00000000
00010000
00100000
,  // measure 65
00000000
00010000
00001000
00000010
00000000
00001000
00010000
01000000
,  // measure 66
10000000
00100000
01000000
00000000
00001000
00010000
01000000
00010000
,  // measure 67
00001000
00000000
00011000
00000000
00010000
00001000
00000100
00001000
,  // measure 68
00010000
00000000
00011000
00000000
00001000
00000010
00000001
00000100
,  // measure 69
00000001
00000010
00001000
00010000
00000100
00001000
00010000
00100000
,  // measure 70
00001000
00010000
00100000
10000000
01000000
00000000
01000000
00000000
,  // measure 71
00010000
00010000
00001000
00001000
,  // measure 72
00000100
00000000
00000100
00000000
00000001
00000010
00000010
00001000
,  // measure 73
00010000
00000000
00010000
00000000
00001000
00000000
00000100
00000000
00000001
00000000
00000000
00000100
00000000
00000000
00001000
00000000
,  // measure 74
00010000
01000000
10000000
00100000
00010000
00000000
00001000
00101000
,  // measure 75
00000000
00010000
00010100
00000000
00000010
00000000
00000001
00000100
,  // measure 76
00001000
00000100
00000001
00000010
00001000
00000000
00010000
00010010
,  // measure 77
00000000
00001000
01001000
00000000
00100000
00000000
10000000
01000000
,  // measure 78
00010000
01000000
10000000
00100000
00010000
00000000
00001000
01001000
,  // measure 79
00000000
00010000
00010010
00000000
00001000
00000000
00000100
00000010
,  // measure 80
00000001
00000100
00001000
00010000
00001000
00000000
00010000
00010100
,  // measure 81
00000000
00001000
00101000
00000000
00010000
00000000
01000000
00100000
,  // measure 82
10000000
01000000
00010000
00001000
00000200
00000000
00000001
00000010
,  // measure 83
00002300
00000000
00010000
00000100
00023000
00000000
00100000
00001000
,  // measure 84
00230000
00000000
10000000
01000000
00310000
00000000
00011000
00000000
,  // measure 85
00000000
00000100
00000001
00000000
00000010
00000000
00000001
00000100
,  // measure 86
00001000
00000000
00010000
00000000
01000000
00000000
00000000
00000000
10000000
00000000
00000000
00100000
00000000
00000000
01000000
00000000
,  // measure 87
00000000
00010000
00000000
00000000
10000000
00000000
01000000
00000000
00010000
00000000
00000000
00001000
00000000
00000000
00000010
00000000
,  // measure 88
00000001
00000000
00000100
00000000
00000010
00000000
00001000
00000000
00001100
00000000
00000000
00010100
00000000
00000000
00011000
00000000
,  // measure 89
00000000
01001000
00000000
00000000
00011000
00000000
00000000
00100000
01000000
00000000
00000000
10010000
00000000
00000000
11000000
00000000
,  // measure 90
10000000
00100000
01000000
00010000
00200000
00000000
00000000
00000000
,  // measure 91
00000000
00000000
00000000
00000000
,  // measure 92
00000000
00000000
00000000
00000000
,  // measure 93
00000000
00000000
00000000
00000000
,  // measure 94
00000000
00000000
00300000
00000000
;
