#VERSION:0.83;
#TITLE:divine strike;
#ARTIST:f(QS);
#BANNER:divine strike.png;
#BACKGROUND:divine strike-bg.png;
#JACKET:divine strike-jacket.png;
#MUSIC:divine strike.ogg;
#OFFSET:-0.001;
#SAMPLESTART:35.56;
#SAMPLELENGTH:15;
#BPMS:0=249.75,80=124.875,82=499.5,204=249.75,274=999,307=249.75,308=124.875,316=99,324=249.75,340=124.875,344=499.5,468=249.75,470=499.5,482=124.875,483=499.5,495=124.875,496=499.5,528=248,530=249.75,532=499.5,534=249.75,535.5=499.5,537.75=249.75,538.5=499.5,539.25=249.75,540=499.5,541=249.75,542=499.5,542.5=249.75,568=499.5,568.75=249.75,569.75=499.5,570.5=249.75,571.5=499.5,572.5=249.75,573.5=499.5,574=999,576=124.875;
#STOPS:82=0.09,82.25=0.18,82.75=0.18,83.25=0.18,83.75=0.09,274=0.18,532=0.08,532.667=0.08,533.333=0.08,535.5=0.09,536.25=0.09,537=0.09,538.5=0.09,540=0.12,542=0.06,568=0.09,569.75=0.09,571.5=0.12,573.5=0.06,574=0.36;
#TIMESIGNATURES:0=4=4,468=2=4,470=4=4,478=5=4,483=4=4,491=5=4,496=4=4;

//---------------dance-single - Marten-bSP----------------
#NOTEDATA:;
#CHARTNAME:Marten-bSP;
#STEPSTYPE:dance-single;
#DESCRIPTION:Marten-bSP;
#DIFFICULTY:Beginner;
#METER:10;
#CREDIT:Marten;
#NOTES:
0000
0000
0000
0000
,
0000
0000
0000
0000
,
0000
0000
0000
0000
,
0000
0000
0000
0000
,
2002
0000
0000
0000
,
0000
0000
0000
0000
,
3003
0000
0000
0000
,
0000
0000
0000
0000
,
0220
0000
0000
0000
,
0000
0000
0000
0000
,
0330
0000
0000
0000
,
0000
0000
0000
0000
,
1001
0000
1000
0000
,
0010
0000
0010
0000
,
0100
0000
0100
0000
,
0001
0000
0001
0000
,
1000
1000
0001
0001
,
1000
0001
1000
0001
,
0020
0000
0000
0030
,
0200
0000
0000
0000
,
0300
0000
1001
0000
,
1000
0000
0100
0000
,
0001
0000
0100
0000
,
1000
0001
1000
0000
,
0010
0000
0100
0000
,
0001
0000
0100
0000
,
1000
0000
0100
0000
,
0001
0010
0001
0000
,
1000
0010
1000
0000
,
0001
0000
0010
0000
,
1000
0000
0010
0000
,
0001
1000
0001
0000
,
0100
0000
0010
0000
,
1000
0000
0010
0000
,
0001
0000
0010
0000
,
1000
0000
0002
0000
,
0000
0000
0003
0000
,
1001
0000
0001
0000
,
0010
0000
0010
0000
,
1000
0000
1000
0000
,
0100
0000
0100
0000
,
0001
0000
0000
0000
0001
0000
0000
0000
0001
0000
0000
0000
,
1000
0000
0000
1000
0000
0000
1000
0000
,
0010
0000
0100
0000
,
0220
0000
0330
0000
,
0100
0000
0001
0000
,
0010
0000
0100
0000
,
1000
0001
1000
0000
,
0001
1000
0001
0000
,
0100
0000
0100
0000
,
0010
0100
0010
0000
,
2002
0000
0000
3003
,
0001
0100
0001
0100
,
1000
0100
1000
0100
,
0001
0000
0000
0001
0000
0000
0000
0000
0010
0000
0000
0010
0000
0000
0000
0000
,
0100
0000
0000
0100
0000
0000
0000
0000
2000
0000
0000
0000
3000
0000
0000
0000
,
1000
0100
1000
0100
,
0001
0100
0001
0100
,
1000
0010
1000
0000
0001
0010
0001
0000
,
2002
0000
0000
3003
,
0001
0010
0001
0010
,
1000
0010
1000
0010
,
0002
0003
2000
3000
,
0010
0000
1000
0000
0001
1000
0001
0000
,
1000
0010
1000
0010
,
0001
0010
0001
0010
,
1000
0100
0010
0001
,
1000
0001
0000
0000
0000
0000
0001
1000
,
0000
0000
2002
0000
,
0000
0000
0000
0000
,
0000
0000
0000
0000
,
0000
0000
0000
0000
,
0000
0000
0000
0000
,
0000
0000
0000
0000
,
0000
0000
0000
0000
,
0000
0000
0000
0000
,
0000
0000
0000
3003
,
0201
0000
0310
0000
,
1020
0000
0000
0000
1030
0100
0000
0000
,
0120
0000
0032
0203
,
0310
0000
0000
0010
0000
0000
0010
0000
0000
0000
1000
0000
0200
0000
0000
0000
,
1300
0000
0001
0000
,
0101
0000
1000
0000
,
1010
0000
0011
0000
,
0001
0000
1000
0000
0010
0100
0010
0100
,
0020
0000
0000
0030
,
2000
0000
0000
0000
,
3001
1000
0001
0000
,
0020
0000
0000
0000
,
0000
0000
0000
0030
,
0200
0000
0320
0000
,
0000
0000
0000
0000
,
0031
0000
0001
0000
,
0100
0010
0100
0010
,
2000
0000
0000
0000
,
3001
0100
0001
0100
,
0020
0000
2030
0000
,
0000
0000
3000
0000
,
2002
0000
0000
3003
,
0001
0000
1000
0000
,
0100
0000
0100
0000
,
0010
0001
0010
0001
,
0020
0000
0031
0000
,
0100
0000
1000
0000
,
0001
0000
0010
0000
,
1000
0000
0001
0000
,
1000
0100
1000
0100
,
0020
0000
0032
0000
,
2003
0000
0000
0000
,
3001
0000
0001
0000
,
0020
0000
0000
0000
,
0032
0000
2003
0000
,
3020
0000
0230
0000
,
0302
0000
2003
0000
,
3100
1000
0100
0000
,
0010
0001
0010
0000
,
0001
1000
0001
1000
,
0002
0000
0013
0000
,
0010
0000
0100
0000
,
0100
0000
1000
0001
,
1000
0001
0200
0310
,
0000
0010
0000
0100
,
0000
0100
0000
0001
,
1000
0001
1000
0200
,
1300
0000
1000
0000
,
0001
0000
0001
0000
,
0100
0000
1000
0000
,
0010
0000
0001
0000
,
1000
0100
1000
0000
,
0001
0100
0001
0000
,
1000
0001
1000
0001
,
0100
0010
0100
0000
,
0110
0000
0000
0000
,
1000
0000
0000
0000
1000
0000
0000
0000
1000
0000
0000
0000
0000
0000
0000
0000
0000
0000
0000
0000
0000
0001
0000
0000
,
0000
0001
0000
0000
0001
0000
0000
0000
0000
0000
0010
0000
0000
0000
0000
0000
,
0100
0000
1001
0000
,
2002
0000
0000
0000
,
0000
0000
0000
0000
,
0000
0000
0000
0000
,
0000
0000
0000
0000
,
0000
0000
0000
0000
,
0000
0000
0000
3003
,
1000
0000
0000
0000
0000
0000
0000
0001
0000
0000
0000
0000
0000
0000
0100
0000
,
0000
0000
0000
0020
0030
0000
0000
0000
,
2002
0000
0000
0000
,
0000
0000
0000
0000
,
3003
0000
0000
0000
;

//---------------dance-single - Marten-BSP----------------
#NOTEDATA:;
#CHARTNAME:Marten-BSP;
#STEPSTYPE:dance-single;
#DESCRIPTION:Marten-BSP;
#DIFFICULTY:Easy;
#METER:14;
#CREDIT:Marten;
#NOTES:
0000
0000
0000
0000
,
0000
0000
0000
0000
,
0000
0000
0000
0000
,
0000
0000
0000
0000
,
2002
0000
0000
0000
,
0000
0000
0000
0000
,
3003
0000
0000
0000
,
0000
0000
0000
0000
,
0220
0000
0000
0000
,
0000
0000
0000
0000
,
0330
0000
0000
0000
,
0000
0000
0000
0000
,
1001
0000
0001
0000
,
1000
0000
1000
0000
,
0010
0000
0010
0000
,
0100
0000
0100
0000
,
0001
0100
0010
1000
,
0100
0010
0001
1000
,
0010
0100
0010
0100
0001
1000
0001
1000
,
0200
0000
0000
0000
,
0310
0000
0001
0000
1000
0000
0000
0000
0010
0000
0000
1010
0000
0101
0000
0000
,
0001
0100
0010
0000
,
1000
0100
0010
0000
,
0001
0010
0001
0010
,
0100
1000
0001
0000
,
1000
0100
0010
0000
,
0001
0100
0010
0000
,
1000
0010
1000
0010
,
0100
0001
1000
0000
,
0100
1000
0001
0000
,
0100
0001
1000
0000
,
0010
0100
0010
1000
,
0001
0010
0100
0000
,
0010
0001
1000
0000
,
0010
1000
0001
1000
,
0100
0000
0020
0000
,
0000
0000
0000
0000
,
0031
0010
0001
0000
,
1000
0010
1000
0000
,
0001
0100
0001
0000
,
1000
0100
1000
0000
,
0010
0000
0000
0000
0010
0000
0000
0000
0010
0000
0000
0000
,
0100
0000
0000
0100
0000
0000
0100
0000
,
0001
0000
0000
1000
0000
0000
0001
0000
,
0010
0000
0200
0300
,
1000
0100
0001
0000
,
0100
1000
0010
0000
,
0001
0010
1000
0000
,
0001
0010
0100
2000
,
3001
0100
1000
0000
,
0100
0001
0010
0000
,
0220
0000
0000
0330
,
0010
0001
0100
0000
0010
1000
0100
0000
,
0100
1000
0010
0000
0100
0001
0010
0000
,
0100
0000
0000
1100
0000
0000
1000
0000
0010
0000
0000
0110
0000
0000
0100
0000
,
0001
0000
0000
0101
0000
0000
0001
0000
0010
0000
0100
0000
1000
0000
0000
0000
,
0001
0100
1000
0000
0001
0010
1000
0000
,
1000
0100
0001
0000
1000
0010
0001
0000
,
1000
0010
1000
0010
0100
0001
0100
0001
,
0010
0200
0000
0300
,
1000
0100
1000
0001
1000
0100
1000
0000
,
0001
0100
0001
1000
0001
0100
0001
0000
,
0100
0010
1000
0010
0100
0010
1000
0000
,
0001
0010
0100
0010
0002
0000
2003
0000
,
3001
0100
0010
0100
0001
0100
0010
1000
,
0100
0010
0100
1000
0100
0010
0001
1000
,
0001
0100
0010
1000
0001
0010
0100
1000
,
0001
1000
0000
0000
1001
0000
1000
0001
,
0000
1001
0001
0020
,
0000
0000
0000
0000
,
0000
0000
0000
0000
,
0000
0000
0000
0000
,
0000
0000
0000
0000
,
0000
0000
0000
0000
,
0000
0000
0000
0000
,
0000
0000
0000
0000
,
0000
0000
0000
0030
,
0100
1000
0100
0010
0011
0000
0001
0000
,
0100
0001
0100
0010
1010
0100
0000
0000
,
0201
0000
0320
0230
,
0301
0010
0100
1000
0010
0100
0001
0000
0000
1000
0100
0010
0200
0000
0000
0000
,
1300
0100
0010
0001
0100
0000
0000
0000
,
0001
0100
0010
1000
0100
0000
0000
0000
,
1010
0000
0011
0000
,
1001
0000
0110
0000
1000
0010
0100
0001
,
0020
0000
0000
0000
,
0032
0000
0000
0000
,
1003
0010
0100
0010
,
2000
0000
0000
0000
,
0000
0000
3000
0000
,
0001
0000
0020
0000
,
0000
0000
0000
0000
,
0031
0000
0000
1000
0000
0000
0001
0000
,
0100
0010
0100
0010
,
2000
0000
0000
0000
,
3001
0100
0010
0100
,
0002
0000
0023
0000
,
0000
0000
0130
1000
,
0020
0000
0000
0000
,
0230
0000
0302
0000
,
0013
0000
0000
0010
0000
0000
0010
0000
,
0100
1000
0001
0100
,
0002
0000
1003
0100
,
0010
0001
0100
0010
,
0001
0010
1000
0001
,
1000
0100
0010
0001
,
0010
1000
0010
0001
,
0200
0000
0320
0000
,
2030
0000
0001
0000
,
0010
0000
0000
0010
0000
0000
0010
0000
,
3020
0000
0000
0000
,
2030
0000
3002
0000
,
0023
0032
2003
3200
,
2300
3020
0230
0302
,
1003
1000
0010
0010
,
0100
0100
0001
0001
,
1000
0100
0010
0001
,
2000
0000
3010
1000
,
0010
1000
0010
1000
,
0010
1000
0001
0010
,
1000
0010
0002
0013
,
0001
0010
0001
0010
,
0001
0010
0001
1000
,
0010
0001
0010
2000
,
3100
1000
0100
1000
,
0100
0010
0100
0010
,
0001
0010
0001
0010
,
0001
1000
0001
1000
,
0010
1000
0100
0010
,
0001
0100
0010
1000
,
0001
0010
1000
0001
,
0100
1000
0001
1000
,
1001
0000
0000
0000
1000
0001
1000
0001
,
0100
0000
0000
0000
0010
0000
0000
0000
0100
0000
0000
0000
0000
0000
0000
0000
0000
0000
0000
0000
0000
0001
0000
0000
,
0000
1000
0000
0000
0001
0000
0000
0000
0000
0000
0011
0000
0000
0000
0000
0000
,
0110
0000
1100
0000
,
1001
0000
0000
0001
0000
0000
1000
0000
,
0000
0001
0000
0000
0000
0000
1000
0000
0000
0000
0001
0000
0000
0000
1000
0000
,
0000
0000
0001
0000
0000
0000
0000
0000
1000
0000
0000
0000
0001
0000
0000
0000
1000
0000
0000
0001
0000
0000
1000
0000
0000
0000
0001
0000
0000
0000
1000
0000
,
0000
0000
0000
0001
0000
0000
0000
0000
1000
0000
0000
0000
0000
0000
0001
0000
0000
0000
0000
0000
1000
0000
0000
0000
0000
0000
0000
0001
0000
0000
0000
0000
,
0000
1000
0000
0000
0000
0001
0000
0000
0000
1000
0000
0000
0000
0000
0001
0000
,
0000
0000
0000
1000
0000
0000
0000
0000
0000
0001
0000
0000
0000
0000
0000
0000
,
0101
0000
0000
0000
0000
0000
0000
1100
0000
0000
0000
0000
0000
0000
0011
0000
,
0000
0000
0000
1000
0010
0000
0000
0000
,
2002
0000
0000
0000
,
0000
0000
0000
0000
,
3003
0000
0000
0000
;

//---------------dance-single - Marten-DSP----------------
#NOTEDATA:;
#CHARTNAME:Marten-DSP;
#STEPSTYPE:dance-single;
#DESCRIPTION:Marten-DSP;
#DIFFICULTY:Medium;
#METER:16;
#CREDIT:Marten;
#NOTES:
0000
0000
0000
0000
,
0000
0000
0000
0000
,
0000
0000
0000
0000
,
0000
0000
0000
0000
,
2002
0000
0000
0000
,
0000
0000
0000
0000
,
3003
0000
0000
0000
,
0000
0000
0000
0000
,
0220
0000
0000
0000
,
0000
0000
0000
0000
,
0330
0000
0000
0000
,
0000
0000
0000
0000
,
1001
0000
0001
0000
,
1000
0000
1000
0000
,
0110
0000
0010
0000
,
0100
0000
0100
0000
,
0001
0100
0010
1000
,
0001
0010
0001
0010
0100
1000
0100
1000
,
0001
0100
1000
0100
0001
0010
0100
1000
,
0002
0000
0000
0000
,
1003
0100
0010
0001
0200
0000
0000
0000
0310
0010
0000
1010
0000
0101
0000
0001
,
1000
0100
0010
0100
,
1000
0010
0001
0010
,
0100
1000
0100
0001
,
0010
0100
1000
0000
,
0001
0100
0010
0100
,
0001
0010
1000
0010
,
0100
0001
0100
1000
,
0010
0100
0001
0002
,
0013
1000
0010
0100
,
1000
0001
0100
0010
,
0001
0010
1000
0001
,
1000
0100
0010
0000
,
0001
0100
1000
0100
,
0010
1000
0100
0001
,
0100
1000
0020
0000
,
0000
0000
0030
0000
,
0110
0100
0001
0010
,
0100
0100
1000
0001
,
1000
1000
0010
0001
,
0010
0010
1000
0100
,
1100
0000
0000
0000
0100
0000
0000
0000
0010
0000
0001
0000
,
0010
0000
0000
0010
0000
0000
0100
0000
,
1000
0000
0000
0000
0001
0000
0000
1000
0000
0000
0001
0000
0000
1000
0000
0000
,
0001
0100
0020
0130
,
0110
0010
1000
0001
,
0010
0100
1000
0001
,
1000
0100
0001
0100
,
1000
0001
2000
3001
,
1001
0000
0001
0100
,
1000
0010
0001
1000
,
0020
0000
0000
0030
,
0010
1000
0100
1000
0010
1000
0100
0010
,
0001
0100
0001
0010
0001
0100
0010
1000
,
0001
0100
1000
0100
0001
0100
1000
0100
,
0001
0010
0100
1000
0001
1000
0100
0010
,
0001
0100
0001
0010
0001
0100
0010
1000
,
0100
1000
0010
1000
0100
0010
0001
1000
,
0010
0001
0010
1000
0010
0001
0010
1000
,
0100
0020
0000
0030
,
0001
0010
0100
1000
0001
0010
0100
1000
,
0001
0100
0010
1000
0001
0100
0010
1000
,
0001
0000
0010
0001
0000
0010
0001
0000
1000
0000
0010
1000
0000
0010
1000
0000
,
0100
0000
0010
0100
0000
0010
0100
0000
2000
0000
0000
0000
3002
0000
0000
0000
,
1003
0010
0100
0001
1000
0010
0100
0001
,
1000
0100
0010
0001
1000
0100
0010
0001
,
1000
0100
0001
0100
1000
0010
0001
0010
,
1000
0100
1100
0000
1001
0000
0001
0100
,
0101
1001
0110
0200
,
0000
0000
0000
0000
,
0000
0000
0000
0000
,
0000
0000
0000
0000
,
0000
0000
0000
0000
,
0000
0000
0000
0000
,
0000
0000
0000
0000
,
0000
0000
0000
0000
,
0000
0000
0000
0300
,
1001
1000
0100
0110
0011
0000
0001
0000
,
1001
0001
0100
0110
1010
1100
0000
0000
,
1020
0100
2030
3200
,
0301
0100
0010
0001
0100
0010
0001
0000
0000
0010
1000
0100
0020
0000
0030
0000
,
0011
0010
0100
1000
0100
0000
0000
0000
,
1010
0010
0100
0001
0100
0000
0000
0000
,
1001
1000
0001
0100
0110
0010
1000
0001
,
1000
1000
0001
0001
1000
0100
0001
0010
,
2000
0000
0000
0000
,
3002
0000
0103
1000
,
0100
0010
1000
0100
,
0020
0000
1000
0000
,
0031
0100
0010
0100
,
2000
0000
3200
0000
,
0001
0000
0010
0000
,
0310
1000
0100
0010
,
0001
0010
0001
0000
1000
0000
0010
0000
,
0200
0000
0301
1000
,
0100
0001
0100
0010
,
0002
0000
0023
0000
,
1000
0000
0031
1000
,
0020
0000
0100
0000
,
0001
0000
0130
0010
,
1000
0010
1000
0000
0001
0000
0010
0000
,
0100
0010
0100
0000
1000
0000
0001
0000
,
0200
0000
0301
0100
,
1000
0001
0010
1000
,
0100
0001
1000
0010
,
0001
1000
0010
0001
,
0010
1000
0001
0010
,
2000
0000
3020
0000
,
0032
0000
0100
0000
,
1003
0000
0010
0000
0100
0010
0100
0000
,
0002
0000
1003
0100
,
0001
0100
0010
0001
,
0100
0010
0001
1000
,
0100
0010
1000
0100
,
0010
0001
0100
0010
,
1000
0001
0010
0100
,
1000
0001
1000
0000
0001
0000
0100
0000
,
0020
0000
1030
0010
,
0001
0010
1000
0010
,
0001
0010
1000
0010
,
0001
0010
0200
0301
,
0010
1000
0010
0001
,
0010
1000
0010
0001
,
0010
1000
0010
0200
,
1300
0100
0001
0100
,
1000
0100
0001
0100
,
1000
0001
0100
1000
,
0100
0001
0100
1000
,
0100
0001
0010
0100
,
1000
0010
0001
0010
,
1000
0100
0010
0100
,
0010
0100
0010
0000
0001
0000
1000
0000
,
1001
0000
0000
0000
0001
0100
0010
1000
,
0100
0000
0000
0000
0100
0000
0000
0000
0100
0000
0000
0000
0020
0000
0000
0000
0000
0000
0000
0000
0000
0031
0000
0000
,
0000
0001
0000
0000
0001
0000
0000
0200
0000
0000
1300
0000
0000
0200
0000
0000
,
0301
0000
0020
0000
0130
2000
0000
0000
,
3001
0000
0000
1000
0000
0000
0001
0000
,
0000
1000
0000
0000
0000
0000
0001
0000
0000
0000
1000
0000
0000
0000
0001
0000
,
0000
0000
1000
0000
0000
0000
0000
0000
0001
0000
0000
0000
1000
0000
0000
0000
0001
0000
0000
1000
0000
0000
0001
0000
0000
0000
1000
0000
0000
0000
0001
0000
,
0000
0000
0000
1000
0000
0000
0000
0000
0001
0000
0000
0000
0000
0000
1000
0000
0000
0000
0000
0000
0001
0000
0000
0000
0000
0000
0000
1000
0000
0000
0000
0000
,
0000
0001
0000
0000
0000
1000
0000
0000
0000
0001
0000
0000
0000
0000
1000
0000
,
0000
0000
0000
0001
0000
0000
0000
0000
0000
1000
0000
0000
0000
0000
0000
0000
,
1100
0000
0000
0000
0001
0000
0000
0101
0000
0000
0000
1000
0000
0000
1010
0000
,
0000
0001
0000
0011
1001
0000
0000
0000
,
2002
0000
0000
0000
,
0000
0000
0000
0000
,
3003
0000
0000
0000
;

//---------------dance-single - Marten-ESP----------------
#NOTEDATA:;
#CHARTNAME:Marten-ESP;
#STEPSTYPE:dance-single;
#DESCRIPTION:Marten-ESP;
#DIFFICULTY:Hard;
#METER:19;
#CREDIT:Marten;
#NOTES:
0000
0000
0000
0000
,
0000
0000
0000
0000
,
0000
0000
0000
0000
,
0000
0000
0000
0000
,
2002
0000
0000
0000
,
3000
0000
0000
0000
,
1003
0100
0010
0100
1000
0100
0010
0001
,
0100
0010
0100
0001
0100
0010
0100
0001
,
2002
0000
0000
0000
,
0003
0000
0000
0000
,
3001
0100
0010
0100
0001
0100
0010
1000
,
0100
0010
0100
1000
0100
0010
0100
1000
,
1100
0000
0001
0100
0101
0000
1000
0010
,
1010
0000
0001
0010
0011
0000
1000
0001
,
0110
0000
0001
1000
0110
0000
0010
0100
,
1001
0000
0100
0010
1001
0000
0001
1000
,
1010
0011
0101
1100
,
1000
0100
0001
0010
1000
0100
0001
0010
,
1000
0100
1000
0000
0001
0100
0001
0000
1000
0010
1000
0000
0001
0010
0001
0000
,
0020
0000
0000
0000
,
0130
1000
0010
0100
0001
0000
0000
0000
0101
1100
0000
0110
0000
1010
0000
0011
,
1001
0000
0000
0000
0001
0000
1000
0100
,
1000
0000
0001
0000
1000
0000
0001
0100
,
0001
0000
0010
0000
0100
0000
1000
0001
,
1000
0000
0010
0000
0100
0010
0100
0000
,
0001
0000
0100
0000
0010
0000
1000
0010
,
1000
0000
0001
0010
0001
0000
1000
0000
,
0002
0023
0230
2300
,
3001
1000
0100
1000
0100
0000
0020
0000
,
0031
0000
0000
0000
1000
0000
0001
0100
,
0001
0000
0010
0000
0100
0000
1000
0100
,
1000
0000
0100
0000
0010
0000
0001
0010
,
0001
0000
1000
0010
1000
0000
0001
1000
,
0001
0010
0010
0100
,
1000
0100
1000
0000
0001
0000
0001
0000
,
0100
0000
0220
0000
,
0000
0000
0000
0330
,
1001
0000
0000
0000
1000
0000
0010
0100
,
0001
0000
1000
0000
0001
0000
0010
0100
,
1000
0000
0100
0000
0010
0000
0001
0100
,
0010
0000
1000
0000
0100
0010
0001
0000
,
0011
0000
0000
0000
0011
0000
0000
0000
0001
0000
0100
0000
,
0010
0000
0000
1010
0000
0000
1000
0001
,
0100
0000
0000
0000
0010
0000
0000
1000
0000
0000
0100
0000
0000
0010
0000
0000
,
0001
0000
0010
0100
1000
0000
0020
0000
,
0130
0000
0001
0000
0010
0000
0100
1000
,
0100
0000
1000
0000
0010
0000
0100
0001
,
1000
0100
0010
0001
0010
0100
1000
0000
,
0001
0100
0010
1000
0001
0000
0200
0000
,
0301
0100
1000
0100
,
0001
0010
0001
0010
0100
0010
0100
1000
,
0002
0000
0000
0000
,
1003
0010
1010
1000
0001
0010
0011
0001
,
0100
0010
0110
0010
1000
0100
0110
0010
,
0001
0000
0010
0100
0000
1000
0001
0000
1000
0000
0010
0100
0000
0001
1000
0000
,
0100
0000
0010
0100
0000
1000
0001
0000
0100
0010
0100
0010
0100
0000
0000
0000
,
0001
0010
0011
0001
1000
0010
1010
1000
,
0100
0000
0010
0000
0001
0010
0001
0010
0100
0000
1000
0000
0010
1000
0010
1000
,
0100
0000
0010
0000
0001
0000
1000
0000
0010
0000
1000
0100
1000
0000
0001
0100
,
0001
0020
0000
0030
,
0001
0010
1100
0100
1000
0010
0101
0100
,
0001
0010
0001
0000
0010
0000
0100
0000
1000
0000
0010
1000
0010
0000
0100
0000
,
0001
0000
1000
0100
0000
1000
0001
0000
1000
0000
0001
0100
0000
0001
1000
0000
,
0010
0000
0100
0010
0000
1000
0001
0000
0010
0100
0010
0000
0100
0010
0100
0000
,
1000
0100
0011
0010
0001
0100
1010
1000
,
0001
0000
0010
0000
0110
0000
0100
0000
1000
0000
0100
1000
0001
1000
0001
1000
,
0100
0010
0001
1000
0001
0100
0010
1000
,
1010
0020
0130
0000
0001
0000
0011
0020
,
0130
1000
1001
0001
,
1000
0001
1000
0001
,
1000
0001
1000
0001
,
1000
0001
1000
0001
,
1000
0001
1000
0001
,
1000
0001
1000
0001
,
1000
0001
1000
0001
,
1000
0001
1000
0001
,
1000
0001
1000
0001
,
0101
0001
0100
0110
1010
1000
0001
1000
,
1100
1000
0100
0110
0011
0101
0100
0100
,
0120
0001
2030
3200
,
0310
0001
0010
0100
1000
0000
0010
1000
0010
0100
0001
0000
1000
0000
0000
0000
0000
0000
0100
0000
0010
0000
0001
0000
0200
0000
0010
0000
0010
0000
0310
0000
,
1010
0010
1000
0100
0010
0000
0000
0000
,
0011
0010
0001
0100
0010
0000
0000
0000
,
1001
1000
0100
0010
1001
0001
0100
0010
,
1000
0000
1000
0000
0001
0000
0001
0000
1000
0001
1000
0001
0100
0010
0100
0010
,
2000
0000
0000
0000
,
3002
0000
0000
0000
,
1003
0100
1000
0100
0010
0100
0010
0001
,
2000
0000
0010
0000
,
3001
0100
0010
1000
,
0002
0000
0023
0000
,
1000
0000
0001
0000
,
0130
1000
0001
0000
1000
0000
0010
0000
,
0100
0001
0100
0001
0010
0001
0010
0100
,
2000
0000
3010
0100
,
0001
0100
0001
0100
0010
1000
0010
1000
,
0002
0000
0023
0000
,
1030
0010
0001
1000
,
0020
0000
0001
0000
,
1030
0001
1000
0100
,
0010
0001
1000
0000
0001
0000
0100
0000
,
0010
0100
0010
0100
0001
0100
0001
1000
,
0200
0000
0000
0000
0310
0001
0100
0000
,
0010
1000
0100
0000
0010
0001
0100
0000
,
0010
1000
0010
1000
0001
0010
0001
0010
,
0100
1000
0100
1000
0001
0100
0001
0100
,
0010
1000
0010
0001
,
0020
0000
0230
0000
,
0301
0010
0001
0000
1000
0010
1000
0000
,
0100
0010
0100
0010
0100
0010
0100
0010
,
0002
0000
0000
0000
1003
0000
0100
1000
,
0020
0000
0230
0000
,
0301
0010
0100
0001
,
1000
0010
0100
1000
,
0001
0100
0001
0000
1000
0000
0100
0000
,
1000
0100
1000
0000
0001
0000
0100
0000
,
0010
0100
0010
0000
1000
0000
0001
0000
,
0010
0000
0000
0000
0100
1000
0100
1000
,
0100
1000
0100
1000
0100
1000
0100
1000
,
0100
1000
0100
1000
0100
1000
0100
1000
,
0100
1000
0100
1000
0002
0000
0103
0001
,
0100
0001
0100
0001
0100
0001
0100
0001
,
0100
0001
0100
0001
0100
0001
0100
0001
,
0100
0001
0100
0001
0100
0001
2000
0000
,
3001
0010
0001
0010
0001
0010
0001
0000
,
1000
0010
1000
0010
1000
0010
1000
0000
,
0001
0100
0001
0100
0001
0100
0001
0000
,
1000
0100
1000
0100
1000
0100
1000
0000
,
0001
1000
0001
1000
0001
1000
0001
1000
,
0001
1000
0001
1000
0001
1000
0001
1000
,
0010
0100
0010
0100
0010
0100
0010
0100
,
0010
0100
0010
0100
0010
0100
0010
0100
,
0002
0000
0000
0000
0000
0000
0000
0000
0013
0000
0100
1000
0100
0000
1000
0000
,
0001
0000
0000
0000
0000
0000
0000
0000
0001
0000
0000
0000
0000
0000
0000
0000
0001
0000
0000
0000
0000
0000
0000
0000
0100
0000
0000
0010
0000
0000
0100
0000
0000
0010
0000
0000
0100
0000
0000
0010
0000
0000
1000
0000
0000
0000
0000
0000
,
0000
1000
0000
0000
1000
0000
0000
0001
0100
0001
0100
0000
0000
0010
1000
0010
,
1000
0000
0000
0000
0100
0010
0100
0010
0001
0000
0010
0100
0010
0100
0010
0100
,
1000
0000
0000
0000
0000
0000
0001
0000
0000
0000
0000
0000
1000
0000
0000
0000
0000
0000
0001
0000
0000
0000
0000
0000
1000
0000
0000
0000
0000
0001
0000
0000
,
0000
0000
1000
0000
0000
0000
0000
0001
0000
0000
0000
0000
1000
0000
0000
0000
0001
0000
0000
0000
1000
0000
0000
0000
0001
0000
0000
0000
1000
0000
0000
0001
,
0000
0000
0000
0000
1000
0000
0000
0000
0000
0000
0001
0000
0000
0000
0000
0000
1000
0000
0000
0000
0001
0000
0000
0000
1000
0000
0000
0000
0001
0000
0000
0000
1000
0000
0000
0001
0000
0000
1000
0000
0000
0001
0000
0000
1000
0000
0000
0000
0001
0000
0000
0000
1000
0000
0000
0000
0001
0000
0000
0000
1000
0000
0000
0000
,
0000
0001
0000
0000
0000
0000
1000
0000
0000
0000
0000
0001
0000
0000
0000
0000
1000
0000
0000
0000
0000
0001
0000
0000
0000
0000
0000
0000
1000
0000
0000
0000
0000
0000
0001
0000
0000
0000
0000
0000
1000
0000
0000
0000
0000
0000
0000
0001
0000
0000
0000
0000
0000
0000
1000
0000
0000
0000
0000
0000
0000
0001
0000
0000
,
0000
0000
1000
0000
0000
0000
0001
0000
0000
0000
1000
0000
0000
0000
0001
0000
0000
0000
1000
0000
0000
0000
0000
0001
0000
0000
0000
0000
1000
0000
0000
0000
,
0000
0001
0000
0000
0000
0000
1000
0000
0000
0000
0000
0000
0001
0000
0000
0000
0000
0000
1000
0000
0000
0000
0000
0000
0001
0000
0000
0000
0000
0000
0000
0000
,
1000
0000
0000
0000
1000
0100
1000
0001
0000
0000
0000
0001
0100
0001
1000
0000
,
0000
0000
0010
0100
0010
0100
0001
0000
1000
0000
0000
0000
0000
0000
0000
0000
,
2002
0000
0000
0000
,
0000
0000
0000
0000
,
3003
0000
0000
0000
;

//---------------dance-single - Marten-CSP----------------
#NOTEDATA:;
#CHARTNAME:Marten-CSP;
#STEPSTYPE:dance-single;
#DESCRIPTION:Marten-CSP;
#DIFFICULTY:Challenge;
#METER:20;
#CREDIT:Marten;
#NOTES:
0000
0000
0000
0000
,
0000
0000
0000
0000
,
0000
0000
0000
0000
,
0000
0000
0000
0000
,
2002
0000
0000
0000
,
0003
0000
0000
0000
,
3001
0100
1000
0100
0001
0100
1000
0100
,
0001
0010
1000
0010
0001
0010
1000
0010
,
2002
0000
0000
0000
,
3000
0000
0000
0000
,
1003
0100
0001
0100
1000
0100
0001
0100
,
1000
0000
0010
0000
0100
0001
0100
0001
0010
0001
0010
0001
1000
0100
0010
0001
,
1001
0001
0100
0010
0110
0010
1000
0001
,
1001
1000
0100
0010
0110
0010
0001
1000
,
1001
1000
0010
0001
1001
0001
0010
1000
,
1001
0001
0010
1000
1001
1000
0010
0001
,
0011
0101
1010
0011
,
0001
0100
1000
0010
0001
0100
1000
0010
,
0001
0010
0001
1000
0001
0100
0010
1000
0001
1000
0100
0010
0001
0100
0010
1000
,
0100
0001
1000
0010
0001
0100
1000
0001
,
0010
1000
0100
0010
0200
0000
0300
MMMM
1100
0101
0000
1010
0000
0011
0000
0110
,
1002
0000
2003
0000
3100
0010
0001
0100
,
0002
0000
0203
0000
0310
1000
0100
1000
,
0002
0000
0023
0000
0130
1000
0001
1000
,
0020
0000
0230
0000
0301
0100
0010
1000
,
0020
0000
0230
0000
0301
0010
0100
1000
,
0002
0000
2003
0000
3100
1000
0010
0100
,
0001
0010
0100
1000
0200
0000
1300
0000
,
0010
0100
0001
1000
0001
0000
MMMM
0000
,
0200
0000
0302
0000
0103
1000
0010
0100
,
0020
0000
0032
0000
0013
1000
0001
0010
,
0200
0000
0302
0000
1003
0010
0001
0100
,
0020
0000
0032
0000
1003
0100
0010
1000
,
0001
0001
1000
1000
,
0010
0100
0001
0010
0100
0000
1000
0000
,
2002
0000
3000
0000
1003
0100
0010
0001
,
0100
0010
1000
0100
0010
0001
0100
0010
,
1020
0000
2030
0000
3001
0010
1000
0010
,
0002
0000
0203
0000
0301
0100
1000
0100
,
0002
0000
0023
0000
0130
0001
0100
1000
,
0200
0000
2300
0000
3010
0001
0010
1000
,
1010
0000
0000
0000
0110
0000
0000
0000
0101
0000
0001
0000
,
0011
0000
0000
0110
0000
0000
1100
1000
,
0001
0000
0000
0000
1000
0000
0000
0100
0000
0000
0001
0000
0000
0010
0000
0000
,
1000
0000
0001
0010
0100
0000
MMMM
0000
,
2100
0000
3020
0000
1030
0100
0001
0100
,
2000
0000
3020
0000
1030
0010
0001
0010
,
1000
0100
0010
0001
0010
0100
2000
0000
,
3001
0100
0010
1000
0010
0100
0002
0003
,
2002
0000
0003
0000
3001
0010
0100
1000
,
0010
0100
0001
0010
0100
1000
0010
0100
,
0002
0000
0000
0000
0000
0000
0003
MMMM
,
1000
0100
0011
0010
0001
0100
1010
1000
,
0001
0010
0100
0000
1100
0000
1000
0000
0010
0000
0100
0001
0010
0000
0001
0000
,
1000
0000
0001
0100
0000
0100
1000
0000
0001
0000
1000
0100
0000
0100
0001
0000
,
1000
0000
0010
0001
0000
0010
1000
0000
0001
0010
0100
0001
0100
0000
1000
0000
,
0001
0100
1010
0010
1000
0100
0011
0001
,
0010
0000
0100
0000
1000
0010
0001
0010
0100
0000
0001
0000
0010
1000
0010
0001
,
0100
0000
1000
0000
0001
0000
0010
0000
1000
0100
0010
0001
0010
1000
0010
0001
,
1000
0000
0000
0000
0010
1000
0010
0100
0010
0001
0010
1000
0001
0010
1000
0010
,
0001
0010
1001
1000
0010
0100
1001
0001
,
0010
0000
1000
0001
0100
0000
1000
0000
0010
0000
0001
1000
0100
0000
0001
0000
,
1000
0000
0001
0010
0000
0010
1000
0000
0001
0000
1000
0010
0000
0010
0001
0000
,
1000
0000
0100
0001
0000
0100
1000
0000
0001
0100
1000
0000
0001
0010
1000
0000
,
0001
0010
1100
0100
1000
0010
0101
0100
,
0001
0000
1000
0000
0110
0000
0001
0000
1000
0000
0001
0010
1000
0010
0001
0100
,
0010
1000
0100
0001
0010
1000
0001
1000
,
1010
1010
0100
0000
0001
0000
0011
0011
,
0100
1000
1001
0001
,
0100
1000
0100
0001
,
0010
1000
0010
0001
,
0100
1000
0100
0001
,
0010
1000
0010
0001
,
1000
0100
0001
0100
,
1000
0010
0001
0010
,
1000
0100
0001
0100
,
1000
0010
0001
0110
,
1010
0010
0100
0101
1100
0100
0010
0001
,
0011
0010
0100
1100
0101
0110
0100
0100
,
0201
1000
0320
2030
,
3001
0010
1000
0100
0001
0000
1000
0010
0001
0100
1000
0000
0001
0000
0000
0000
0100
0000
0010
0000
1000
0000
0100
0000
0020
0000
0100
0000
0100
0000
0130
0000
,
1200
1000
0010
0001
0320
0001
0001
0031
,
0201
0001
0010
1000
0320
1000
1000
1030
,
1001
0001
0010
1000
1001
1000
0010
0001
,
0011
0000
0010
0000
1100
0000
0100
0000
1000
0100
0001
1000
0001
0100
1000
0010
,
0200
0000
0000
0000
0000
0000
0300
MMMM
,
1002
0000
0000
0000
1003
0100
1000
0100
,
0001
0100
0001
0100
1000
0010
0100
0001
,
0020
0000
1000
0000
,
0031
0000
0100
0000
1000
0100
0001
0100
,
0020
0000
2030
0000
,
0001
0000
3100
0010
,
0001
0100
1000
0000
0100
0000
0010
0000
,
1000
0100
0010
0001
0100
0010
0001
0010
,
2000
0000
0000
0000
3100
1000
0001
0100
,
0001
0010
0100
1000
0001
0100
0010
0100
,
0002
0000
0023
0000
,
1030
0010
0001
0100
,
0020
0000
0031
0010
,
2000
0000
3002
0000
,
0013
0000
0100
0002
0000
0103
2000
0000
,
3010
0100
1000
0100
0001
0100
0010
1000
,
0002
0000
0000
0000
1003
0010
0100
0010
,
1000
0100
0010
0001
0100
0010
1000
0001
,
0010
0100
0010
0001
0100
0010
0100
0001
,
1000
0100
0010
0001
0100
0010
1000
0001
,
1000
1000
1000
1000
,
0020
0000
0230
0000
,
0301
0010
0001
0000
1000
0010
1000
0000
,
0001
0010
0100
1000
0010
0100
0001
0010
,
0200
0000
0000
0000
0301
0000
0100
1000
,
0002
0000
0203
0000
,
1300
0100
0001
0010
,
1000
0001
0100
1000
,
0010
1000
0100
1000
0010
1000
0100
0010
,
0001
0100
0001
0010
0001
0100
0010
1000
,
0001
0010
0100
1000
0001
0100
0010
1000
,
0002
0000
0000
0000
1003
0100
0010
0100
,
1000
0100
0010
0100
1000
0100
0010
0100
,
1000
0100
0010
0100
1000
0100
0010
0100
,
1000
0100
0010
0100
2000
0000
3001
0100
,
0010
0100
0001
0100
0010
0100
0001
0100
,
0010
0100
0001
0100
0010
0100
0001
0100
,
0010
0100
0001
0100
0010
0100
0002
0000
,
1003
0010
0100
0010
1000
0100
0010
0001
,
0100
0010
0100
0001
0010
1000
0010
0001
,
0100
0010
1000
0100
0001
0100
1000
0010
,
0100
1000
0100
0001
1000
0010
1000
0100
,
0010
0001
0010
1000
0010
0001
0100
0010
,
0100
1000
0100
0001
1000
0100
0001
0100
,
1000
0010
0001
1000
0100
0010
1000
0100
,
0010
1000
0010
0001
0100
1000
0100
0010
,
1001
0000
0000
0000
0000
0000
0000
0000
0001
0000
0100
1000
0100
0000
0001
0000
,
0011
0000
0000
0000
0000
0000
0000
0000
1100
0000
0000
0000
0000
0000
0000
0000
0101
0000
0000
0000
0000
0000
0000
0000
0001
0000
0000
1000
0000
0000
0100
0000
0000
0010
0000
0000
0100
0000
0000
2000
0000
0000
3010
0000
0000
0000
0000
0000
,
0000
0101
0000
0000
1001
0000
0000
1000
0010
0200
0301
0000
0000
0001
0010
0200
,
1300
0000
0000
0000
1000
0010
0100
0002
1003
0000
0001
0010
0100
1000
0001
1000
,
0200
0300
0000
0000
0000
0000
0000
0000
0000
0000
0000
0000
0200
0300
0000
0000
0000
0000
0000
0000
0000
0000
0000
0000
0200
0300
0000
0000
0000
0000
0000
0000
0000
0000
0000
0000
0200
0300
0000
0000
0000
0000
0000
0000
0000
0000
0000
0000
0200
0300
0000
0000
0000
0000
0000
0000
0000
0000
0200
0300
0000
0000
0000
0000
,
0000
0000
0000
0000
0200
0300
0000
0000
0000
0000
0000
0000
0000
0000
0200
0300
0000
0000
0000
0000
0000
0000
0000
0000
0200
0300
0000
0000
0000
0000
0000
0000
0200
0300
0000
0000
0000
0000
0000
0000
0200
0300
0000
0000
0000
0000
0000
0000
0200
0300
0000
0000
0000
0000
0000
0000
0200
0300
0000
0000
0000
0000
0200
0300
,
0000
0000
0000
0000
0200
0300
0000
0000
0000
0000
0200
0300
0000
0000
0000
0000
0200
0300
0000
0000
0200
0300
0000
0000
0200
0300
0000
0000
0200
0300
0000
0000
0200
0300
0000
0200
0300
0000
0200
0300
0000
0200
0300
0000
0200
0300
0000
0000
0200
0300
0000
0000
0200
0300
0000
0000
0200
0300
0000
0000
0200
0300
0000
0000
,
0000
0200
0300
0000
0000
0000
0200
0300
0000
0000
0000
0200
0300
0000
0000
0000
0200
0300
0000
0000
0000
0200
0300
0000
0000
0000
0000
0000
0200
0300
0000
0000
0000
0000
0200
0300
0000
0000
0000
0000
0200
0300
0000
0000
0000
0000
0000
0200
0300
0000
0000
0000
0000
0000
0200
0300
0000
0000
0000
0000
0000
0200
0300
0000
,
0000
0000
0000
0000
0200
0300
0000
0000
0000
0000
0000
0000
0200
0300
0000
0000
0000
0000
0000
0000
0200
0300
0000
0000
0000
0000
0000
0000
0200
0300
0000
0000
0000
0000
0000
0000
0200
0300
0000
0000
0000
0000
0000
0000
0000
0000
0200
0300
0000
0000
0000
0000
0000
0000
0000
0000
0200
0300
0000
0000
0000
0000
0000
0000
,
0000
0000
0200
0300
0000
0000
0000
0000
0000
0000
0000
0000
0200
0300
0000
0000
0000
0000
0000
0000
0000
0000
0000
0000
0200
0300
0000
0000
0000
0000
0000
0000
0000
0000
0000
0000
0200
0300
0000
0000
0000
0000
0000
0000
0000
0000
0000
0000
0200
0300
0000
0000
0000
0000
0000
0000
0000
0000
0000
0000
0000
0000
0000
0000
,
1001
0000
0000
0000
0100
1000
0100
0001
0000
0000
0000
0100
0001
0100
1000
0000
,
0000
0000
0001
0010
1000
0100
1001
0000
0110
0000
0000
0000
MMMM
0000
0000
0000
,
2002
0000
0000
0000
,
0000
0000
0000
0000
,
3003
0000
0000
0000
;

//---------------dance-double - NewbStepper-BDP----------------
#NOTEDATA:;
#CHARTNAME:NewbStepper-BDP;
#STEPSTYPE:dance-double;
#DESCRIPTION:NewbStepper-BDP;
#DIFFICULTY:Easy;
#METER:14;
#CREDIT:NewbStepper;
#NOTES:
00000000
00000000
00000000
00000000
,
00000000
00000000
00000000
00000000
,
00000000
00000000
00000000
00000000
,
00000000
00000000
00000000
00000000
,
00022000
00000000
00000000
00000000
,
00000000
00000000
00000000
00000000
,
00033000
00000000
00000000
00000000
,
00000000
00000000
00000000
00000000
,
00000220
00000000
00000000
00000000
,
00000000
00000000
00000000
00000000
,
00000330
00000000
00000000
00000000
,
00000000
00000000
00000000
00000000
,
00001001
00000000
00000001
00000000
,
00001000
00000000
00001000
00000000
,
00000010
00000000
00000010
00000000
,
00010000
00000000
00010000
00000000
,
00001000
00010000
01000000
00100000
,
10000000
00100000
00010000
01000000
,
00100000
10000000
00100000
10000000
00010000
00100000
00010000
00100000
,
00002000
00000000
00000000
00000000
,
00013000
00000000
00000100
00000000
00001000
00000000
00000000
00000000
00000001
00000000
00000000
00001000
00000000
00001000
00000000
00000000
,
00000001
00000100
00000010
00000000
,
00001000
00000100
00000010
00000000
,
00000100
00010000
00001000
00100000
,
00010000
01000000
00010000
00000000
,
10000000
01000000
00100000
00000000
,
00010000
01000000
00100000
00000000
,
01000000
00001000
00010000
00000010
,
00001000
00000100
00001000
00000000
,
00000010
00010000
00001000
00000000
,
00100000
00001000
00010000
00000000
,
00100000
10000000
00100000
01000000
,
00010000
10000000
01000000
00000000
,
00100000
00001000
00010000
00000000
,
00000010
00010000
00001000
00000010
,
00000100
00000000
00002000
00000000
,
00000000
00000000
00000000
00000000
,
00003001
00000100
00000010
00000000
,
00010000
00001000
00010000
00000000
,
00000100
00010000
00001000
00000000
,
01000000
00001000
00010000
00000000
,
00100000
00000000
00000000
00000000
00100000
00000000
00000000
00000000
00100000
00000000
00000000
00000000
,
01000000
00000000
00000000
01000000
00000000
00000000
01000000
00000000
,
00010000
00000000
00000000
10000000
00000000
00000000
01000000
00000000
,
00010000
00000000
00002000
00003000
,
00000010
00000001
00000100
00000000
,
00000010
00001000
00000100
00000000
,
00100000
00010000
01000000
00000000
,
00100000
10000000
01000000
00000000
,
10010000
00000000
10000000
01000000
,
00100000
00010000
00001000
00000100
,
00000020
00000000
00000000
00000030
,
00000001
00000100
00001000
00000000
00000100
00001000
00010000
00000000
,
00001000
00010000
01000000
00000000
00010000
01000000
10000000
00000000
,
00100000
00000000
00000000
10100000
00000000
00000000
10000000
00000000
00010000
00000000
00000000
00110000
00000000
00000000
00100000
00000000
,
00001000
00000000
00000000
00011000
00000000
00000000
00010000
00000000
00100000
00000000
10000000
00000000
00010000
00000000
00000000
00000000
,
10000000
01000000
00010000
00000000
01000000
00010000
00001000
00000000
,
00010000
00001000
00000100
00000000
00001000
00000100
00000001
00000000
,
00001000
00000010
00001000
00000010
00000100
00000001
00000100
00000001
,
00000010
00000200
00000000
00000300
,
00010000
00001000
00000100
00000000
00000010
00001000
00000100
00000000
,
00010000
00001000
00000010
00000000
00000100
00010000
00001000
00000000
,
00010000
00100000
01000000
00000000
00010000
00100000
00001000
00000000
,
00010000
01000000
00100000
00000000
00020000
00000000
20030000
00000000
,
30100000
10000000
00010000
00000000
00100000
00001000
00010000
00000000
,
01000000
00100000
00010000
00000000
00100000
00001000
00010000
00000000
,
00001000
00000010
00000001
00000000
00000100
00000010
00000100
00000000
,
00001000
00010000
00000000
00000000
00010100
00000000
00010000
00001000
,
00000000
01001000
01000000
00020000
,
00000000
00000000
00000000
00000000
,
00000000
00000000
00000000
00000000
,
00000000
00000000
00000000
00000000
,
00000000
00000000
00000000
00000000
,
00000000
00000000
00000000
00000000
,
00000000
00000000
00000000
00000000
,
00000000
00000000
00000000
00000000
,
00000000
00000000
00000000
00030000
,
00100000
01000000
00010000
00001000
00011000
00000000
00010000
00000000
,
00000010
00000100
00001000
00010000
00011000
00000100
00000000
00000000
,
00010200
00000000
00020300
00230000
,
10300000
00100000
01000000
00010000
10000000
01000000
00010000
00000000
00000000
00001000
00000010
00000100
00000020
00000000
00000000
00000000
,
00000031
00000100
00000010
00001000
00010000
00000000
00000000
00000000
,
10000000
01000000
00100000
00010000
00001000
00000000
00000000
00000000
,
00101000
00000000
00010010
00000000
,
00010000
00000000
00001000
00000000
00100000
00010000
00100000
01000000
,
20000000
00000000
00000000
00000000
,
30020000
00000000
00000000
00000000
,
10030000
01000000
00100000
00010000
,
20000000
00000000
00000000
00000000
,
00000000
00000000
00000000
30000000
,
00010000
00000000
00200000
00000000
,
00000000
00000000
00000000
00000000
,
00301000
00010000
00001000
00000000
,
00000100
00000001
00000100
00000010
,
00002000
00000000
00000000
00000000
,
00003001
00000100
00000010
00001000
,
00000002
00000000
00000203
00000000
,
00000000
00000000
00001300
00010000
,
00002000
00000000
00000000
00000000
,
00203000
00000000
00320000
00000000
,
10030000
01000000
10000000
00000000
,
00010000
01000000
00100000
00010000
,
00002000
00000000
00103000
00010000
,
00100000
00001000
00010000
00000010
,
00001000
00000010
00000100
00000001
,
00000010
00001000
00010000
00000100
,
00010000
00001000
00010000
00100000
,
20000000
00000000
30020000
00000000
,
02030000
00000000
03002000
00000000
,
00013000
00001000
00010000
00000000
,
00021000
00000000
00000000
00000000
,
00032000
00000000
00003200
00000000
,
00000302
00000203
00000320
00002030
,
00003200
00020300
00032000
00203000
,
00310000
10000000
01000000
00100000
,
00010000
00001000
00000100
00000010
,
00000001
00000100
00000010
00001000
,
00020000
00000000
10030000
00100000
,
10000000
00100000
01000000
00010000
,
01000000
00010000
00100000
00001000
,
00010000
00000100
00002000
00003001
,
00000010
00000001
00000010
00000100
,
00001000
00000100
00001000
00000010
,
00010000
00001000
01000000
00020000
,
10030000
01000000
10000000
01000000
,
00100000
00010000
00100000
00010000
,
00001000
00000100
00001000
00000100
,
00000010
00000001
00000010
00000001
,
00000100
00000010
00001000
00000100
,
00010000
00001000
00100000
00010000
,
01000000
00100000
10000000
01000000
,
00010000
01000000
10000000
00100000
,
01100000
00000000
00000000
00000000
01000000
00001000
01000000
00001000
,
00010000
00000000
00000000
00000000
00001000
00000000
00000000
00000000
00010000
00000000
00000000
00000000
00000000
00000000
00000000
00000000
00000000
00000000
00000000
00000000
00000000
00000010
00000000
00000000
,
00000000
00000100
00000000
00000000
00000010
00000000
00000000
00000000
00000000
00000000
00001010
00000000
00000000
00000000
00000000
00000000
,
00001001
00000000
00000101
00000000
,
00001100
00000000
00000000
00010000
00000000
00000000
00001000
00000000
,
00000000
00010000
00000000
00000000
00000000
00000000
00001000
00000000
00000000
00000000
00010000
00000000
00000000
00000000
00001000
00000000
,
00000000
00000000
00010000
00000000
00000000
00000000
00000000
00000000
00001000
00000000
00000000
00000000
00010000
00000000
00000000
00000000
00001000
00000000
00000000
00010000
00000000
00000000
00001000
00000000
00000000
00000000
00010000
00000000
00000000
00000000
00001000
00000000
,
00000000
00000000
00000000
00010000
00000000
00000000
00000000
00000000
00001000
00000000
00000000
00000000
00000000
00000000
00010000
00000000
00000000
00000000
00000000
00000000
00001000
00000000
00000000
00000000
00000000
00000000
00000000
00010000
00000000
00000000
00000000
00000000
,
00000000
00001000
00000000
00000000
00000000
00010000
00000000
00000000
00000000
00001000
00000000
00000000
00000000
00000000
00010000
00000000
,
00000000
00000000
00000000
00001000
00000000
00000000
00000000
00000000
00000000
00010000
00000000
00000000
00000000
00000000
00000000
00000000
,
00011000
00000000
00000000
00000000
00000000
00000000
00000000
01001000
00000000
00000000
00000000
00000000
00000000
00000000
10010000
00000000
,
00000000
00000000
00000000
10000000
01000000
00000000
00000000
00000000
,
00022000
00000000
00000000
00000000
,
00000000
00000000
00000000
00000000
,
00033000
00000000
00000000
00000000
;

//---------------dance-double - NewbStepper-DDP----------------
#NOTEDATA:;
#CHARTNAME:NewbStepper-DDP;
#STEPSTYPE:dance-double;
#DESCRIPTION:NewbStepper-DDP;
#DIFFICULTY:Medium;
#METER:16;
#CREDIT:NewbStepper;
#NOTES:
00000000
00000000
00000000
00000000
,
00000000
00000000
00000000
00000000
,
00000000
00000000
00000000
00000000
,
00000000
00000000
00000000
00000000
,
02002000
00000000
00000000
00000000
,
00000000
00000000
00000000
00000000
,
03003000
00000000
00000000
00000000
,
00000000
00000000
00000000
00000000
,
00020200
00000000
00000000
00000000
,
00000000
00000000
00000000
00000000
,
00030300
00000000
00000000
00000000
,
00000000
00000000
00000000
00000000
,
00011000
00000000
00010000
00000000
,
01000000
00000000
10000000
00000000
,
10010000
00000000
10000000
00000000
,
00100000
00000000
00010000
00000000
,
00001000
00000010
00000001
00000100
,
00000010
00010000
00000010
00010000
00001000
01000000
00001000
01000000
,
00100000
10000000
01000000
00100000
00010000
01000000
00100000
00010000
,
00002000
00000000
00000000
00000000
,
00013000
00001000
00000100
00000010
00002000
00000000
00000000
00000000
00003001
00000001
00000000
00000100
00000000
00000100
00000000
00000100
,
00000010
00010000
00001000
00000010
,
00001000
00010000
00001000
00000010
,
00000100
00000001
00000100
00001000
,
00000001
00000100
00001000
00000000
,
00100000
00001000
00010000
00100000
,
00010000
00001000
00010000
00100000
,
01000000
10000000
01000000
00010000
,
10000000
01000000
00010000
00020000
,
00031000
01000000
00001000
00010000
,
01000000
00100000
00001000
00010000
,
00001000
00000010
00000100
00001000
,
00000001
00000100
00001000
00000000
,
00010000
01000000
10000000
01000000
,
00100000
00010000
01000000
00100000
,
10000000
01000000
00020000
00000000
,
00000000
00000000
00030000
00000000
,
00011000
00001000
00000100
00000001
,
00000010
00000010
00000100
00001000
,
00000001
00000001
00000100
00001000
,
00010000
00010000
00001000
01000000
,
01010000
00000000
00000000
00000000
00010000
00000000
00000000
00000000
10000000
00000000
00100000
00000000
,
10000000
00000000
00000000
10000000
00000000
00000000
01000000
00000000
,
00010000
00000000
00000000
00000000
00001000
00000000
00000000
00010000
00000000
00000000
00001000
00000000
00000000
00010000
00000000
00000000
,
00001000
00100000
00002000
00013000
,
00011000
00010000
00001000
00000100
,
00000010
00001000
00000001
00000100
,
00001000
00010000
01000000
10000000
,
00100000
01000000
00002000
00013000
,
00011000
00000000
00010000
01000000
,
10000000
00100000
00010000
00001000
,
00000020
00000000
00000000
00000030
,
00000010
00000001
00001000
00000001
00000100
00000001
00001000
00000100
,
00010000
00001000
01000000
00001000
00010000
00001000
00100000
01000000
,
10000000
00100000
01000000
00100000
10000000
01000000
00100000
01000000
,
10000000
00100000
01000000
00010000
10000000
00010000
01000000
00100000
,
10000000
00010000
10000000
01000000
10000000
00010000
01000000
00001000
,
00010000
00000010
00010000
00001000
00010000
00000010
00000100
00000001
,
00000010
00000100
00000010
00000001
00000100
00000010
00000100
00000001
,
00000010
00000200
00000000
00000300
,
00001001
00001000
00000100
00000010
00000001
00000100
00000010
00001000
,
00010000
01000000
00100000
10000000
00010000
01000000
00100000
10000000
,
01000000
00100000
00001000
00010000
00001000
00000010
00000001
00001000
,
00000010
00010000
00000100
00001000
00000020
00000000
00020030
00000000
,
00031000
00100000
00010000
10000000
01000000
00100000
00010000
00001000
,
00000100
00000010
00000001
00001000
00000100
00000010
00000001
00000100
,
00000010
00010000
00001000
00010000
00100000
10000000
00010000
00100000
,
00001000
01000000
01001000
00000000
00011000
00000000
00010000
00000100
,
00010100
00011000
00011000
00002000
,
00000000
00000000
00000000
00000000
,
00000000
00000000
00000000
00000000
,
00000000
00000000
00000000
00000000
,
00000000
00000000
00000000
00000000
,
00000000
00000000
00000000
00000000
,
00000000
00000000
00000000
00000000
,
00000000
00000000
00000000
00000000
,
00000000
00000000
00000000
00003000
,
00011000
00010000
00000100
00000010
00000110
00000000
00001000
00000000
,
00011000
00010000
01000000
00100000
01100000
10000000
00000000
00000000
,
10020000
01000000
20030000
32000000
,
03010000
01000000
00100000
00010000
01000000
00100000
00010000
00000000
00000000
00001000
00010000
00000100
00020000
00000000
00030000
00000000
,
00011000
00001000
00100000
01000000
00010000
00000000
00000000
00000000
,
00011000
00010000
00000010
00000100
00001000
00000000
00000000
00000000
,
00011000
00000000
00011000
00000000
,
00010000
00001000
00000100
00000001
00000010
00001000
00010000
00100000
,
20000000
00000000
00000000
00000000
,
30020000
00000000
01030000
00100000
,
00010000
00001000
00000100
00000010
,
00002000
00000000
00000100
00000000
,
00003001
00000100
00000010
00000100
,
00002000
00000000
00023000
00000000
,
00000100
00000000
00001000
00000000
,
00031000
00010000
01000000
10000000
,
00100000
10000000
01000000
00010000
,
00002000
00000000
00013000
00000010
,
00001000
00010000
01000000
00100000
,
00020000
00000000
00032000
00000000
,
01000000
00000000
00013000
00001000
,
00000020
00000000
00000100
00000000
,
00000001
00000000
00000130
00001000
,
00000010
00000100
00001000
00010000
,
01000000
00100000
00010000
00001000
,
00000200
00000000
00010300
00001000
,
00000100
00000001
00001000
00000010
,
00000100
00001000
00010000
01000000
,
10000000
00010000
00100000
01000000
,
00010000
00001000
00000100
00000001
,
00000020
00000000
00000032
00000000
,
00002003
00000000
00000100
00000000
,
00003001
00000100
00000010
00001000
,
00020000
00000000
10030000
01000000
,
00010000
10000000
00100000
00010000
,
01000000
00010000
00100000
00001000
,
00010000
00000100
00001000
00000010
,
00000100
00000001
00000100
00001000
,
00010000
00100000
10000000
01000000
,
00010000
00001000
00000010
00000001
,
00000200
00000000
00001300
00010000
,
01000000
10000000
00010000
00100000
,
00001000
00010000
00100000
10000000
,
01000000
00010000
00002000
00013000
,
00001000
00000100
00000001
00001000
,
00000010
00010000
00001000
00000010
,
00000001
00000100
00001000
00020000
,
01030000
00100000
01000000
00010000
,
00001000
00000100
00000010
00000100
,
00001000
00010000
00100000
01000000
,
00100000
00010000
00001000
00000010
,
00000100
00000010
00001000
00010000
,
01000000
10000000
01000000
00010000
,
00001000
00000100
00000001
00000100
,
00001000
00010000
00100000
10000000
,
00010000
00000000
00000000
00000000
00010000
01000000
00100000
10000000
,
01000000
00000000
00000000
00000000
01000000
00000000
00000000
00000000
01000000
00000000
00000000
00000000
00020000
00000000
00000000
00000000
00000000
00000000
00030000
00000000
00000000
00001000
00000000
00000000
,
00000000
00001000
00000000
00000000
00001000
00000000
00000000
00000200
00000000
00000000
00000301
00000000
00000000
00000200
00000000
00000000
,
00000310
00000000
00001000
00000001
00000100
00002000
00000000
00000000
,
00013000
00000000
00000000
00001000
00000000
00000000
00010000
00000000
,
00000000
00001000
00000000
00000000
00000000
00000000
00010000
00000000
00000000
00000000
00001000
00000000
00000000
00000000
00010000
00000000
,
00000000
00000000
00001000
00000000
00000000
00000000
00000000
00000000
00010000
00000000
00000000
00000000
00001000
00000000
00000000
00000000
00010000
00000000
00000000
00001000
00000000
00000000
00010000
00000000
00000000
00000000
00001000
00000000
00000000
00000000
00010000
00000000
,
00000000
00000000
00000000
00001000
00000000
00000000
00000000
00000000
00010000
00000000
00000000
00000000
00000000
00000000
00001000
00000000
00000000
00000000
00000000
00000000
00010000
00000000
00000000
00000000
00000000
00000000
00000000
00001000
00000000
00000000
00000000
00000000
,
00000000
00010000
00000000
00000000
00000000
00001000
00000000
00000000
00000000
00010000
00000000
00000000
00000000
00000000
00001000
00000000
,
00000000
00000000
00000000
00010000
00000000
00000000
00000000
00000000
00000000
00001000
00000000
00000000
00000000
00000000
00000000
00000000
,
00101000
00000000
00000000
00000000
00100000
00000000
00000000
00110000
00000000
00000000
00000000
00010000
00000000
00000000
10010000
00000000
,
00000000
00100000
00000000
01001000
00011000
00000000
00000000
00000000
,
00022000
00000000
00000000
00000000
,
00000000
00000000
00000000
00000000
,
00033000
00000000
00000000
00000000
;

//---------------dance-double - NewbStepper-EDP----------------
#NOTEDATA:;
#CHARTNAME:NewbStepper-EDP;
#STEPSTYPE:dance-double;
#DESCRIPTION:NewbStepper-EDP;
#DIFFICULTY:Hard;
#METER:19;
#CREDIT:NewbStepper;
#NOTES:
00000000
00000000
00000000
00000000
,
00000000
00000000
00000000
00000000
,
00000000
00000000
00000000
00000000
,
00000000
00000000
00000000
00000000
,
20020000
00000000
00000000
00000000
,
30000000
00000000
00000000
00000000
,
10030000
01000000
00100000
01000000
10000000
01000000
00010000
00001000
,
00000010
00000001
00000010
00000100
00000010
00000001
00001000
00000001
,
00002002
00000000
00000000
00000000
,
00000003
00000000
00000000
00000000
,
00003001
00000100
00000010
00000100
00000001
00000100
00001000
00010000
,
00100000
10000000
00100000
01000000
00100000
10000000
00010000
10000000
,
11000000
01000000
01010000
00010000
,
00011000
00001000
00001010
00000010
,
00000011
00000001
00000101
00000100
,
00001100
00001000
00011000
00010000
,
00110000
00011000
00001010
00011000
,
00010000
01000000
10000000
00100000
00010000
00001000
00000010
00000001
,
00001000
00000100
00001000
00000100
00010000
00000100
00010000
00000100
00010000
00001000
00010000
00001000
00100000
00001000
00100000
00001000
,
00010000
00022000
00000000
00033000
,
00001000
00010000
00100000
01000000
00001000
00000000
00000000
00000000
00010000
00100000
00000000
10000000
00000000
10000000
00000000
10000000
,
00010000
00000000
00000000
00000000
00100000
00000000
01000000
10000000
,
01000000
00000000
10000000
00000000
00010000
00000000
01000000
00010000
,
01000000
00000000
00001000
00000000
00010000
00000000
00000010
00001000
,
00000010
00000000
00010000
00000000
00001000
00010000
00001000
00000000
,
00100000
00000000
00001000
00000000
00010000
00000000
00000100
00001000
,
00000100
00000000
00000010
00000001
00000010
00000000
00000001
00000000
,
00000200
00002300
00023000
02030000
,
13000000
00010000
01000000
00001000
00010000
00000000
00000200
00000000
,
00001300
00000000
00000000
00000000
00000010
00000000
00000100
00000001
,
00000100
00000000
00000001
00000000
00001000
00000000
00000100
00001000
,
00000100
00000000
00010000
00000000
00001000
00000000
00100000
00010000
,
00100000
00000000
00001000
00010000
00001000
00000000
00010000
00000010
,
00010000
00000010
00000010
00000100
,
00001000
00010000
00001000
00000000
00010000
00000000
00010000
00000000
,
01000000
00000000
02200000
00000000
,
00000000
00000000
00000000
03300000
,
10010000
00000000
00000000
00000000
00010000
00000000
10000000
00100000
,
10000000
00000000
01000000
00000000
00010000
00000000
00001000
00010000
,
00001000
00000000
00010000
00000000
00000100
00000000
00000010
00000100
,
00000010
00000000
00000001
00000000
00000100
00000000
00001000
00010000
,
00001000
00000000
00000000
00000000
00011000
00000000
00000000
00000000
00010000
00000000
01000000
00000000
,
00100000
00000000
00000000
00110000
00000000
00000000
00010000
10000000
,
01000000
00000000
00000000
00000000
00010000
00000000
00000000
00001000
00000000
00000000
00010000
00000000
00000000
00000100
00000000
00000000
,
00001000
00000001
00000200
00000320
,
00001030
00000000
00000100
00000000
00010000
00000000
00000010
00001000
,
00000010
00000000
00001000
00000000
00000100
00000000
00010000
00001000
,
00100000
00001000
00100000
00001000
00010000
00000000
00001000
00000000
,
01000000
00001000
01000000
00001000
00010000
00000000
00100000
00000000
,
01100000
00000000
00000000
00000000
10000000
01000000
10000000
01000000
,
00100000
00010000
00100000
00001000
00010000
00001000
00010000
00000100
,
00002000
00000000
00000000
00000000
,
00003010
00000100
00001000
00010000
00000010
00000100
00001000
00010000
,
00001000
01000000
00100000
00010000
00001000
01000000
00100000
00010000
,
00001000
00000000
00100000
00010000
00000000
00100000
00010000
00000000
01000000
00000000
00100000
10000000
00000000
00100000
10000000
00000000
,
01000000
00000000
00010000
00001000
00000000
00010000
00001000
00000000
00000100
00000010
00000100
00000010
00001000
00000000
00000100
00000000
,
00010000
00001000
00000100
00000010
00010000
00001000
00000100
00000010
,
00001000
00000000
00000001
00000000
00000100
00000010
00000100
00000010
00001000
00000000
00000100
00000000
00010000
00001000
00010000
00001000
,
00100000
00000000
00010000
00000000
10000000
00000000
01000000
00000000
00010000
00000000
00001000
00100000
00001000
00000000
00010000
00000010
,
00010000
00202000
00000000
00303000
,
00100000
01000000
00010000
00001000
00100000
01000000
00010000
00001000
,
00010000
00000100
00000010
00001000
00010000
00000100
00000010
00001000
,
00010000
00000000
00000010
00001000
00000000
00000010
00001000
00000000
00000100
00000000
00000010
00000001
00000000
00000010
00000001
00000000
,
00000100
00000000
00001000
00010000
00001000
00000000
00100000
00000000
00101000
00000000
00000000
00000000
00011000
00000000
00000000
00000000
,
00001000
00010000
01000000
00100000
00001000
00010000
01000000
00100000
,
00010000
00000000
10000000
00000000
01000000
00000000
00010000
00000000
00001000
00000000
00000100
00000010
00001000
00000010
00001000
00000010
,
00000100
00000001
00000010
00001000
00010000
00100000
10000000
00010000
,
01010000
02000000
03001000
00000000
00010000
00000000
00001100
00000200
,
00010300
00001000
00011000
00010000
,
00001000
00010000
00001000
00010000
,
00001000
00010000
00001000
00010000
,
00001000
00010000
00001000
00010000
,
00001000
00010000
00001000
00010000
,
00001000
00010000
00001000
00010000
,
00001000
00010000
00001000
00010000
,
00001000
00010000
00001000
00010000
,
00001000
00010000
00001000
00010000
,
00011000
00001000
00000100
00000001
00000011
00000010
00001000
00010000
,
00011000
00010000
01000000
10000000
10100000
00100000
00010000
00001000
,
00021000
00000100
00030020
00002030
,
00003100
00000000
00010000
00001000
00010000
00001000
00010000
00000000
00001000
00010000
00001000
00010000
00001000
00000000
00000000
00000000
00000000
00000000
00010000
00000000
01000000
00000000
10000000
00000000
00200000
00000000
00000000
00000000
00000000
00000000
00000000
00000000
,
10300000
01000000
00100000
00010000
00001000
00000000
00000000
00000000
,
00000001
00000100
00000010
00001000
00010000
00000000
00000000
00000000
,
11000000
00000000
01010000
00000000
,
00011000
00000000
00001000
00000000
00000100
00000000
00000001
00000000
00000010
00000100
00000010
00000100
00000010
00000100
00000010
00000100
,
00000020
00000000
00000000
00000000
,
00002030
00000000
00003000
00010000
,
00001000
00100000
00010000
00100000
00010000
00100000
00010000
10000000
,
00100000
10000000
01000000
00010000
,
00001000
00100000
00010000
00001000
,
00000100
00000010
00000001
00000100
,
00001000
00010000
00001000
01000000
,
00100000
01000000
00100000
00000000
10000000
00000000
01000000
00000000
,
00010000
00001000
00010000
00001000
00010000
00000100
00010000
00000100
,
00002000
00000000
00003001
00000100
,
00000010
00001000
00000010
00010000
00001000
00010000
00001000
00100000
,
00020000
00000000
00230000
00000000
,
10300000
00100000
00010000
00001000
,
00000200
00000000
00000001
00000000
,
00001300
00000010
00001000
00000001
,
00000100
00000010
00000100
00000000
00001000
00000000
00010000
00000000
,
00001000
00010000
00001000
00010000
00001000
00100000
00010000
10000000
,
00200000
00000000
00000000
00000000
01300000
00010000
01000000
00000000
,
00100000
10000000
00100000
00000000
10000000
00010000
10000000
00010000
,
00100000
01000000
00100000
01000000
00010000
00000000
00001000
00000000
,
00010000
00001000
00010000
00001000
00000010
00000000
00000100
00000000
,
00000001
00001000
00000010
00000001
,
00000200
00000000
00002300
00000000
,
00013000
00001000
00010000
00000000
00100000
01000000
00100000
00000000
,
10000000
00010000
10000000
00010000
10000000
00010000
10000000
00010000
,
00200000
00000000
00301000
00010000
,
00002000
00000000
00003200
00000000
,
00000301
00000100
00000010
00001000
,
00010000
01000000
00100000
10000000
,
00010000
01000000
00010000
01000000
00010000
00000000
00100000
00000000
,
00001000
00010000
00001000
00010000
00001000
00000000
00000010
00000000
,
00000001
00000100
00000001
00000100
00000010
00001000
00000010
00001000
,
00000002
00000000
00000000
00000000
00001003
00000010
00001000
00000010
,
00001000
00000010
00001000
00000010
00001000
00000010
00001000
00000010
,
00001000
00000010
00001000
00000010
00001000
00000010
00001000
00000010
,
00001000
00000010
00001000
00000010
00020000
00000000
00031000
00100000
,
00001000
00100000
00001000
00100000
00001000
00100000
00001000
00100000
,
00001000
00100000
00001000
00100000
00001000
00100000
00001000
00100000
,
00001000
00100000
00001000
00100000
00001000
00100000
00020000
00000000
,
10030000
01000000
10000000
01000000
10000000
01000000
10000000
00000000
,
00010000
01000000
00010000
01000000
00010000
01000000
00010000
00000000
,
00100000
00001000
00100000
00001000
00100000
00001000
00100000
00000000
,
00001000
00010000
00001000
00010000
00001000
00010000
00001000
00000000
,
00000100
00000010
00000100
00000010
00000100
00000010
00000100
00000000
,
00000001
00000100
00000001
00000100
00000010
00001000
00000010
00001000
,
00000100
00010000
00000100
00010000
00001000
00100000
00001000
00100000
,
00010000
01000000
00010000
01000000
00100000
10000000
00100000
10000000
,
00020000
00000000
00000000
00000000
00000000
00000000
00000000
00000000
10030000
00000000
01000000
00100000
01000000
00000000
10000000
00000000
,
00010000
00000000
00000000
00000000
00000000
00000000
00000000
00000000
00010000
00000000
00000000
00000000
00000000
00000000
00000000
00000000
00010000
00000000
00000000
00000000
00000000
00000000
00000000
00000000
00100000
00000000
00000000
00001000
00000000
00000000
00100000
00000000
00000000
00001000
00000000
00000000
00100000
00000000
00000000
00001000
00000000
00000000
00010000
00000000
00000000
00000000
00000000
00000000
,
00000000
00010000
00000000
00000000
00010000
00000000
00000000
00000010
00001000
00000010
00001000
00000000
00000000
00000001
00000010
00000001
,
00000010
00000000
00000000
00000000
00000100
00001000
00000100
00001000
00000001
00000000
00001000
00000100
00001000
00000100
00001000
00000100
,
00010000
00000000
00000000
00000000
00000000
00000000
00001000
00000000
00000000
00000000
00000000
00000000
00010000
00000000
00000000
00000000
00000000
00000000
00001000
00000000
00000000
00000000
00000000
00000000
00010000
00000000
00000000
00000000
00000000
00001000
00000000
00000000
,
00000000
00000000
00010000
00000000
00000000
00000000
00000000
00001000
00000000
00000000
00000000
00000000
00010000
00000000
00000000
00000000
00001000
00000000
00000000
00000000
00010000
00000000
00000000
00000000
00001000
00000000
00000000
00000000
00010000
00000000
00000000
00001000
,
00000000
00000000
00000000
00000000
00010000
00000000
00000000
00000000
00000000
00000000
00001000
00000000
00000000
00000000
00000000
00000000
00010000
00000000
00000000
00000000
00001000
00000000
00000000
00000000
00010000
00000000
00000000
00000000
00001000
00000000
00000000
00000000
00010000
00000000
00000000
00001000
00000000
00000000
00010000
00000000
00000000
00001000
00000000
00000000
00010000
00000000
00000000
00000000
00001000
00000000
00000000
00000000
00010000
00000000
00000000
00000000
00001000
00000000
00000000
00000000
00010000
00000000
00000000
00000000
,
00000000
00001000
00000000
00000000
00000000
00000000
00010000
00000000
00000000
00000000
00000000
00001000
00000000
00000000
00000000
00000000
00010000
00000000
00000000
00000000
00000000
00001000
00000000
00000000
00000000
00000000
00000000
00010000
00000000
00000000
00000000
00000000
00000000
00001000
00000000
00000000
00000000
00000000
00000000
00000000
00010000
00000000
00000000
00000000
00000000
00000000
00000000
00001000
00000000
00000000
00000000
00000000
00000000
00000000
00010000
00000000
00000000
00000000
00000000
00000000
00000000
00001000
00000000
00000000
,
00000000
00000000
00010000
00000000
00000000
00000000
00001000
00000000
00000000
00000000
00010000
00000000
00000000
00000000
00001000
00000000
00000000
00000000
00010000
00000000
00000000
00000000
00000000
00001000
00000000
00000000
00000000
00000000
00010000
00000000
00000000
00000000
,
00000000
00001000
00000000
00000000
00000000
00000000
00010000
00000000
00000000
00000000
00000000
00000000
00001000
00000000
00000000
00000000
00000000
00000000
00010000
00000000
00000000
00000000
00000000
00000000
00001000
00000000
00000000
00000000
00000000
00000000
00000000
00000000
,
00100000
00000000
00000000
00000000
00010000
01000000
00010000
00100000
00000000
00000000
00000000
01000000
10000000
01000000
00100000
00000000
,
00000000
00000000
00010000
00100000
00001000
00010000
00001000
00000000
00010000
00000000
00000000
00000000
00000000
00000000
00000000
00000000
,
00022000
00000000
00000000
00000000
,
00000000
00000000
00000000
00000000
,
00033000
00000000
00000000
00000000
;

//---------------dance-double - NewbStepper-CDP----------------
#NOTEDATA:;
#CHARTNAME:NewbStepper-CDP;
#STEPSTYPE:dance-double;
#DESCRIPTION:NewbStepper-CDP;
#DIFFICULTY:Challenge;
#METER:20;
#CREDIT:NewbStepper;
#NOTES:
00000000
00000000
00000000
00000000
,
00000000
00000000
00000000
00000000
,
00000000
00000000
00000000
00000000
,
00000000
00000000
00000000
00000000
,
20020000
00000000
00000000
00000000
,
30000000
00000000
00000000
00000000
,
10030000
01000000
00010000
01000000
10000000
01000000
00010000
00001000
,
00000010
00000001
00000010
00001000
00000010
00000001
00000100
00000010
,
00002002
00000000
00000000
00000000
,
00000003
00000000
00000000
00000000
,
00003001
00000100
00001000
00000100
00000001
00000100
00001000
00010000
,
00100000
00000000
10000000
00000000
00010000
01000000
00010000
01000000
00010000
10000000
00010000
10000000
01000000
00100000
00010000
01000000
,
01100000
00100000
10000000
01000000
01100000
01000000
00010000
00001000
,
00011000
00010000
00000010
00000100
00001100
00001000
00010000
00000100
,
00000110
00000010
00000001
00000100
00000110
00000100
00001000
00010000
,
00011000
00001000
00100000
01000000
01010000
00010000
00001000
01000000
,
01100000
10100000
11000000
01010000
,
00010000
00001000
00000010
00000100
00010000
00001000
00000010
00000100
,
00001000
00000001
00001000
00000001
00001000
00000100
00000010
00000001
00000100
00000010
00001000
00000100
00010000
00001000
00100000
00010000
,
01000000
02200000
00000000
03300000
,
10000000
01000000
00100000
00010000
00002000
00000000
00003000
MMMMMMMM
00001100
00000101
00000000
00000110
00000000
00000110
00000000
00000110
,
00002001
00000000
00003002
00000000
00000103
00000010
00010000
00000100
,
00002000
00000000
00003020
00000000
00010030
00001000
00100000
00010000
,
20000000
00000000
30200000
00000000
01300000
00001000
00010000
00001000
,
00200000
00000000
02300000
00000000
03010000
00001000
00010000
00000100
,
00000020
00000000
00000032
00000000
00001003
00000100
00000010
00000001
,
00002000
00000000
00003002
00000000
00000103
00000010
00001000
00000100
,
00010000
00001000
00100000
00010000
20000000
00000000
30010000
00000000
,
00100000
00010000
00100000
00001000
00010000
00000000
MMMMMMMM
00000000
,
00020000
00000000
00032000
00000000
00003010
00000100
00000010
00000001
,
00000200
00000000
00002300
00000000
00013000
00001000
00100000
00001000
,
00020000
00000000
00230000
00000000
10300000
01000000
00100000
00010000
,
20000000
00000000
30200000
00000000
01300000
00010000
00100000
00001000
,
00010000
00010000
00001000
00001000
,
00000010
00000100
00001000
00000010
00000100
00000000
00000001
00000000
,
00002002
00000000
00003000
00000000
00001003
00000100
00000010
00000001
,
00000100
00000010
00001000
00000100
00010000
00001000
00100000
00010000
,
10020000
00000000
20030000
00000000
31000000
00100000
00001000
01000000
,
00020000
00000000
00230000
00000000
00301000
00010000
00000010
00001000
,
00000002
00000000
00000023
00000000
00000130
00010000
00001000
00010000
,
00000020
00000000
00000230
00000000
00001300
00010000
00001000
01000000
,
00100000
00000000
00000000
00000000
10100000
00000000
00000000
00000000
10000000
00000000
01000000
00000000
,
00010000
00000000
00000000
00011000
00000000
00000000
00001000
00000100
,
00000001
00000000
00000000
00000000
00001000
00000000
00000000
00000001
00000000
00000000
00000010
00000000
00000000
00001000
00000000
00000000
,
00010000
00100000
0001MMMM
MMMM1000
,
00012000
00000000
00203000
00000000
00310000
00100000
10000000
00100000
,
00020000
00000000
02030000
00000000
03001000
00010000
00001000
00000100
,
00000002
00000000
00002003
00000000
00003010
00000100
00001000
00010000
,
00002000
00023000
00230000
10300000
,
20020000
00000000
30000000
00000000
10030000
00100000
01000000
00010000
,
00100000
00001000
00010000
00000100
00001000
00000010
00000100
00000001
,
00000020
00000000
00000000
00000000
00000000
00000000
00000030
MMMMMMMM
,
00000010
00000001
00000100
00001000
00010000
00100000
10000000
01000000
,
00100000
00010000
01000000
00000000
00001000
00000000
00010000
00000000
00100000
01000000
00010000
00000000
00100000
00000000
00001000
00000000
,
00010000
00000000
00000100
00000010
00000000
00000010
00001000
00000000
00000001
00000000
00000100
00000010
00000000
00000010
00000001
00000000
,
00001000
00000000
00000100
00010000
00000000
00001000
00100000
00000000
00010000
01000000
00100000
10000000
00010000
00000000
10000000
00000000
,
01000000
10000000
00100000
00010000
00001000
00000100
00000001
00000010
,
00000100
00000000
00010000
00000000
00000010
00000100
00001000
00010000
00001000
00000000
00001000
00000000
00100000
01000000
00010000
00001000
,
00010000
00000000
00001000
00000000
00000010
00000000
00000001
00000000
00001000
00000001
00001000
00000001
00001000
00000100
00000010
00000001
,
00001000
00000000
00000000
00000000
00000100
00010000
00001000
00010000
00000100
00010000
00001000
00100000
00010000
10000000
00010000
01000000
,
00100000
10000000
01000000
00010000
00001000
00000010
00000001
00000100
,
00000010
00001000
00000100
00000000
00010000
00000000
00001000
00000000
00000010
00000100
00001000
00000000
00000010
00000000
00010000
00000000
,
00001000
00000000
01000000
00100000
00000000
00100000
00010000
00000000
10000000
00000000
01000000
00100000
00000000
00100000
10000000
00000000
,
00010000
00000000
01000000
00001000
00000000
00010000
00000100
00000000
00001000
00000100
00000001
00000000
00001000
00000010
00000001
00000000
,
00000100
00000001
00000010
00001000
00010000
01000000
10000000
00100000
,
01000000
00000000
00001000
00000000
00100000
00000000
00001000
00000000
00010000
00000000
00001000
00010000
00001000
00010000
00001000
00000100
,
00000010
00001000
00000001
00000010
00001000
00010000
00100000
10000000
,
11000000
11000000
00100000
00000000
00010000
00000000
01010000
01010000
,
00100000
10000000
10010000
10000000
,
01000000
00010000
01000000
10000000
,
01000000
00010000
01000000
00010000
,
00001000
00000010
00001000
00010000
,
00001000
00000010
00001000
00000010
,
00000001
00000100
00000001
00000010
,
00000001
00000100
00000001
00000100
,
00001000
00010000
00001000
00000100
,
00001000
00010000
00001000
00011000
,
00010010
00000010
00000100
00001100
00011000
00010000
01000000
00100000
,
00101000
00100000
01000000
01010000
00011000
00001000
00000100
00000010
,
00000210
00000001
00002300
00023000
,
00031000
00000000
00010000
00001000
00000010
00000100
00010000
00000000
00001000
00010000
00100000
01000000
00001000
00000000
00000000
00000000
00010000
00000000
00100000
00000000
10000000
00000000
01000000
00000000
00200000
00000000
01000000
00000000
01000000
00000000
01300000
00000000
,
01010000
00010000
00001000
00000010
00000002
00000000
00000103
00000000
,
00001100
00001000
00010000
00100000
20000000
00000000
31000000
00000000
,
10010000
00010000
10000000
01000000
01010000
00010000
00001000
00000100
,
00000101
00000000
00000001
00000000
00001100
00000000
00001000
00000000
00000001
00000100
00000010
00001000
00010000
01000000
00100000
10000000
,
00020000
00000000
00000000
00000000
00002000
00000000
00030000
MMMM3000
,
00002001
00000000
00000000
00000000
00003001
00000100
00000001
00000100
,
00001000
00010000
00001000
00010000
00100000
10000000
00010000
00100000
,
02000000
00000000
10000000
00000000
,
03100000
00000000
00001000
00000000
00010000
00001000
00000010
00000100
,
00002000
00000000
00003002
00000000
,
00000100
00000000
00001003
00000100
,
00000010
00001000
00010000
00000000
00001000
00000000
00100000
00000000
,
00010000
01000000
00100000
10000000
01000000
00100000
01000000
00010000
,
00002000
00000000
00000000
00000000
00003010
00000100
00000010
00000001
,
00000100
00001000
00010000
00001000
00100000
00010000
10000000
00010000
,
02000000
00000000
03200000
00000000
,
10300000
00100000
00010000
00001000
,
00000020
00000000
00000031
00000100
,
00002000
00000000
00023000
00000000
,
00030010
00001000
00000100
00000000
00000010
00000000
00000001
00000000
,
00000100
00001000
00010000
00001000
00010000
01000000
10000000
00100000
,
02000000
00000000
00000000
00000000
03010000
10000000
00100000
10000000
,
01000000
00100000
00001000
00010000
00100000
01000000
00010000
00100000
,
00001000
00100000
00010000
00100000
00001000
00010000
00001000
00000010
,
00000100
00001000
00000010
00000100
00000001
00000100
00001000
00010000
,
00001000
00001000
00001000
00001000
,
00200000
00000000
00320000
00000000
,
10030000
01000000
10000000
00000000
00010000
01000000
00010000
00000000
,
10000000
00100000
01000000
00010000
00100000
00001000
00010000
00000100
,
00002000
00000000
00003001
00000100
,
00002000
00000000
00023000
00000000
,
00130000
10000000
01000000
00100000
,
00010000
00001000
00000100
00000010
,
00000001
00000100
00000010
00000100
00000001
00000100
00000010
00000100
,
00001000
00010000
00001000
00100000
00001000
00010000
00001000
01000000
,
00010000
10000000
01000000
10000000
00100000
01000000
00010000
00100000
,
00002000
00000000
00000000
00000000
00013000
00000010
00001000
00000010
,
00010000
00000010
00001000
00000010
00010000
00000010
00001000
00000010
,
00010000
00000010
00001000
00000010
00010000
00000010
00001000
00000010
,
00010000
00000010
00001000
00000010
00020000
00000000
00031000
00100000
,
00010000
00100000
00001000
00100000
00010000
00100000
00001000
00100000
,
00010000
00100000
00001000
00100000
00010000
00100000
00001000
00100000
,
00010000
00100000
00001000
00100000
00010000
00100000
00002000
00000000
,
00013000
00001000
00000010
00000100
00000010
00000001
00001000
00000001
,
00000100
00000010
00000100
00001000
00010000
00000100
00001000
00000100
,
00010000
00001000
00010000
00100000
01000000
00100000
10000000
00010000
,
10000000
01000000
00100000
01000000
00010000
00001000
01000000
00010000
,
01000000
00001000
00010000
00001000
00000010
00000100
00000010
00000001
,
00000100
00000010
00001000
00010000
01000000
00100000
10000000
01000000
,
00100000
00010000
00001000
00000100
00000010
00000001
00000100
00000010
,
00001000
00010000
01000000
00100000
10000000
01000000
00010000
00001000
,
00011000
00000000
00000000
00000000
00000000
00000000
00000000
00000000
00010000
00000000
01000000
10000000
01000000
00000000
00010000
00000000
,
00011000
00000000
00000000
00000000
00000000
00000000
00000000
00000000
00001010
00000000
00000000
00000000
00000000
00000000
00000000
00000000
00000011
00000000
00000000
00000000
00000000
00000000
00000000
00000000
00000001
00000000
00000000
00001000
00000000
00000000
00000010
00000000
00000000
00001000
00000000
00000000
00000010
00000000
00000000
00010000
00000000
00000000
00001000
00000000
00000000
00000000
00000000
00000000
,
00000000
00110000
00000000
00000000
10100000
00000000
00000000
10000000
01000000
00200000
00310000
00000000
00000000
00001000
00000100
00000020
,
00000031
00000000
00000000
00000000
00001000
00000001
00000100
00000020
00001030
00000000
00010000
01000000
00100000
10000000
00010000
10000000
,
02000000
03000000
00000000
00000000
00000000
00000000
00000000
00000000
00000000
00000000
00000000
00000000
02000000
03000000
00000000
00000000
00000000
00000000
00000000
00000000
00000000
00000000
00000000
00000000
02000000
03000000
00000000
00000000
00000000
00000000
00000000
00000000
00000000
00000000
00000000
00000000
02000000
03000000
00000000
00000000
00000000
00000000
00000000
00000000
00000000
00000000
00000000
00000000
02000000
03000000
00000000
00000000
00000000
00000000
00000000
00000000
00000000
00000000
02000000
03000000
00000000
00000000
00000000
00000000
,
00000000
00000000
00000000
00000000
02000000
03000000
00000000
00000000
00000000
00000000
00000000
00000000
00000000
00000000
02000000
03000000
00000000
00000000
00000000
00000000
00000000
00000000
00000000
00000000
02000000
03000000
00000000
00000000
00000000
00000000
00000000
00000000
02000000
03000000
00000000
00000000
00000000
00000000
00000000
00000000
02000000
03000000
00000000
00000000
00000000
00000000
00000000
00000000
02000000
03000000
00000000
00000000
00000000
00000000
00000000
00000000
02000000
03000000
00000000
00000000
00000000
00000000
02000000
03000000
,
00000000
00000000
00000000
00000000
02000000
03000000
00000000
00000000
00000000
00000000
02000000
03000000
00000000
00000000
00000000
00000000
02000000
03000000
00000000
00000000
02000000
03000000
00000000
00000000
02000000
03000000
00000000
00000000
02000000
03000000
00000000
00000000
02000000
03000000
00000000
02000000
03000000
00000000
02000000
03000000
00000000
02000000
03000000
00000000
02000000
03000000
00000000
00000000
02000000
03000000
00000000
00000000
02000000
03000000
00000000
00000000
02000000
03000000
00000000
00000000
02000000
03000000
00000000
00000000
,
00000000
02000000
03000000
00000000
00000000
00000000
02000000
03000000
00000000
00000000
00000000
02000000
03000000
00000000
00000000
00000000
02000000
03000000
00000000
00000000
00000000
02000000
03000000
00000000
00000000
00000000
00000000
00000000
02000000
03000000
00000000
00000000
00000000
00000000
02000000
03000000
00000000
00000000
00000000
00000000
02000000
03000000
00000000
00000000
00000000
00000000
00000000
02000000
03000000
00000000
00000000
00000000
00000000
00000000
02000000
03000000
00000000
00000000
00000000
00000000
00000000
02000000
03000000
00000000
,
00000000
00000000
00000000
00000000
02000000
03000000
00000000
00000000
00000000
00000000
00000000
00000000
02000000
03000000
00000000
00000000
00000000
00000000
00000000
00000000
02000000
03000000
00000000
00000000
00000000
00000000
00000000
00000000
02000000
03000000
00000000
00000000
00000000
00000000
00000000
00000000
02000000
03000000
00000000
00000000
00000000
00000000
00000000
00000000
00000000
00000000
02000000
03000000
00000000
00000000
00000000
00000000
00000000
00000000
00000000
00000000
02000000
03000000
00000000
00000000
00000000
00000000
00000000
00000000
,
00000000
00000000
02000000
03000000
00000000
00000000
00000000
00000000
00000000
00000000
00000000
00000000
02000000
03000000
00000000
00000000
00000000
00000000
00000000
00000000
00000000
00000000
00000000
00000000
02000000
03000000
00000000
00000000
00000000
00000000
00000000
00000000
00000000
00000000
00000000
00000000
02000000
03000000
00000000
00000000
00000000
00000000
00000000
00000000
00000000
00000000
00000000
00000000
02000000
03000000
00000000
00000000
00000000
00000000
00000000
00000000
00000000
00000000
00000000
00000000
00000000
00000000
00000000
00000000
,
10010000
00000000
00000000
00000000
10000000
01000000
00100000
00010000
00000000
00000000
00000000
00001000
00000100
00000010
00000001
00000000
,
00000000
00000000
00000100
00001000
00010000
01000000
00100000
00000000
01100000
00000000
00000000
00000000
MMMMMMMM
00000000
00000000
00000000
,
00022000
00000000
00000000
00000000
,
00000000
00000000
00000000
00000000
,
00033000
00000000
00000000
00000000
;
