#TITLE:digicerata ~無視されることの美しさ~;
#ARTIST:dj vortivask;
#TITLETRANSLIT:digicerata ~mushisareru koto no utsukushisa~;
#BANNER:digicerata ~mushisareru koto no utsukushisa~.png;
#BACKGROUND:digicerata ~mushisareru koto no utsukushisa~-bg.png;
#MUSIC:digicerata ~mushisareru koto no utsukushisa~.ogg;
#SAMPLESTART:45.559;
#SAMPLELENGTH:15;
#BPMS:0=147.5,144=155;

//---------------dance-single - Kekkle-ESP----------------
#NOTES:
     dance-single:
     Kekkle:
     Hard:
     17:
     0.911085,0.992464,0.513038,0.442274,1.030499,721,663,58,50,0,0,0.911085,0.992464,0.513038,0.442274,1.030499,721,663,58,50,0,0:
0000
0000
0000
0000
,
0000
0000
0000
0000
,
0000
0000
0000
0000
,
0000
0000
0000
0000
,
1001
0001
0100
0010
0000
1000
0100
0010
,
0000
0001
1000
0100
1100
0000
0011
0000
,
1001
1000
0100
0010
0000
0001
0010
0100
,
0000
1000
0010
0100
0101
0000
1010
0000
,
1001
0001
0100
1000
0000
0100
0010
1000
,
0000
0010
0001
0010
1010
0000
1100
0000
,
1001
1000
0100
0001
0000
0100
1000
0010
,
0110
0000
0001
0000
0110
0000
1000
0000
0001
0010
0100
1000
0001
0100
0010
1000
,
0010
0000
0100
0001
1000
0000
0001
0000
1000
0000
0100
0010
0001
0000
1000
0000
,
0010
0000
0100
0001
1000
0000
0001
0000
0011
0000
1000
0000
1100
0000
0001
0000
,
1001
0000
1000
0010
0100
0000
0001
0000
0100
0000
0010
1000
0001
0000
1000
0000
,
0100
0000
0010
0001
1000
0000
0001
0000
0101
0000
1000
0000
1010
0000
0001
0000
,
1001
0000
1000
0010
0100
0000
0001
0000
0100
0000
0010
1000
0001
0000
1000
0000
,
0100
0000
0010
0001
0100
0000
0001
0000
1001
0000
1000
0000
0101
0000
0001
0000
,
1100
0000
1000
0010
0100
0000
0001
0000
0010
0000
0100
0010
0001
0000
0100
0000
,
0010
1000
0001
1000
0100
0010
0001
1000
1100
0000
0001
0000
0101
0000
1000
0000
,
1001
0000
0001
1000
0100
0010
0000
0010
0100
0000
1000
0000
0001
0200
0000
1000
,
0000
0301
1000
0001
0100
0000
0010
0000
1010
0000
0100
0000
0101
0000
0010
0000
,
1001
0000
1000
0001
0100
0010
0000
0010
0100
0000
0001
0000
1000
0200
0000
0001
,
0000
1300
0001
0010
0100
0000
1000
0000
1100
0000
0001
0000
0101
0000
1000
0000
,
1001
0000
0001
1000
0100
0010
0000
0010
0001
0000
1000
0000
0001
0020
0000
1000
,
0000
0130
1000
0001
1000
0000
0001
0000
0101
0000
1000
0000
1100
0000
0001
0000
,
1001
0000
1000
0001
0100
0010
0000
0010
1000
0000
0001
0000
1000
0020
0000
0001
,
0000
1030
0010
0100
0001
0000
0100
0000
0101
0000
0010
0000
1010
0000
0100
0000
,
1001
0000
0001
1000
0001
0010
0100
1000
0001
0000
1000
0000
0001
0200
0000
1300
,
0100
0001
1000
0001
0100
0000
0010
0000
1010
0000
1000
0001
0020
0000
0031
0000
,
1001
0000
1000
0100
1000
0010
0100
0001
1000
0000
0001
0000
1000
0200
0000
0301
,
0100
1000
0010
0100
0001
0000
1000
0000
1001
0000
0001
1000
0020
0000
0130
0000
,
1001
0000
0001
1000
0100
0010
0001
0100
0001
0000
1000
0000
0001
0200
0000
1300
,
0100
0001
0010
0100
0010
0000
0100
0000
1100
0000
1000
0001
0020
0000
0031
0000
,
1000
0001
1000
0100
0010
0001
0100
0001
0010
0100
1000
0001
0100
0010
1000
0100
,
1000
0001
0100
0010
1000
0100
1000
0001
1000
0100
0010
0100
1000
0001
1000
0010
,
0200
0000
0000
0300
,
1001
0000
0001
1000
0010
1000
0000
0100
0010
0001
1000
0000
0001
1000
0100
0020
,
0030
0001
0100
0010
1000
0010
0100
0000
1200
0000
0000
0302
0000
0000
2003
0000
,
3001
0000
0010
0001
1000
0001
0000
0100
0010
1000
0001
0000
0010
0001
1000
0020
,
0030
1000
0100
1000
0001
1000
0100
0000
0201
0000
0000
2300
0000
0000
3020
0000
,
0130
0000
0001
1000
0010
0100
0000
1000
0100
0001
1000
0000
0001
1000
0100
0020
,
0030
0001
1000
0010
0100
0001
1000
0000
1020
0000
0000
0032
0000
0000
2003
0000
,
3100
0000
0010
1000
0010
0100
0000
0001
1000
0100
0010
0000
0100
1000
0001
0020
,
0030
0001
1000
0001
0100
0010
1000
0000
1200
0000
0000
0302
0000
0000
2003
0000
,
3010
0000
0001
1000
0010
1000
0001
1000
0010
0001
0000
0001
0010
1000
0001
0000
,
1000
0100
0010
0001
0100
0001
0010
0000
0210
0000
0000
2300
0000
0000
3002
0000
,
0103
0000
0010
1000
0001
1000
0010
1000
0100
0001
0000
0001
0100
0010
0100
0000
,
1000
0001
1000
0100
0010
0001
0100
0000
0120
0000
0000
2030
0000
0000
3002
0000
,
0103
0000
0010
1000
0001
0100
0010
1000
0010
0001
0000
0001
0010
1000
0001
0000
,
0010
0100
1000
0001
1000
0010
0100
0000
0102
0000
0000
2003
0000
0000
3200
0000
,
0310
0000
0001
0100
0010
1000
0001
1000
0100
0001
0000
0001
0100
1000
0010
0000
,
1000
0000
0001
0000
0100
0010
0100
0000
0020
0000
0000
0000
0000
0000
0030
0000
,
0100
0000
0010
0000
1001
0000
1000
0100
0010
0001
1000
0000
0001
0100
0010
1000
,
0001
0000
1000
0001
0010
0100
1000
0000
1100
0000
0100
0002
0000
0103
2000
0000
,
3001
0000
1000
0000
1100
0000
0100
0010
0001
1000
0010
0000
1000
0010
0100
0001
,
0010
0000
0001
1000
0100
0010
0001
0000
0101
0000
0100
2000
0000
3100
0002
0000
,
1003
0000
0001
0000
0101
0000
0100
0010
1000
0001
0010
0000
0100
1000
0001
0100
,
0010
0000
1000
0001
0010
0001
0100
0000
0101
0000
0001
0200
0000
1300
0200
0000
,
0310
0000
1000
0000
1001
0000
0001
0100
0010
1000
0100
0000
0010
0001
1000
0010
,
0100
0000
0010
1000
0100
1000
0001
0000
1001
0000
1000
0200
0000
0301
0200
0000
,
1300
0100
1000
0010
1000
0001
1000
0010
0100
0001
0010
0001
0100
0010
1000
0010
,
0100
0010
1000
0100
0010
0100
1000
0010
1000
0100
0010
0001
0100
0001
0010
0100
,
1000
0100
0010
0100
1000
0010
1000
0100
0010
0001
0100
0001
0010
0100
1000
0010
,
2000
0000
0000
0000
0000
0000
0000
0000
0001
0000
0000
0001
0000
0000
3001
0000
,
1000
0001
0100
0001
0020
0000
0000
0000
0031
1000
0010
1000
0200
0000
0000
0000
,
0310
0001
0100
0001
1000
0100
0001
0100
1000
0001
0100
1000
0001
0010
1000
0001
,
2002
0000
0000
0000
,
3003
0000
0000
0000
;

//---------------dance-single - Kekkle-DSP----------------
#NOTES:
     dance-single:
     Kekkle:
     Medium:
     14:
     0.700057,0.812016,0.477656,0.238828,0.566111,554,500,54,27,0,0,0.700057,0.812016,0.477656,0.238828,0.566111,554,500,54,27,0,0:
0000
0000
0000
0000
,
0000
0000
0000
0000
,
0000
0000
0000
0000
,
0000
0000
0000
0000
,
1001
0001
0100
0010
,
1000
0001
0011
1100
,
1001
1000
0100
0010
,
0001
1000
1010
0101
,
1001
0001
0010
1000
,
0010
0001
0101
1010
,
1001
1000
0100
0001
,
0100
0000
1000
0000
0001
0000
1000
0000
0010
0100
0000
0100
0010
0000
1000
0000
,
0001
1000
0100
0001
0100
1000
0010
0100
,
0001
0100
0010
1000
1010
0000
0101
0000
,
1001
1000
0100
0001
0100
0010
0001
0100
,
0010
1000
0010
0100
0101
0000
1010
0000
,
1001
0001
0010
1000
0010
0001
0100
0010
,
0001
0010
1000
0001
0011
0000
1100
0000
,
1001
1000
0010
0100
1000
0100
0010
1000
,
0001
0000
0001
0000
1000
0010
1000
0000
1001
0000
0000
0000
0110
0000
0000
0000
,
1001
0000
0001
0000
1000
0100
0000
0100
1000
0000
0001
0000
0100
0010
0000
0010
,
0000
1000
0001
1000
1100
0000
0011
0000
,
1001
0000
1000
0000
0001
0100
0000
0100
0001
0000
0010
0000
0100
1000
0000
1000
,
0000
0001
0100
0010
1010
0000
0101
0000
,
1001
0000
0001
0000
0100
0010
0000
0010
0100
0000
0001
0000
1000
0100
0000
0100
,
0000
1000
0001
0100
0101
0000
1010
0000
,
1001
0000
1000
0000
0100
0010
0000
0010
0100
0000
1000
0000
0001
0100
0000
0100
,
0000
0010
1000
0001
0011
0000
1100
0000
,
1001
0000
0001
0000
1000
0100
0000
0100
1000
0000
0001
0000
0100
0010
0000
0010
,
0000
1000
0001
1000
0001
0000
0010
0000
0011
0000
0000
0000
1100
0000
0000
0000
,
1001
0000
1000
0000
0001
0100
0000
0100
0001
0000
0010
0000
0100
1000
0000
1000
,
0000
0001
0100
0001
0100
0000
0010
0000
1010
0000
0000
0000
0101
0000
0000
0000
,
1001
0000
0001
0000
0010
0100
0000
0100
0010
0000
0001
0000
1000
0010
0000
0010
,
0000
1000
0001
1000
0001
0000
0100
0000
0101
0000
0000
0000
1010
0000
0000
0000
,
1000
0001
0100
0000
0001
0000
1000
0000
0001
1000
0100
0000
0010
0000
0001
0000
,
1000
0010
0100
0000
0001
0100
0010
0000
1000
0001
0100
0010
1000
0001
0100
0010
,
2000
0000
0000
3000
,
1001
0000
1000
0000
0100
0010
0000
0010
0100
0000
1000
0001
1000
0000
0001
0000
,
0100
0000
0010
0000
1000
0001
1000
0000
0002
0000
0000
0023
0000
0000
0230
0000
,
1300
0000
0001
0000
1000
0010
0000
0010
1000
0000
0001
0010
0001
0000
1000
0000
,
0010
0000
0100
0000
0001
1000
0001
0000
0200
0000
0000
0320
0000
0000
2030
0000
,
3001
0000
1000
0000
0001
0010
0000
0010
0001
0000
1000
0010
1000
0000
0010
0000
,
0100
0000
0001
0000
1000
0100
1000
0000
0002
0000
0000
0023
0000
0000
0230
0000
,
1300
0000
0010
0000
0100
0001
0000
0001
0100
0000
0010
1000
0010
0000
1000
0000
,
0001
0000
0010
0000
0100
1000
0100
0000
0020
0000
0000
0032
0000
0000
2003
0000
,
3010
0000
0100
0001
0100
0001
0000
0001
1000
0000
0001
1000
0100
0000
0010
0000
,
0001
0000
1000
0000
0010
0100
0001
0000
2000
0000
0000
3002
0000
0000
0023
0000
,
0130
0000
1000
0001
1000
0001
0000
0001
0100
0000
0010
1000
0001
0000
0100
0000
,
0010
0000
1000
0000
0001
1000
0100
0000
0020
0000
0000
0032
0000
0000
2003
0000
,
3001
0000
0100
0010
1000
0010
0000
0010
0100
0000
0001
1000
0100
0000
0010
0000
,
0100
0000
1000
0000
0001
0010
0100
0000
2000
0000
0000
3002
0000
0000
0203
0000
,
0310
0000
1000
0001
1000
0001
0000
0001
0010
0000
0100
1000
0001
0000
1000
0000
,
0020
0000
0000
0030
,
1000
0000
0001
0000
0001
0000
1000
0100
1000
0000
0001
0000
0100
0010
0000
0010
,
0000
1000
0001
1000
0100
0000
0010
0000
0011
0000
0000
0000
1100
0000
0000
0000
,
1001
0000
0001
0000
0001
0000
1000
0010
1000
0000
0001
0000
1000
0100
0000
0100
,
0000
0010
0001
0010
0100
0000
1000
0000
1010
0000
0000
0000
0101
0000
0000
0000
,
1001
0000
1000
0000
1000
0000
0001
0010
0001
0000
1000
0000
0010
0100
0000
0100
,
0000
0001
1000
0001
0100
0000
0001
0000
0101
0000
0000
0000
1010
0000
0000
0000
,
1001
0000
0001
0000
0001
0000
0100
0001
0100
0000
0010
0000
1000
0001
0000
0001
,
0000
1000
0001
1000
0100
0000
1000
0000
1100
0000
0000
0000
0011
0000
0000
0000
,
0001
0100
0010
0000
1000
0010
0100
0000
0001
1000
0100
0000
0010
0001
0010
0001
,
1000
0010
0100
0000
0001
0100
0010
0000
1000
0001
0010
0000
0100
1000
0100
1000
,
0001
0100
0010
0000
1000
0001
0010
0000
0100
1000
0001
0000
0100
0010
1000
0000
,
0020
0000
0000
0030
,
1000
0001
0100
0000
0020
0000
0000
0000
1030
0001
0010
0000
0200
0000
0000
0000
,
1300
0001
0100
0000
0001
1000
0100
0000
0010
0001
0010
0100
1000
0001
1000
0000
,
0020
0000
0000
0000
,
0030
0000
0000
0000
;

//---------------dance-double - Kekkle-DDP----------------
#NOTES:
     dance-double:
     Kekkle:
     Medium:
     14:
     0.687421,0.812016,0.477656,0.238828,0.517461,544,490,54,27,0,0,0.687421,0.812016,0.477656,0.238828,0.517461,544,490,54,27,0,0:
// measure 0
00000000
00000000
00000000
00000000
,  // measure 1
00000000
00000000
00000000
00000000
,  // measure 2
00000000
00000000
00000000
00000000
,  // measure 3
00000000
00000000
00000000
00000000
,  // measure 4
00011000
00001000
01000000
00100000
,  // measure 5
10000000
00010000
00110000
11000000
,  // measure 6
10010000
00010000
01000000
00001000
,  // measure 7
00010000
00000100
00001100
00000011
,  // measure 8
00001001
00000001
00001000
00000100
,  // measure 9
00010000
00000010
00001010
00010010
,  // measure 10
00011000
00001000
00100000
00010000
,  // measure 11
10000000
00000000
00010000
00000000
00100000
00000000
01000000
00000000
10000000
00000000
00010000
00000000
01000000
00001000
01000000
00000000
,  // measure 12
00001000
00010000
00000010
00001000
00000100
00000010
00000001
00001000
,  // measure 13
00000010
00010000
00001000
01000000
01010000
00000000
00101000
00000000
,  // measure 14
01010000
00010000
01000000
00100000
00010000
00000010
00001000
00000100
,  // measure 15
00000010
00000001
00001000
00000010
00010010
00000000
00001100
00000000
,  // measure 16
00010010
00010000
00000100
00001000
00010000
00100000
01000000
00100000
,  // measure 17
00001000
00010000
00100000
01000000
01001000
00000000
00110000
00000000
,  // measure 18
01001000
01000000
00100000
10000000
00010000
00100000
00001000
00010000
,  // measure 19
00000100
00000000
00000010
00000000
00000001
00001000
00000001
00000000
00001001
00000000
00000000
00000000
00000110
00000000
00000000
00000000
,  // measure 20
00001001
00000000
00001000
00000000
00000010
00010000
00000000
00010000
00000010
00000000
00001000
00000000
00000100
00010000
00000000
00010000
,  // measure 21
00000000
00001000
00100000
01000000
11000000
00000000
00110000
00000000
,  // measure 22
01001000
00000000
00001000
00000000
00010000
00000010
00000000
00000010
00010000
00000000
00000100
00000000
00001000
00000010
00000000
00000010
,  // measure 23
00000000
00000100
00000001
00001000
00001001
00000000
00001100
00000000
,  // measure 24
00010010
00000000
00010000
00000000
00000100
00001000
00000000
00001000
00000100
00000000
00010000
00000000
00001000
00100000
00000000
00100000
,  // measure 25
00000000
01000000
10000000
00010000
01010000
00000000
00101000
00000000
,  // measure 26
01010000
00000000
01000000
00000000
00001000
00100000
00000000
00100000
00001000
00000000
00010000
00000000
00000100
00001000
00000000
00001000
,  // measure 27
00000000
00000010
00001000
00000100
00010100
00000000
00001010
00000000
,  // measure 28
00010100
00000000
00010000
00000000
00001000
01000000
00000000
01000000
00001000
00000000
00100000
00000000
00010000
01000000
00000000
01000000
,  // measure 29
00000000
00100000
10000000
00100000
10000000
00000000
00010000
00000000
00110000
00000000
00000000
00000000
00011000
00000000
00000000
00000000
,  // measure 30
00001100
00000000
00001000
00000000
00000001
00000100
00000000
00000100
00000001
00000000
00001000
00000000
00000100
00010000
00000000
00010000
,  // measure 31
00000000
00000010
00001000
00000010
00001000
00000000
00000100
00000000
00001100
00000000
00000000
00000000
00011000
00000000
00000000
00000000
,  // measure 32
00110000
00000000
00100000
00000000
00001000
01000000
00000000
01000000
00001000
00000000
01000000
00000000
00010000
00100000
00000000
00100000
,  // measure 33
00000000
00010000
10000000
00010000
10000000
00000000
00010000
00000000
01010000
00000000
00000000
00000000
00011000
00000000
00000000
00000000
,  // measure 34
00010000
00000010
00001000
00000000
00000100
00000000
00000010
00000000
00000001
00001000
00000100
00000000
00001000
00000000
00000001
00000000
,  // measure 35
00000100
00000010
00001000
00000000
00000010
00010000
00001000
00000000
00010000
00001000
01000000
00000000
00010000
01000000
00100000
00000000
,  // measure 36
20000000
00000000
00000000
30000000
,  // measure 37
10010000
00000000
10000000
00000000
00010000
01000000
00000000
01000000
00010000
00000000
00100000
00001000
00100000
00000000
00001000
00000000
,  // measure 38
00010000
00000000
00000100
00000000
00000010
00000000
00000001
00000000
00002000
00000000
00000000
00003020
00000000
00000000
00020030
00000000
,  // measure 39
00031000
00000000
00100000
00000000
01000000
10000000
00000000
10000000
01000000
00000000
00100000
00001000
00100000
00000000
00010000
00000000
,  // measure 40
01000000
00000000
00100000
00000000
00010000
00000000
00001000
00000000
00000200
00000000
00000000
00000302
00000000
00000000
00002003
00000000
,  // measure 41
00003100
00000000
00000010
00000000
00000001
00001000
00000000
00001000
00000001
00000000
00001000
00000100
00001000
00000000
00000100
00000000
,  // measure 42
00010000
00000000
00001000
00000000
00100000
00000000
01000000
00000000
00020000
00000000
00000000
02030000
00000000
00000000
23000000
00000000
,  // measure 43
30010000
00000000
01000000
00000000
00001000
00100000
00000000
00100000
00001000
00000000
00010000
00000010
00010000
00000000
00000100
00000000
,  // measure 44
00001000
00000000
00000100
00000000
00000001
00000000
00000100
00000000
00002000
00000000
00000000
00003020
00000000
00000000
00020030
00000000
,  // measure 45
00031000
00000000
01000000
00010000
01000000
00010000
00000000
00010000
10000000
00000000
01000000
00100000
01000000
00000000
00100000
00000000
,  // measure 46
00001000
00000000
00010000
00000000
00000010
00001000
00000010
00000000
00000200
00000000
00000000
00000302
00000000
00000000
00002003
00000000
,  // measure 47
00003100
00000000
00010000
00000010
00010000
00000010
00000000
00000010
00000100
00000000
00000001
00001000
00000001
00000000
00000010
00000000
,  // measure 48
00001000
00000000
00010000
00000000
00000100
00010000
00000100
00000000
00020000
00000000
00000000
00032000
00000000
00000000
02003000
00000000
,  // measure 49
03100000
00000000
10000000
00010000
10000000
00010000
00000000
00010000
00100000
00000000
00001000
00010000
00001000
00000000
01000000
00000000
,  // measure 50
00001000
00000000
00010000
00000000
00000100
00001000
00000100
00000000
00000020
00000000
00000000
00000032
00000000
00000000
00002003
00000000
,  // measure 51
00003010
00000000
00010000
00000100
00010000
00000100
00000000
00000100
00001000
00000000
00000100
00000000
00010000
00001000
01000000
00000000
,  // measure 52
00200000
00000000
00000000
00300000
,  // measure 53
10000000
00000000
00010000
00000000
00010000
00000000
01000000
00001000
00010000
00000000
00000010
00000000
00001000
00000001
00000000
00000001
,  // measure 54
00000000
00000000
00000010
00000100
00001000
00000000
00000100
00000000
00010100
00000000
00000000
00000000
01001000
00000000
00000000
00000000
,  // measure 55
01100000
00000000
00100000
00000000
00100000
00000000
10000000
00010000
01000000
00000000
00001000
00000000
00100000
00001000
00000000
00001000
,  // measure 56
00000000
00000000
00010000
00000010
00000100
00000000
00000001
00000000
00000101
00000000
00000000
00000000
00001010
00000000
00000000
00000000
,  // measure 57
00010010
00000000
00010000
00000000
00010000
00000000
00001000
01000000
00100000
00000000
10000000
00000000
00010000
00100000
00000000
00100000
,  // measure 58
00000000
00000000
01000000
00100000
00001000
00000000
00010000
00000000
00011000
00000000
00000000
00000000
00000110
00000000
00000000
00000000
,  // measure 59
00001001
00000000
00000001
00000000
00000001
00000000
00000100
00000010
00001000
00000000
00000010
00000000
00000100
00001000
00000000
00001000
,  // measure 60
00000000
00000000
00010000
00100000
01000000
00000000
00100000
00000000
01100000
00000000
00000000
00000000
10010000
00000000
00000000
00000000
,  // measure 61
10000000
01000000
00100000
00000000
01000000
00100000
00010000
00000000
00100000
00001000
00010000
00000000
00000010
00001000
00000001
00000000
,  // measure 62
00001000
00000010
00000100
00000000
00000010
00010000
00001000
00000000
00010000
00001000
01000000
00000000
00100000
10000000
00010000
00000000
,  // measure 63
10000000
01000000
00100000
00000000
00010000
01000000
00001000
00000000
00010000
00000010
00001000
00000010
00000100
00000001
00001000
00000010
,  // measure 64
00002000
00000000
00000000
00003000
,  // measure 65
00000001
00001000
00000100
00000000
00020000
00000000
00000000
00000000
00031000
01000000
00100000
00000000
20000000
00000000
00000000
00000000
,  // measure 66
30010000
01000000
00001000
00000000
00100000
00001000
00010000
00000000
00001000
00010000
00000010
00000100
00000001
00001000
00000010
00000000
,  // measure 67
00000200
00000000
00000000
00000000
,  // measure 68
00000300
00000000
00000000
00000000
;

//---------------dance-single - Kekkle-BSP----------------
#NOTES:
     dance-single:
     Kekkle:
     Easy:
     11:
     0.509247,0.511269,0.610339,0.053073,0,403,334,69,6,0,0,0.509247,0.511269,0.610339,0.053073,0,403,334,69,6,0,0:
0000
0000
0000
0000
,
0000
0000
0000
0000
,
0000
0000
0000
0000
,
0000
0000
0000
0000
,
0001
0001
1000
1000
,
0001
0001
1001
0110
,
1001
1000
0001
0001
,
1000
1000
1001
0110
,
1001
0001
1000
1000
,
0001
0001
1001
0110
,
1001
1000
0001
0001
,
0100
0010
1000
0001
0100
0000
0110
0000
,
0010
1000
0001
0100
,
0001
1000
1001
0110
,
1001
0001
1000
0100
,
0010
0001
1001
0110
,
1001
1000
0010
0100
,
0001
1000
1001
0110
,
1001
0001
1000
0100
,
0010
0001
1000
0100
0010
0000
0110
0000
,
1001
0000
0001
0100
0010
1000
0001
1000
,
0100
1000
1001
0110
,
1001
0000
0001
0100
0010
1000
0010
0100
,
0001
1000
1001
0110
,
1001
0000
1000
0001
0010
0100
1000
0001
,
1000
0001
1001
0110
,
1001
0000
0001
0100
0001
0010
0100
1000
,
0001
1000
1001
0110
,
1001
0000
0001
0100
0001
0010
0100
1000
,
0001
0100
0010
0000
0110
0000
1001
0000
,
1001
0000
0001
1000
0001
0010
0100
1000
,
0001
1000
0100
0000
0110
0000
1001
0000
,
1001
0000
0001
0100
0001
1000
0100
0010
,
0001
1000
0010
0000
0110
0000
1001
0000
,
0001
1000
0100
1000
0001
0100
0001
0010
,
0100
1000
0001
1000
0010
0100
0001
1000
,
0020
0000
0000
0030
,
1000
0000
1000
0001
0010
0000
0001
0100
,
0010
0010
1010
1010
,
1001
0000
0001
1000
0100
0000
0010
0001
,
1000
1000
1100
1100
,
1001
0000
1000
0010
0100
0000
0001
1000
,
0100
0100
0110
0110
,
1001
0000
1000
0100
0010
0000
0100
1000
,
0001
0001
0101
0101
,
1001
0000
1000
0010
0100
0000
0001
1000
,
0001
0010
0100
0000
1100
0000
1100
0000
,
1001
0000
1000
0001
0100
0000
0010
1000
,
0001
1000
0100
0000
0110
0000
0110
0000
,
1001
0000
0001
1000
0100
0000
0010
0001
,
1000
0010
1000
0000
1010
0000
1010
0000
,
1001
0000
0001
0010
0100
0000
1000
0001
,
0200
0000
0000
0300
,
0010
1000
0001
1000
0100
0010
0001
0000
,
0100
0010
1000
0001
0100
0000
0110
0000
,
1001
0000
0001
1000
0001
0010
0100
0000
,
1000
0001
0100
0010
0100
0000
0110
0000
,
1001
0000
1000
0001
0010
0100
1000
0000
,
0001
0100
0010
1000
0010
0000
0110
0000
,
1001
0000
1000
0010
1000
0100
0010
0000
,
0001
1000
0001
0100
0010
0000
0110
0000
,
0100
0001
1000
0100
0010
0001
0100
0001
,
0010
0100
1000
0010
0100
0001
0100
0010
,
1000
0001
0010
1000
0010
0001
1000
0001
,
0200
0000
0000
0300
,
0010
1000
0002
0000
0013
0001
2000
0000
,
3010
0100
0001
1000
0010
0100
0001
1000
,
0020
0000
0000
0000
,
0030
0000
0000
0000
;

//---------------dance-double - Kekkle-BDP----------------
#NOTES:
     dance-double:
     Kekkle:
     Easy:
     11:
     0.494084,0.511269,0.504193,0.053073,0,391,334,57,6,0,0,0.494084,0.511269,0.504193,0.053073,0,391,334,57,6,0,0:
00000000
00000000
00000000
00000000
,
00000000
00000000
00000000
00000000
,
00000000
00000000
00000000
00000000
,
00000000
00000000
00000000
00000000
,
10000000
10000000
00010000
00010000
,
10000000
10000000
00010000
01000000
,
00001000
00001000
00010000
00010000
,
00001000
00001000
00010000
00000010
,
00001000
00001000
00000001
00000001
,
00001000
00001000
00000010
00010000
,
00001000
00001000
00010000
00010000
,
00001000
01000000
00010000
01000000
00100000
00000000
01100000
00000000
,
01000000
00010000
10000000
01000000
,
00100000
00001000
00011000
00011000
,
00011000
00010000
00000010
00000100
,
00000001
00001000
00001001
00001001
,
00001001
00000001
00000010
00000100
,
00010000
00001000
00011000
00011000
,
00011000
00001000
01000000
00100000
,
10000000
00010000
01000000
00001000
00010000
00000000
00011000
00000000
,
00011000
00000000
00010000
00000010
00001000
00000001
00001000
00000100
,
00000010
00000001
00001001
00001001
,
00001001
00000000
00001000
00000010
00010000
00000100
00010000
00001000
,
01000000
00010000
10010000
10010000
,
10010000
00000000
10000000
00010000
00100000
00001000
01000000
00010000
,
00100000
00001000
00011000
00011000
,
00011000
00000000
00010000
00000010
00001000
00000100
00010000
00000010
,
00000100
00000001
00001001
00001001
,
00001001
00000000
00001000
00000010
00010000
00000100
00001000
00000100
,
00010000
00000000
00001000
00100000
01000000
00000000
01100000
00000000
,
10010000
00000000
00010000
10000000
00100000
01000000
00001000
00100000
,
00010000
00000000
00001000
00000100
00000010
00000000
00000110
00000000
,
00001001
00000000
00001000
00000010
00000100
00001000
00010000
00000010
,
00001000
00000000
00000100
00010000
00001000
00000000
00011000
00000000
,
00010000
00001000
01000000
00010000
00100000
00001000
00010000
00000100
,
00010000
00001000
00100000
00010000
00001000
00000010
00000100
00000001
,
00002000
00000000
00000000
00003000
,
00000001
00000000
00000001
00001000
00000100
00000000
00000100
00010000
,
00001000
00010000
00011000
00011000
,
00011000
00000000
00001000
01000000
00100000
00000000
00100000
10000000
,
00010000
10000000
10010000
10010000
,
10010000
00000000
00010000
01000000
00001000
00000000
00001000
00010000
,
00000100
00001000
00001001
00001001
,
00001001
00000000
00001000
00000100
00010000
00000000
00010000
00001000
,
01000000
00010000
10010000
10010000
,
10010000
00000000
10000000
00010000
01000000
00001000
00010000
00000000
,
00000010
00001000
00000010
00000000
00000110
00000000
00000110
00000000
,
00001001
00000000
00000001
00001000
00000100
00010000
00000010
00000000
,
00001000
00000100
00010000
00000000
00011000
00000000
00011000
00000000
,
01001000
00000000
01000000
00100000
10000000
00000000
00010000
01000000
,
00001000
00010000
00001000
00000000
00011000
00000000
00011000
00000000
,
00010100
00000000
00000100
00000010
00000001
00001000
00000001
00000000
,
00002000
00000000
00000000
00003000
,
00000010
00010000
00000100
00010000
00001000
00100000
00010000
00000000
,
10000000
00010000
01000000
00100000
10000000
00000000
10010000
00000000
,
10010000
00000000
00010000
01000000
00001000
00010000
00000100
00000000
,
00001000
00000100
00000010
00000001
00001000
00000000
00001001
00000000
,
00001001
00000000
00000001
00000100
00000010
00010000
00000010
00000000
,
00001000
00000100
00010000
00001000
00010000
00000000
00011000
00000000
,
00011000
00000000
00001000
01000000
00010000
01000000
00100000
00000000
,
10000000
00010000
00100000
01000000
00100000
00000000
01100000
00000000
,
01000000
10000000
00010000
01000000
00010000
00100000
00010000
00001000
,
00000100
00000010
00000100
00001000
00000001
00001000
00000010
00000100
,
00000001
00000100
00000010
00000100
00001000
00010000
00100000
01000000
,
00200000
00000000
00000000
00300000
,
10000000
00010000
00200000
00000000
00301000
00010000
00000020
00000000
,
00001030
00000001
00001000
00000010
00010000
00000100
00010000
00001000
,
00020000
00000000
00000000
00000000
,
00030000
00000000
00000000
00000000
;

//---------------dance-single - Kekkle-bSP----------------
#NOTES:
     dance-single:
     Kekkle:
     Beginner:
     7:
     0.392992,0.421045,0.548420,0.132682,0,311,249,62,15,0,0,0.392992,0.421045,0.548420,0.132682,0,311,249,62,15,0,0:
0000
0000
0000
0000
,
0000
0000
0000
0000
,
0000
0000
0000
0000
,
0000
0000
0000
0000
,
0002
0003
2000
3000
,
0002
0003
1000
1000
,
0020
0030
0200
0300
,
0020
0030
0100
0100
,
0002
0003
2000
3000
,
0002
0003
0100
0100
,
0020
0030
0200
0300
,
0010
0010
1001
1001
,
0001
1000
0001
0001
,
0010
0001
1001
1001
,
1001
1000
0010
0010
,
1000
0001
1001
1001
,
1001
0001
0100
0100
,
0010
1000
1001
1001
,
1001
0001
1000
0100
,
1000
0001
1000
0000
1001
0000
1001
0000
,
1001
0001
0100
0010
,
0000
1000
1001
1001
,
1001
1000
0100
0010
,
0000
0001
1001
1001
,
1001
0001
0010
0100
,
0000
1000
1001
1001
,
1001
1000
0010
0100
,
0000
0001
1001
1001
,
1001
1000
0001
0010
,
0000
0100
1000
0000
1001
0000
1001
0000
,
1001
1000
0010
0100
,
0000
0001
1000
0000
1001
0000
1001
0000
,
1001
0001
0100
0010
,
0000
1000
0001
0000
1001
0000
1001
0000
,
1000
0001
1000
0001
,
1000
0001
1000
0000
0001
1000
0001
0000
,
2000
0000
0000
3000
,
0001
0100
0010
0010
,
1000
0001
1001
1001
,
1001
1000
0001
0010
,
0010
0001
1001
1001
,
1001
0001
1000
0100
,
0100
1000
1001
1001
,
1001
0001
0100
0010
,
0010
1000
1001
1001
,
1001
0000
0001
0000
0100
0000
0001
1000
,
0000
1000
0001
0000
1001
0000
1001
0000
,
1001
0000
1000
0000
0100
0000
1000
0001
,
0000
0001
1000
0000
1001
0000
1001
0000
,
1001
0000
0001
0000
0100
0000
0001
1000
,
0000
1000
0001
0000
1001
0000
1001
0000
,
1001
0000
1000
0000
0001
0000
1000
0001
,
2000
0000
0000
3000
,
0001
0000
1000
0000
0010
0000
0100
0010
,
0100
0001
1000
1001
,
1001
0000
0001
0000
1000
0000
0100
0010
,
0100
1000
0001
1001
,
1001
0000
0001
0000
1000
0000
0010
0100
,
0010
1000
0001
1001
,
1001
0000
1000
0000
0100
0000
0010
0100
,
0010
0100
1000
1001
,
0001
0000
1000
0000
0001
0100
0001
0000
,
1000
0000
0001
0000
1000
0100
1000
0000
,
0001
0000
0100
0000
0010
0100
0010
0100
,
0020
0000
0000
0030
,
1000
0001
1000
0000
0001
1000
0001
0000
,
1000
0001
1000
0001
1000
0001
1000
0000
,
0002
0000
0000
0000
,
0003
0000
0000
0000
;

//---------------dance-double - Kekkle-EDP----------------
#NOTES:
     dance-double:
     Kekkle:
     Hard:
     16:
     0.825158,0.932314,0.521884,0.398047,0.813785,653,594,59,45,0,0,0.825158,0.932314,0.521884,0.398047,0.813785,653,594,59,45,0,0:
00000000
00000000
00000000
00000000
,
00000000
00000000
00000000
00000000
,
00000000
00000000
00000000
00000000
,
00000000
00000000
00000000
00000000
,
00011000
00001000
01000000
00100000
00000000
10000000
00010000
00100000
,
00000000
00010000
01000000
00001000
01001000
00000000
00011000
00000000
,
01001000
00001000
00010000
00000100
00000000
00001000
00000100
00000010
,
00000000
00000001
00000100
00000010
00010010
00000000
00011000
00000000
,
00010010
00010000
00000100
00000010
00000000
00000100
00010000
00001000
,
00000000
00100000
00001000
01000000
01001000
00000000
00011000
00000000
,
01001000
01000000
00100000
10000000
00000000
00010000
00100000
00001000
,
00020000
00000000
00000010
00000000
00030020
00000000
00000100
00000000
00000130
00000001
00001000
00000001
00001000
00000100
00020000
00000000
,
00031000
01000000
00100000
10000000
00010000
10000000
01000000
00010000
,
00001000
00010000
01000000
00100000
00101000
00000000
00011000
00000000
,
00101000
00100000
00001000
00010000
00000010
00000100
00001000
00010000
,
00001000
00000100
00000010
00010000
00010010
00000000
00011000
00000000
,
00010010
00010000
00001000
00010000
01000000
10000000
00010000
01000000
,
00100000
00010000
00100000
01000000
01001000
00000000
00011000
00000000
,
01001000
01000000
00001000
00010000
00000100
00000010
00000001
00001000
,
00000010
00010000
00001000
00010000
00000010
00010000
00001000
00000000
00011000
00000000
00000000
00000000
01001000
00000000
00000000
00000000
,
01100000
00000000
00100000
00000000
10000000
00010000
00000000
00010000
00100000
00000000
00001000
00000000
00010000
00000020
00000000
00001000
,
00000000
00000130
00000001
00001000
00000001
00000000
00001000
00000000
00001100
00000000
00000000
00000000
00010010
00000000
00000000
00000000
,
00011000
00000000
00010000
00000000
00001000
01000000
00000000
01000000
00100000
00000000
10000000
00000000
00010000
00200000
00000000
00001000
,
00000000
00310000
01000000
00010000
10000000
00000000
00010000
00000000
01010000
00000000
00000000
00000000
01001000
00000000
00000000
00000000
,
00110000
00000000
00100000
00000000
00001000
00010000
00000000
00010000
00000010
00000000
00000100
00000000
00000001
00002000
00000000
00000010
,
00000000
00003100
00010000
00001000
00010000
00000000
00001000
00000000
01001000
00000000
00000000
00000000
00110000
00000000
00000000
00000000
,
00101000
00000000
00001000
00000000
00100000
01000000
00000000
01000000
10000000
00000000
00010000
00000000
01000000
00002000
00000000
00100000
,
00000000
00013000
00000010
00010000
00001000
00000000
00010000
00000000
00010010
00000000
00000000
00000000
00001100
00000000
00000000
00000000
,
00001001
00000000
00000001
00001000
00000010
00001000
00000000
00001000
00000100
00000000
00010000
00000000
00001000
00200000
00000000
00010000
,
00000000
01300000
10000000
00010000
10000000
00000000
00010000
00000000
01010000
00000000
01000000
00001000
00020000
00000000
00030100
00000000
,
00010100
00000000
00010000
00000010
00001000
00000010
00000000
00000010
00000100
00000000
00000001
00000000
00001000
00000200
00000000
00000010
,
00000000
00010300
00000100
00010000
00001000
00000000
01000000
00000000
01010000
00000000
00010000
10000000
00200000
00000000
10300000
00000000
,
11000000
00000000
01000000
00100000
00010000
10000000
00000000
10000000
00010000
00000000
01000000
00000000
00001000
00200000
00000000
00010000
,
00000000
00301000
00010000
00000010
00001000
00000000
00000001
00000000
00001001
00000000
00001000
00000010
00020000
00000000
00030100
00000000
,
00010000
00001000
01000000
00000000
00010000
00100000
01000000
00000000
10000000
00010000
01000000
00000000
00010000
00100000
00001000
00000000
,
00010000
00000010
00010000
00000100
00001000
00000100
00000010
00000001
00001000
00000010
00010000
00001000
00010000
00000100
00010000
00001000
,
02000000
00000000
00000000
03000000
,
10010000
00000000
10000000
00010000
00100000
00010000
00000000
00010000
01000000
00000000
00010000
00000000
00100000
00001000
00010000
00000000
,
00000010
00000000
00001000
00000000
00000010
00000100
00000001
00000000
00002001
00000000
00000000
00003200
00000000
00000000
00020300
00000000
,
00030010
00000000
00001000
00000010
00010000
00000010
00000000
00000010
00001000
00000000
00000100
00000000
00010000
00001000
01000000
00000000
,
00010000
00000000
00100000
00000000
01000000
10000000
00010000
00000000
02010000
00000000
00000000
03002000
00000000
00000000
00023000
00000000
,
00031000
00000000
01000000
00001000
01000000
00010000
00000000
00010000
01000000
00000000
00100000
00000000
10000000
00010000
00100000
00000000
,
00001000
00000000
01000000
00000000
00001000
00010000
00000100
00000000
00002100
00000000
00000000
00003002
00000000
00000000
00000203
00000000
,
00000310
00000000
00001000
00000010
00010000
00000010
00000000
00000010
00001000
00000000
00000100
00000000
00010000
00001000
01000000
00000000
,
00010000
00000000
10000000
00000000
00100000
01000000
00010000
00000000
20010000
00000000
00000000
32000000
00000000
00000000
03200000
00000000
,
00301000
00000000
00010000
00000010
00001000
00000010
00000000
00000010
00000100
00000000
00000001
00000000
00000100
00000010
00001000
00000000
,
00000100
00010000
00001000
01000000
00010000
01000000
00100000
00000000
10200000
00000000
00000000
02300000
00000000
00000000
03002000
00000000
,
00103000
00000000
00010000
00100000
01000000
00100000
00000000
00100000
00001000
00000000
00010000
00000000
00000010
00001000
00000001
00000000
,
00001000
00000001
00000010
00000001
00001000
00000100
00000010
00000000
00000021
00000000
00000000
00000230
00000000
00000000
00020300
00000000
,
00030010
00000000
00001000
00000100
00010000
00000100
00000000
00000100
00001000
00000000
00000010
00000000
00010000
00001000
00100000
00000000
,
00010000
00100000
01000000
00100000
00010000
10000000
00010000
00000000
02010000
00000000
00000000
03002000
00000000
00000000
00203000
00000000
,
00310000
00000000
10000000
00010000
01000000
00010000
00000000
00010000
00100000
00000000
00001000
00000000
00010000
00000100
00000010
00000000
,
00000100
00000000
00000100
00000000
00001000
00000001
00001000
00000000
00000002
00000000
00000000
00000000
00000000
00000000
00000003
00000000
,
00001000
00000000
00000001
00000000
00001001
00000000
00001000
00000010
00010000
00001000
00010000
00000000
00000100
00010000
00001000
00000000
,
01000000
00010000
01000000
00100000
10000000
00100000
01000000
00000000
01010000
00000000
00010000
00200000
00000000
00301000
01000000
00000000
,
01010000
00000000
00001000
00000000
00011000
00000000
00010000
00000010
00001000
00000010
00000100
00000000
00000001
00001000
00000100
00000000
,
00010000
00000100
00001000
00000100
00010000
00001000
00010000
00000000
00010010
00000000
00000010
00002000
00000000
00003100
00010000
00000000
,
00010010
00000000
00000010
00000000
00001010
00000000
00001000
00000001
00001000
00000010
00010000
00000000
00000100
00010000
00001000
00000000
,
01000000
00010000
10000000
01000000
00100000
00010000
01000000
00000000
01001000
00000000
00001000
00020000
00000000
00130000
01000000
00000000
,
01001000
00000000
00001000
00000000
00011000
00000000
00010000
00000010
00001000
00000100
00000010
00000000
00000001
00001000
00000100
00000000
,
00010000
00000010
00010000
00001000
00100000
00001000
00010000
00000000
00011000
00000000
00010000
00000020
00000000
00001030
00000100
00001000
,
00000010
00010000
00000010
00001000
00000100
00010000
00001000
00000000
00100000
00010000
00100000
01000000
10000000
00010000
10000000
00000000
,
00100000
01000000
00001000
00010000
00001000
00100000
00001000
00000000
00010000
00000010
00001000
00000100
00000010
00000100
00001000
00000000
,
00000001
00000100
00000010
00001000
00000010
00010000
00001000
00010000
00000100
00010000
00001000
01000000
00010000
00100000
01000000
10000000
,
00020000
00000000
00000000
00030000
,
00100000
00001000
00010000
00001000
00200000
00000000
00000000
00000000
00301000
00010000
00000010
00010000
00002000
00000000
00000000
00000000
,
00013000
00000010
00010000
00000100
00001000
00000100
00010000
00001000
01000000
00010000
00100000
00001000
00010000
00000010
00010000
00001000
,
00022000
00000000
00000000
00000000
,
00033000
00000000
00000000
00000000
;
