#VERSION:0.83;
#TITLE:dAuntl3ss;
#ARTIST:DJ Noriken;
#BANNER:dauntl3ss.png;
#BACKGROUND:dAuntl3ss-bg.png;
#JACKET:dAuntl3ss-jacket.png;
#MUSIC:dAuntl3ss.ogg;
#OFFSET:-0.073;
#SAMPLESTART:83.928;
#SAMPLELENGTH:15;
#BPMS:0=166,164=83,179=166;
#STOPS:163.5=0.361,171.25=0.361;
#TIMESIGNATURES:0=4=4,164=3=4,167=4=4;

//---------------dance-single - NewbStepper-ESP----------------
#NOTEDATA:;
#CHARTNAME:NewbStepper-ESP;
#STEPSTYPE:dance-single;
#DESCRIPTION:NewbStepper-ESP;
#DIFFICULTY:Hard;
#METER:16;
#RADARVALUES:0.814835,1.182925,0.452686,0.213997,0.864219,693,638,55,26,0,0,0,0,0,0.814835,1.182925,0.452686,0.213997,0.864219,693,638,55,26,0,0,0,0,0;
#CREDIT:NewbStepper;
#NOTES:
// measure 0
0000
0000
0000
0000
,  // measure 1
0000
0000
0000
0000
,  // measure 2
0000
0000
0000
0000
,  // measure 3
0000
0000
0000
0000
,  // measure 4
0000
0000
0000
0000
,  // measure 5
1200
0000
0001
0000
0010
0310
0000
0011
,  // measure 6
0000
0000
1100
0000
0000
0000
0001
0100
0010
0000
1000
0000
0010
0000
0001
0000
,  // measure 7
0010
0000
2010
0000
0000
0000
0000
0000
0001
0000
0000
0001
3000
0000
0000
0000
,  // measure 8
0021
0000
0000
0000
0030
0000
0100
0010
0100
0000
0000
0000
1001
0000
0000
0000
,  // measure 9
0010
0000
0000
0010
1000
0000
0000
1000
0200
0000
0000
0000
0301
0000
0100
0010
,  // measure 10
0001
0000
0100
0010
1000
0000
0001
0000
0100
0000
1000
0100
0001
0000
0000
0000
,  // measure 11
0010
0000
0000
0010
0001
0000
0000
0001
0200
0000
0000
0000
1300
0000
0100
0010
,  // measure 12
1000
0000
0100
0010
0001
0000
1000
0000
0010
0100
0010
0000
1000
0000
0000
0000
,  // measure 13
0010
0000
0100
0001
0100
0000
0010
1000
0010
0000
1000
0001
0100
0000
0001
0000
,  // measure 14
0010
0000
0100
1000
0100
0000
0010
0001
0010
0000
0001
1000
0100
0000
1000
0000
,  // measure 15
0001
0000
0000
0100
0010
0000
1000
0000
0100
0000
0010
0000
0001
0000
1000
0000
,  // measure 16
2002
0000
0000
3003
,  // measure 17
0021
0000
0000
0100
0000
0000
0031
0000
0011
0000
0000
0000
0100
0000
0000
0000
,  // measure 18
1020
0000
0000
0100
0000
0000
1030
0000
1010
0000
0100
0000
0001
0000
0010
0000
,  // measure 19
0110
0000
0000
0001
0000
0000
0010
0000
0100
0000
0000
0000
0010
0000
0000
0000
,  // measure 20
2002
0000
0000
3003
,  // measure 21
0110
0000
0100
0001
0000
0100
0010
0000
1000
0000
0000
0001
0010
0000
0100
0000
,  // measure 22
0110
0000
0100
1000
0000
0100
0010
0000
0001
0000
0000
1000
0010
0000
0100
0000
,  // measure 23
0001
0000
0000
0001
0100
0000
0000
0100
0010
0000
0010
0000
1000
0100
0010
0001
,  // measure 24
0200
0000
0000
0000
0010
0010
0310
0000
,  // measure 25
2001
0010
0001
3010
,  // measure 26
1002
0010
1000
0013
,  // measure 27
0011
0000
0001
0100
0001
0000
0001
0010
0001
0000
1000
0001
0100
0001
1000
0000
,  // measure 28
1010
0000
1000
0100
1000
0000
1000
0010
2000
0000
0000
0000
3001
0000
0000
0000
,  // measure 29
0011
0000
0100
0000
1000
0100
0000
0010
0001
0000
1000
0001
0000
0100
0010
0000
,  // measure 30
1010
0000
0100
0000
0001
0100
0000
0010
1000
0000
0001
1000
0000
0100
0010
0000
,  // measure 31
0011
0000
0100
0000
1001
0000
0000
0010
0000
1000
0100
0010
0001
0100
0010
1000
,  // measure 32
0002
0000
0000
0000
0000
0000
0003
0000
1000
0001
1000
0001
0010
0000
0000
0000
,  // measure 33
0101
0000
0001
0000
1000
0000
0010
0000
0001
0000
0000
0010
0100
0000
0010
0000
,  // measure 34
1010
0000
1000
0000
0001
0000
0010
0000
1000
0000
0000
0010
0100
0000
1000
0000
,  // measure 35
1100
0000
1000
0000
0001
0000
0010
0000
1000
0000
0000
0010
0100
0000
0010
0000
,  // measure 36
0011
0001
1000
0010
0001
0010
0110
0000
,  // measure 37
0100
0000
0100
0000
0001
0100
0001
1000
0010
0000
0000
1000
0001
0000
0010
0000
,  // measure 38
0100
0000
0100
0000
1000
0100
1000
0001
0010
0000
0000
0001
1000
0000
0010
0000
,  // measure 39
0100
0001
0010
0100
1000
0010
0100
0001
1000
0100
0010
0001
0100
0010
1000
0001
,  // measure 40
0020
0000
0000
0000
0100
0100
0130
0000
,  // measure 41
1000
0000
0100
0000
0010
0000
0001
0000
0000
0000
0201
0000
0000
0000
0300
0000
0000
0000
0010
0100
0010
0000
1000
0000
0100
0000
0001
0000
0100
0000
1000
0000
,  // measure 42
0001
0100
0010
1000
0010
0000
0110
0000
0000
0000
1000
0100
0010
0000
0000
0011
0000
0000
1001
0000
0000
0000
1000
0000
0010
0000
0110
0000
0001
0000
0100
0000
,  // measure 43
0010
0000
1000
0000
0000
0000
1200
0000
0000
0000
0000
0000
0300
0000
0010
0100
0010
0000
0001
0000
0100
0000
1000
0000
0100
0000
0001
0000
1000
0100
0010
0001
,  // measure 44
0100
0000
0110
0000
0000
0000
0001
0100
0020
0000
0000
0000
0000
0000
0000
0000
0030
0000
0000
0000
0000
0000
0000
0000
1010
0000
0000
0000
0000
0000
0110
0000
,  // measure 45
0000
0000
0101
0000
0120
0000
0000
0000
1030
0000
0001
0100
0020
0000
0000
0001
,  // measure 46
0000
0000
1000
0000
1030
0000
0000
0000
0100
0000
0000
0000
0011
0000
0000
0110
,  // measure 47
0000
0000
1100
0000
0120
0000
0000
0000
0031
0000
1000
0100
0020
0000
0000
1000
,  // measure 48
0000
0000
0001
0030
0001
0100
0001
0100
0010
0000
0000
0000
1000
0010
0100
0000
,  // measure 49
0001
0000
1000
0100
1000
0000
0001
0100
0010
0000
0100
0000
0001
0010
0100
0000
,  // measure 50
1000
0000
0001
0100
0001
0000
1000
0010
0100
0000
0010
0000
1000
0000
1000
0000
,  // measure 51
0001
0000
0001
0000
0010
0100
1000
0010
0100
0001
0010
0100
1000
0000
0000
1000
,  // measure 52
0100
0000
0000
0100
0010
0000
0010
0000
0001
0100
0010
1000
0200
0000
0000
0000
,  // measure 53
0000
0000
0010
0010
0310
0000
0001
1000
,  // measure 54
0010
0100
0010
1000
0100
0000
0000
0010
0001
0000
0100
0000
1000
0000
0100
0000
,  // measure 55
0001
1000
0001
0100
0001
0100
0000
0001
0000
1000
0100
0010
0001
0000
0001
0000
,  // measure 56
0010
0100
0010
0001
0100
0000
0000
0010
1000
0000
0100
0000
0001
0000
0100
0000
,  // measure 57
1000
0001
0100
0001
0000
1000
0100
1000
0000
0001
0100
0010
1000
0000
0100
0000
,  // measure 58
0110
0001
0100
1000
0100
0001
0011
0100
,  // measure 59
0110
1000
0100
0001
0100
1000
1010
0010
,  // measure 60
0110
0100
0101
0001
0011
0010
0100
0000
,  // measure 61
0100
0000
1000
0001
1001
0000
0010
0001
,  // measure 62
0100
0001
0100
0010
1000
0100
0000
0010
0001
0000
0100
0010
1000
0000
0001
0000
,  // measure 63
0010
0001
0010
0100
1000
0100
0000
0010
0000
0100
0010
0001
1000
0001
1000
0000
,  // measure 64
0010
0100
0010
1000
0100
0010
0000
0001
0100
0000
0010
0000
1000
0000
0100
0000
,  // measure 65
0001
1000
0010
0001
1001
0000
0010
1000
,  // measure 66
0100
1000
0100
0010
0001
0100
0000
0010
1000
0000
0100
0010
0001
0000
1000
0000
,  // measure 67
0010
1000
0010
0100
0001
0100
0000
0010
0000
0100
0010
1000
0001
0000
0000
0001
,  // measure 68
1000
0000
0000
1000
0010
0000
0000
0010
0100
0000
0000
0100
0002
0000
0000
0000
,  // measure 69
0000
0000
0003
0000
1000
0001
1000
0001
0100
0000
0000
0000
1010
0000
0000
0000
,  // measure 70
0100
0001
0100
0000
0100
0001
0100
0001
0010
0000
0100
1000
0010
1000
0010
0000
,  // measure 71
0010
1000
0010
1000
0100
0000
0010
0001
1000
0000
0000
0000
1001
0000
0000
0000
,  // measure 72
0100
1000
0100
0000
0100
1000
0100
1000
0010
0000
0100
0001
0010
0001
0010
0000
,  // measure 73
0010
0001
1000
0000
1001
0000
0000
0000
0010
0000
0000
0000
1000
0000
0100
0000
,  // measure 74
0010
0001
0010
0001
0100
1000
0000
0100
0001
0000
0010
0000
0001
0000
0100
0000
,  // measure 75
0010
1000
0010
1000
0100
0001
0000
0100
0000
1000
0100
0010
0001
0000
0000
0001
,  // measure 76
1000
0000
0000
1000
0010
0000
0010
0000
1000
0100
0010
0001
0100
0000
0100
0000
,  // measure 77
0001
0010
0001
1000
0001
0010
0100
1000
0001
1000
0100
0001
0000
0000
0000
0000
;

//---------------dance-single - NewbStepper-DSP----------------
#NOTEDATA:;
#CHARTNAME:NewbStepper-DSP;
#STEPSTYPE:dance-single;
#DESCRIPTION:NewbStepper-DSP;
#DIFFICULTY:Medium;
#METER:12;
#RADARVALUES:0.543223,0.767920,0.436225,0.255150,0.148152,462,409,53,31,0,0,0,0,0,0.543223,0.767920,0.436225,0.255150,0.148152,462,409,53,31,0,0,0,0,0;
#CREDIT:NewbStepper;
#NOTES:
0000
0000
0000
0000
,
0000
0000
0000
0000
,
0000
0000
0000
0000
,
0000
0000
0000
0000
,
0000
0000
0000
0000
,
0002
0000
0000
0000
2003
0000
0000
3200
,
0000
0000
0300
0000
,
2000
0000
3002
0000
,
0103
0000
0000
0010
0110
0000
1001
0000
,
0100
1000
0100
0010
0100
0000
1001
0000
,
0100
0001
0100
0010
0100
0000
1001
0000
,
0010
1000
0010
0100
0010
0001
0010
0000
,
1000
0100
0010
0001
1000
0000
1001
0000
,
0010
0001
0010
0100
0010
0000
1001
0000
,
0010
1000
0010
0100
0010
0000
1001
0000
,
0100
0001
0100
0010
0100
1000
0100
0001
,
0020
0000
0000
0030
,
0001
0000
0000
0001
0000
0000
0001
0000
0200
0000
0000
0000
0300
0000
0000
0000
,
1000
0000
0000
1000
0000
0000
1000
0000
0200
0000
0000
0000
0300
0000
0000
0000
,
0010
0000
0000
0010
0000
0000
0010
0000
0100
0000
0000
0000
0010
0000
0000
0000
,
2002
0000
0000
3003
,
0110
0000
1000
0100
0110
0000
0001
0100
,
0110
0000
1000
0001
1001
0000
0110
0001
,
1000
0010
0001
0010
1000
0100
0001
0100
,
0020
0000
0000
0030
,
0002
0100
0100
0103
,
2000
0100
0100
3100
,
0001
0100
0010
0100
0001
0100
0010
1000
,
0100
0010
0100
1000
0100
0010
0100
0000
,
1000
0100
0010
0100
1000
0100
0010
0001
,
0100
0010
0100
0001
0100
0010
0100
0000
,
0101
1100
1010
0011
,
1000
0000
0001
0000
0010
0100
0110
0000
,
0001
0000
0010
0000
0100
0000
1000
0000
0100
0000
0000
0010
0100
0000
0000
0000
,
1000
0000
0100
0000
0010
0000
0001
0000
0100
0000
0000
0010
0100
0000
0000
0000
,
0001
0000
1000
0000
0010
0000
0100
0000
0001
0000
0000
0010
0100
0000
1000
0000
,
1100
0101
1001
0000
,
0010
0000
1000
0000
0100
0000
0001
0000
0100
0000
0000
0100
1000
0000
0001
0000
,
0010
0000
0001
0000
0100
0000
1000
0000
0100
0000
0000
0100
0001
0000
0010
0000
,
0100
1000
0010
0100
0001
0010
1000
0010
,
0002
0000
0000
0003
,
1200
0000
0000
0310
0000
2002
0000
0000
0000
0000
3003
0000
0000
0000
0011
0100
,
1000
0000
0000
0000
1010
0000
0100
0000
0001
0000
0000
0000
0010
0000
0000
0100
0000
0000
0010
0000
0000
0000
1001
0000
1001
0000
0000
0000
0201
0000
0000
0000
,
0000
0310
0000
2002
0000
0000
0000
0000
0000
0000
3003
0000
1100
0010
0001
0000
,
0101
0010
1000
0000
0010
0100
0001
0010
0100
1000
0010
0000
2010
0000
0000
0000
,
0001
0000
0000
0000
3100
0000
0000
0000
0010
0000
0001
0000
1000
0000
0000
0100
,
0000
0000
0001
0000
0100
0000
0000
0000
0010
0001
0010
0000
0012
0000
0000
0000
,
1000
0000
0000
0000
0103
0000
0000
0000
0010
0000
1000
0000
0001
0000
0000
0100
,
0000
0000
1000
0000
0100
0000
0010
0100
0010
0000
0000
0000
1000
0000
0100
0000
,
0001
0000
0100
0000
1000
0000
0000
1000
0100
0000
0010
0000
0001
0000
0100
0000
,
1000
0000
0100
0000
0001
0000
0000
0001
0100
0000
0010
0000
1000
0000
0100
0000
,
0010
0001
0100
0010
1000
0001
0010
0000
,
0110
0000
0001
0100
0010
1000
2002
0000
,
0000
0000
0000
0000
3003
0000
0010
0001
,
0100
0000
0010
0000
0100
0000
0000
1000
0100
0000
0000
0000
0010
0000
1000
0000
,
0100
0000
0010
0000
0100
0000
0000
0001
0100
0000
0000
0000
0010
0000
0001
0000
,
1000
0000
0010
0000
0001
0000
0000
0010
0100
0000
0001
0000
2000
0000
0000
0000
,
0001
0000
0010
0000
0001
0000
3010
1000
,
0100
0000
0010
0000
0100
0000
0000
0001
0100
0000
0000
0000
0010
0000
0001
0000
,
0100
0000
0010
0000
0100
0000
0000
1000
0100
0000
0000
0000
0010
0000
1000
0000
,
0001
0000
0010
0000
1000
0000
0000
0010
0100
0000
1000
0000
0001
0000
0000
0000
,
0001
0000
0100
0000
0110
0000
0001
0100
,
0001
0010
1000
0010
0001
0000
1000
0100
,
1000
0010
0001
0010
1000
0000
1100
0000
,
0010
0101
0010
1001
,
0110
0000
2002
0000
3003
0000
1000
0100
,
1000
0010
0001
0010
1000
0000
0001
0100
,
0001
0010
1000
0010
0001
0000
0101
0000
,
0010
1100
0010
2002
,
0000
0000
3003
0110
,
1000
0010
0001
0010
1000
0000
0110
0000
,
0001
0010
1000
0010
0001
0000
0110
0000
,
1000
0100
0001
0100
1000
0000
0110
0000
,
0101
0000
1010
0000
1001
0000
0010
0001
,
0100
0000
1000
0000
0100
0000
0000
0001
1000
0000
1000
0000
0010
0000
1000
0000
,
0100
0000
0001
0000
0100
0000
0000
1000
0001
0000
0001
0000
0010
0000
0000
0000
,
0110
0000
1000
0100
0010
0001
2002
0000
,
0000
0000
0000
3003
;

//---------------dance-single - NewbStepper-BSP----------------
#NOTEDATA:;
#CHARTNAME:NewbStepper-BSP;
#STEPSTYPE:dance-single;
#DESCRIPTION:NewbStepper-BSP;
#DIFFICULTY:Easy;
#METER:9;
#RADARVALUES:0.368028,0.479950,0.370380,0.279842,0.024692,313,268,45,34,0,0,0,0,0,0.368028,0.479950,0.370380,0.279842,0.024692,313,268,45,34,0,0,0,0,0;
#CREDIT:NewbStepper;
#NOTES:
0000
0000
0000
0000
,
0000
0000
0000
0000
,
0000
0000
0000
0000
,
0000
0000
0000
0000
,
0000
0000
0000
0000
,
2000
0000
0000
0000
0000
0000
0000
0002
,
0000
0000
3003
0000
,
0220
0000
0000
0330
,
1001
0000
0000
0101
0000
0000
0010
0000
,
1000
0100
1100
0000
,
0001
0100
0101
0000
,
1000
0010
1010
0000
,
0001
0010
0011
0000
,
1000
0000
0100
0000
0001
0000
0100
0010
,
0001
0000
0100
0000
1000
0000
0100
0010
,
1000
0100
0001
0010
,
0220
0000
0000
0330
,
0002
0000
0010
0003
,
2000
0000
0010
3000
,
0002
0000
0100
0003
,
0110
0000
0000
0000
,
0001
0000
0000
0010
0100
0000
0010
0001
,
1000
0000
0000
0010
0100
0000
0010
1000
,
0001
0000
1000
0000
0010
0100
0010
0000
,
2002
0000
0000
3003
,
0010
0001
0010
0000
,
0100
1000
0100
0000
,
1010
0100
1010
0100
,
0011
0100
0022
0033
,
0101
0010
0101
0010
,
1100
0010
1100
0010
,
0110
0001
0110
1000
,
2002
3003
0010
0010
,
0001
0000
0100
0000
1000
0000
0100
0010
,
1000
0000
0100
0000
0001
0000
0100
0010
,
0001
0100
1000
0010
,
0110
1001
1001
0000
,
0010
1000
0100
0000
0010
0000
0001
0000
,
0010
0001
0100
0000
0010
0000
1000
0000
,
0100
0010
0100
0000
0010
0000
0110
0000
,
1001
0000
0000
0000
,
2000
0000
0000
0000
0000
0002
0000
0000
0000
0000
0000
0000
3003
0000
0010
0000
,
0000
0010
0000
0000
0000
0100
0020
0000
0000
0000
0030
0000
0000
0000
0002
0000
,
0000
0000
0000
2000
0000
0000
0000
0000
0000
0000
3003
0000
0010
0000
0000
0010
,
0000
0000
0000
0100
0020
0000
0000
0000
0030
0000
0000
0000
2000
0000
0000
0000
,
0100
0000
3001
0000
0010
0001
0020
0000
,
1000
0031
0100
0002
,
0100
0000
1003
0000
0010
1000
0020
0000
,
0001
1030
0000
1010
,
0100
1001
0000
0011
,
0100
0000
1001
0000
0000
0000
0001
0010
,
1000
0000
0010
0000
0001
1000
0010
0000
,
0110
0101
1100
2002
,
0000
0000
3003
0001
,
0010
0000
1000
0000
0010
0100
1000
0000
,
0010
0000
0001
0000
0010
0100
0001
0000
,
1000
0000
0010
0000
0001
0010
1000
0000
,
0001
0101
1010
1000
,
0010
0000
0001
0000
0010
0100
0001
0000
,
0010
0000
1000
0000
0010
0100
1000
0000
,
0001
0000
0010
0000
1000
0010
0001
0000
,
0001
0000
1000
0000
0000
0000
0010
1000
,
0100
0000
0010
0000
0001
0100
0001
0000
,
1000
0000
1010
0000
0101
0000
0100
0001
,
0010
0000
0100
0000
1000
0010
1000
0000
,
0101
0000
1001
0000
0000
0000
0010
0001
,
0100
0000
0010
0000
1000
0100
1000
0000
,
0001
0000
0011
0000
1100
0000
0100
1000
,
0010
0000
0100
0000
0001
0010
0002
0000
,
0000
0000
0003
1000
,
0200
0010
0001
1000
,
0320
0001
0130
0001
,
0200
0010
1000
0001
,
0320
1000
0130
1000
,
0001
0100
1000
0000
0110
0000
0001
0000
,
1000
0100
0001
0000
0110
0000
0001
0000
,
1000
0000
0010
0100
0010
0000
2002
0000
,
0000
0000
0000
3003
;

//---------------dance-single - NewbStepper-bSP----------------
#NOTEDATA:;
#CHARTNAME:NewbStepper-bSP;
#STEPSTYPE:dance-single;
#DESCRIPTION:NewbStepper-bSP;
#DIFFICULTY:Beginner;
#METER:5;
#RADARVALUES:0.184602,0.319967,0.057615,0.098768,0,157,150,7,12,0,0,0,0,0,0.184602,0.319967,0.057615,0.098768,0,157,150,7,12,0,0,0,0,0;
#CREDIT:NewbStepper;
#NOTES:
0000
0000
0000
0000
,
0000
0000
0000
0000
,
0000
0000
0000
0000
,
0000
0000
0000
0000
,
0000
0000
0000
0000
,
0001
0000
0000
0000
,
0000
0000
0000
0000
,
1000
0000
0000
0000
,
0000
0000
0000
0000
,
0010
0010
0010
0000
,
1000
1000
1000
0000
,
0100
0100
0100
0000
,
0001
0000
1000
0000
,
0010
0010
0010
0000
,
0001
0001
0001
0000
,
0100
0100
0100
0000
,
1000
0000
0000
0000
,
0002
0000
0003
0000
,
2000
0000
3000
0000
,
0020
0000
0030
0000
,
0100
0000
0000
0000
,
1001
0000
1001
0000
,
0110
0000
0110
0000
,
0001
0001
1000
1000
,
1001
0000
0000
0000
,
0020
0000
0030
0000
,
0200
0000
0300
0000
,
0001
0001
0001
0000
,
1000
1000
1000
0000
,
0010
0100
0010
0000
,
1000
0001
1000
0000
,
0010
0100
0010
0000
,
1001
0000
0000
0000
,
0010
0000
0001
0000
,
0100
0000
0010
0000
,
1000
0000
0100
0000
,
1000
0000
0000
0000
,
0010
0000
1000
0000
,
0100
0000
0010
0000
,
0001
0000
0100
0000
,
0001
0000
0000
0000
,
2000
0000
0000
0000
,
0000
3000
0000
0000
0000
0000
0000
0002
,
0000
0000
0000
0000
,
0003
0000
0000
1000
,
0000
0000
0000
0001
,
0000
0000
0000
1000
,
0000
0000
0000
0001
,
0000
0000
0000
0020
,
0000
0030
0000
0200
,
0000
0300
0000
1000
,
0000
0001
0000
1000
,
0001
1000
0001
0010
,
0000
0000
0000
0001
,
0001
0001
0000
1000
,
1000
1000
0000
0010
,
0010
0010
0000
0100
,
0100
0100
0000
0001
,
1000
0001
0000
0100
,
0010
0100
0000
1000
,
0001
1000
0000
0010
,
0100
0010
0000
0001
,
0001
0100
0000
1000
,
1000
0100
0000
0001
,
0001
0010
0000
1000
,
1000
0010
0000
0001
,
0100
0001
0000
1000
,
0100
1000
0000
0010
,
0100
0010
0000
2002
,
0000
3003
0000
0010
,
1000
1000
0000
0010
,
0001
0001
0000
0100
,
1000
1000
0000
0100
,
0001
0001
0000
0010
,
0000
0010
0000
0100
,
0000
0100
0000
1000
,
0001
1000
0001
0020
,
0000
0000
0000
0030
;

//---------------dance-double - NewbStepper-EDP----------------
#NOTEDATA:;
#CHARTNAME:NewbStepper-EDP;
#STEPSTYPE:dance-double;
#DESCRIPTION:NewbStepper-EDP;
#DIFFICULTY:Hard;
#METER:17;
#RADARVALUES:0.812483,1.118983,0.419763,0.205766,0.851873,691,640,51,25,0,0,0,0,0,0.812483,1.118983,0.419763,0.205766,0.851873,691,640,51,25,0,0,0,0,0;
#CREDIT:NewbStepper;
#NOTES:
00000000
00000000
00000000
00000000
,
00000000
00000000
00000000
00000000
,
00000000
00000000
00000000
00000000
,
00000000
00000000
00000000
00000000
,
00000000
00000000
00000000
00000000
,
12000000
00000000
00010000
00000000
00100000
03100000
00000000
01100000
,
00000000
00000000
00101000
00000000
00000000
00000000
00001000
00010000
00100000
00000000
00010000
00000000
00001000
00000000
00000010
00000000
,
00000001
00000000
00000201
00000000
00000000
00000000
00000000
00000000
00000010
00000000
00000000
00000010
00000300
00000000
00001000
00010000
,
00100000
00000000
10000000
00000000
00010000
00000000
01000000
00100000
01000000
00000000
00000000
00000000
10010000
00000000
00000000
00000000
,
00100000
00000000
00000000
00100000
10000000
00000000
00000000
10000000
02000000
00000000
00000000
00000000
03010000
00000000
00001000
00000100
,
00000010
00000000
00010000
00000100
00000010
00000000
00001000
00000000
00010000
00000000
00001000
00000100
00000001
00000000
00000000
00000000
,
00000010
00000000
00000000
00000010
00000001
00000000
00000000
00000001
00000200
00000000
00000000
00000000
00001300
00000000
00010000
01000000
,
00100000
00000000
00001000
01000000
00100000
00000000
00010000
00000000
00001000
00010000
00100000
01000000
10000000
00000000
00000000
00000000
,
01000000
00000000
00001000
00010000
00001000
00000000
00100000
01000000
00100000
00000000
00001000
00100000
00010000
00000000
00001000
00000000
,
00000100
00000000
00010000
00001000
00010000
00000000
00000010
00000100
00000010
00000000
00010000
00000010
00001000
00000000
00010000
00000000
,
01000000
00100000
10000000
01000000
00010000
00001000
00000100
00000001
,
00002002
00000000
00000000
00003003
,
00000210
00000000
00000000
00001300
00000000
00000000
00010000
00000000
00001000
00000000
00000000
00000000
00000010
00000000
00000000
00000000
,
00000101
00000000
00000000
00000010
00000000
00000000
00001000
00000000
00010000
00000000
00100000
00000000
10000000
00000000
00100000
00000000
,
02100000
00000000
00000000
03010000
00000000
00000000
00001000
00000000
00010000
00000000
00000000
00000000
00100000
00000000
00000000
00000000
,
20020000
00000000
00000000
30030000
,
01100000
00000000
00010000
00001000
00000000
00100000
00010000
00000000
10000000
00000000
00000000
01000000
00010000
00000000
00001000
00000000
,
00000110
00000000
00001000
00010000
00000000
00000010
00001000
00000000
00000001
00000000
00000000
00000100
00001000
00000000
00010000
00000000
,
00100000
00000000
00000000
00100000
10000000
00000000
00000000
10000000
01000000
00000000
01000000
00000000
00010000
00001000
00010000
00001000
,
00000020
00000000
00000000
00000030
,
00002100
00000001
00000010
00013000
,
01020000
10000000
00100000
00031000
,
00000110
00000000
00001000
00000100
00001000
00000000
00001000
00000010
00001000
00000000
00000010
00000100
00001000
00010000
00100000
00000000
,
01100000
00000000
00010000
01000000
00010000
00000000
00010000
00100000
00020000
00000000
00000000
00000000
10030000
00000000
00000000
00000000
,
00110000
00000000
01000000
00000000
10000000
00100000
00000000
01000000
00010000
00000000
00001000
00000100
00000000
00001000
00000010
00000000
,
00001010
00000000
00000100
00000000
00000001
00000010
00000000
00000100
00001000
00000000
00010000
01000000
00000000
00010000
00100000
00000000
,
01100000
00000000
00010000
00000000
00011000
00000000
00000000
00000100
00000000
00001000
00010000
00001000
00000010
00001000
00010000
00100000
,
02000000
00000000
00000000
00000000
00000000
00000000
03000000
00000000
00010000
10000000
01000000
00100000
00010000
00000000
00000000
00000000
,
01010000
00000000
00010000
00000000
10000000
00000000
00100000
00000000
00010000
00000000
00000000
00000010
00000100
00000000
00000010
00000000
,
00001010
00000000
00001000
00000000
00000001
00000000
00000010
00000000
00001000
00000000
00000000
00100000
01000000
00000000
10000000
00000000
,
11000000
00000000
01000000
00000000
00010000
00000000
00001000
00000000
00000100
00000000
00000000
00000001
00000010
00000000
00000001
00000000
,
00000101
00000100
00001000
00010000
01000000
00100000
01100000
00000000
,
10000000
00000000
00010000
00000000
01000000
00100000
00010000
00001000
00000010
00000000
00000000
00000010
00000100
00000000
00001000
00000000
,
00000001
00000000
00001000
00000000
00000100
00000010
00001000
00010000
00100000
00000000
00000000
00100000
01000000
00000000
00010000
00000000
,
10000000
00100000
01000000
00010000
00100000
00001000
00010000
00000100
00001000
00000010
00000100
00000001
00000100
00001000
00010000
00100000
,
02000000
00000000
00000000
00000000
00100000
00100000
03100000
00000000
,
10000000
00000000
01000000
00000000
00100000
00000000
00010000
00000000
00000000
00000000
00021000
00000000
00000000
00000000
00000000
00000000
00030000
00000000
00001000
00000100
00000010
00000000
00000001
00000000
00000100
00000000
00001000
00000000
00000100
00000000
00000010
00000000
,
00001000
00000100
00010000
00001000
00100000
00000000
10000000
00000000
00000000
00000000
00100000
00010000
01000000
00000000
00000000
01010000
00000000
00000000
01001000
00000000
00000000
00000000
00010000
00000000
00001000
00000000
00000010
00000000
00000001
00000000
00000100
00000000
,
00000010
00000000
00001000
00000000
00000000
00000000
00012000
00000000
00000000
00000000
00000000
00000000
00003000
00000000
00010000
01000000
00100000
00000000
10000000
00000000
01000000
00000000
00010000
00000000
01000000
00000000
00100000
00000000
00010000
01000000
00001000
00010000
,
00000010
00000000
00000001
00000000
00000000
00000000
00000010
00001000
00000200
00000000
00000000
00000000
00000000
00000000
00000000
00000000
00000300
00000000
00000000
00000000
00000000
00000000
00000000
00000000
00000110
00000000
00000000
00000000
00000000
00000000
00001010
00000000
,
00000000
00000000
00011000
00000000
00012000
00000000
00000000
00000000
01003000
00000000
00100000
00010000
00002000
00000000
00000000
00000010
,
00000000
00000000
00013000
00000000
00011000
00000000
00000000
00000000
01000000
00000000
00000000
00000000
01100000
00000000
00000000
00110000
,
00000000
00000000
00011000
00000000
00021000
00000000
00000000
00000000
00030100
00000000
00000010
00001000
00020000
00000000
00000000
00100000
,
00000000
00000000
00031000
00000000
00100000
00010000
00100000
00010000
10000000
00000000
00000000
00000000
10000000
01000000
00010000
00000000
,
00001000
00000000
00100000
00010000
00001000
00000000
00000010
00010000
00001000
00000000
00000010
00000000
00000001
00000100
00001000
00000000
,
00010000
00000000
00000010
00001000
00010000
00000000
00100000
00001000
00010000
00000000
00100000
00000000
10000000
00000000
01000000
00000000
,
00100000
00000000
00010000
00000000
00100000
00001000
00010000
00000100
00001000
00000001
00000100
00001000
00010000
00000000
00000000
00010000
,
00100000
00000000
00000000
00100000
10000000
00000000
01000000
00000000
00100000
00010000
01000000
00001000
00020000
00000000
00000000
00000000
,
00000000
00000000
00001000
00001000
00031000
00000000
00000010
00000001
,
00000100
00000010
00000100
00000001
00000010
00000000
00000000
00000010
00001000
00000000
00010000
00000000
00000010
00000000
00001000
00000000
,
00010000
01000000
00100000
01000000
00001000
00010000
00000000
00001000
00000000
00100000
01000000
10000000
00100000
00000000
10000000
00000000
,
01000000
00100000
01000000
10000000
00100000
00000000
00000000
00100000
00010000
00000000
00001000
00000000
00100000
00000000
00010000
00000000
,
00001000
00000100
00000010
00000100
00000000
00010000
00001000
00010000
00000000
00000010
00000100
00000001
00000010
00000000
00001000
00000000
,
00011000
00100000
00010000
00001000
00010000
00100000
01100000
10000000
,
10010000
01000000
00010000
00001000
00010000
01000000
01010000
00010000
,
00011000
00001000
00001010
00000010
00000110
00000100
00001001
00000000
,
00001001
00000000
00000010
00000100
00000110
00000000
00000001
00000010
,
00001000
00010000
00001000
00100000
01000000
00000000
10000000
00100000
01000000
00000000
00001000
00010000
00100000
00000000
10000000
00000000
,
00100000
01000000
00010000
01000000
00001000
00100000
00000000
00010000
00000000
00001000
00000100
00000010
00000100
00000000
00010000
00000000
,
00001000
00000100
00000010
00000001
00000010
00000000
00001000
00000100
00000010
00000000
00000100
00000000
00010000
00000000
00001000
00000000
,
00010000
00100000
10000000
01000000
10010000
00000000
10000000
00100000
,
00010000
00001000
00010000
00000010
00000100
00000000
00000001
00000010
00000100
00000000
00010000
00001000
00000010
00000000
00000001
00000000
,
00000010
00000100
00001000
00000100
00010000
00000010
00000000
00001000
00000000
00010000
01000000
00100000
01000000
00000000
00000000
01000000
,
00100000
00000000
00000000
00100000
10000000
00000000
00000000
10000000
01000000
00000000
00000000
01000000
00020000
00000000
00000000
00000000
,
00000000
00000000
00030000
00000000
00001000
00010000
00001000
00010000
00000100
00000000
00000000
00000000
00001001
00000000
00000000
00000000
,
00000010
00000001
00000010
00000000
00000100
00001000
00000100
00001000
00010000
00000000
00100000
00010000
10000000
00010000
10000000
00000000
,
01000000
00100000
01000000
00100000
00010000
00000000
01000000
00010000
00100000
00000000
00000000
00000000
10010000
00000000
00000000
00000000
,
00100000
10000000
00100000
00000000
01000000
00010000
01000000
00010000
00001000
00000000
00000010
00001000
00000001
00001000
00000001
00000000
,
00000100
00000010
00000100
00000010
00001000
00000000
00000000
00000000
00000001
00000000
00000000
00000000
00000100
00000000
00001000
00000000
,
00010000
00100000
00010000
00100000
10000000
00000000
00010000
01000000
00100000
00000000
10000000
00000000
01000000
00000000
00010000
00000000
,
00001000
00000010
00001000
00000010
00000001
00001000
00000000
00000100
00000000
00000010
00001000
00010000
00001000
00000000
00000000
00000010
,
00000001
00000000
00000000
00000001
00000100
00000000
00000100
00000000
00001000
00010000
00001000
00010000
00100000
00000000
10000000
00000000
,
00010000
01000000
00001000
00010000
00000100
00001000
00000001
00000100
00001000
00010000
01000000
10000000
00000000
00000000
00000000
00000000
;

//---------------dance-double - NewbStepper-DDP----------------
#NOTEDATA:;
#CHARTNAME:NewbStepper-DDP;
#STEPSTYPE:dance-double;
#DESCRIPTION:NewbStepper-DDP;
#DIFFICULTY:Medium;
#METER:12;
#RADARVALUES:0.527938,0.703927,0.386841,0.255150,0.135806,449,402,47,31,0,0,0,0,0,0.527938,0.703927,0.386841,0.255150,0.135806,449,402,47,31,0,0,0,0,0;
#CREDIT:NewbStepper;
#NOTES:
00000000
00000000
00000000
00000000
,
00000000
00000000
00000000
00000000
,
00000000
00000000
00000000
00000000
,
00000000
00000000
00000000
00000000
,
00000000
00000000
00000000
00000000
,
00000002
00000000
00000000
00000000
00002003
00000000
00000000
00003200
,
00000000
00000000
00000300
00000000
,
00020000
00000000
00230000
00000000
,
10300000
00000000
00000000
00010000
00010000
00000000
10010000
00000000
,
01000000
00100000
00010000
00001000
00010000
00000000
00011000
00000000
,
00000100
00000010
00001000
00010000
00001000
00000000
00011000
00000000
,
00100000
10000000
00100000
01000000
00100000
00010000
00001000
00000010
,
00000001
00000100
00000010
00001000
00000001
00000000
00001001
00000000
,
00000100
00000010
00001000
00010000
00001000
00000000
00011000
00000000
,
01000000
00100000
00010000
00001000
00010000
00000000
00011000
00000000
,
00000010
00000001
00000010
00000100
00000010
00001000
00010000
00100000
,
20000000
00000000
00000000
30000000
,
00010000
00000000
00000000
00010000
00000000
00000000
00010000
00000000
02000000
00000000
00000000
00000000
03000000
00000000
00000000
00000000
,
00001000
00000000
00000000
00001000
00000000
00000000
00001000
00000000
00000200
00000000
00000000
00000000
00000300
00000000
00000000
00000000
,
00010000
00000000
00000000
00010000
00000000
00000000
00010000
00000000
10000000
00000000
00000000
00000000
01000000
00000000
00000000
00000000
,
20020000
00000000
00000000
30030000
,
01100000
00000000
00010000
00001000
00011000
00000000
00000100
00000010
,
00000110
00000000
00000001
00001000
00001001
00000000
00000010
00000100
,
00000001
00000010
00001000
00010000
00100000
10000000
00010000
01000000
,
00200000
00000000
00000000
00300000
,
10000000
01000000
00100000
00010000
,
00001000
00000100
00000010
00000001
,
00001000
00000100
00000010
00000100
00001000
00000001
00000100
00000000
,
00001000
00010000
01000000
00100000
00001000
00010000
00100000
00000000
,
10000000
01000000
00100000
00010000
01000000
00100000
00010000
00000000
,
00001000
00100000
00010000
00100000
00001000
00000010
00000001
00000000
,
00001000
00000001
00000100
00001000
00010000
01000000
10000000
00000000
,
11000000
01010000
00110000
10100000
,
10000000
00000000
00010000
00000000
01000000
00100000
01100000
00000000
,
00010000
00000000
00001000
00000000
00000010
00000100
00000110
00000000
,
00000001
00000000
00000100
00000000
00001000
00000000
00010000
00000000
00001000
00000000
00000000
00100000
01000000
00000000
00010000
00000000
,
00001000
00000010
00000220
00000330
,
00000001
00000000
00000100
00000000
00001000
00000000
00010000
00000000
00100000
00000000
00000000
10000000
00010000
00000000
00000000
00000000
,
10000000
00000000
01000000
00000000
00010000
00000000
00001000
00000000
00000010
00000000
00000000
00000001
00001000
00000000
00000000
00000000
,
00000010
00010000
00001000
00000100
00001000
00010000
01000000
00100000
,
00020000
00000000
00000000
00030000
,
01020000
00000000
00000000
00130000
00000000
02200000
00000000
00000000
00000000
00000000
03300000
00000000
00000000
00000000
10000000
01000000
,
00010000
00000000
00000000
00000000
00001000
00000000
00000100
00000000
00000001
00000000
00000000
00000000
00000010
00000000
00000000
00000100
00000000
00000000
00000010
00000000
00000000
00000000
00001001
00000000
00001001
00000000
00000000
00000000
00002100
00000000
00000000
00000000
,
00000000
00003010
00000000
00000220
00000000
00000000
00000000
00000000
00000330
00000000
00000000
00000000
00000001
00000100
00001000
00000000
,
00010000
01000000
10000000
00000000
00100000
01000000
00010000
00100000
00001000
00010000
00000100
00000000
00000120
00000000
00000000
00000000
,
00001000
00000000
00000000
00000000
00000031
00000000
00000000
00000000
00000010
00000000
00001000
00000000
00010000
00000000
00000000
00001000
,
00000000
00000000
00100000
00000000
00010000
00000000
00000000
00000000
01000000
00100000
01000000
00000000
01200000
00000000
00000000
00000000
,
00010000
00000000
00000000
00000000
10300000
00000000
00000000
00000000
00100000
00000000
00010000
00000000
00001000
00000000
00000000
00010000
,
00000000
00000010
00001000
00000000
00000000
00000000
00000001
00000100
,
00001000
00000000
00000100
00000000
00000001
00000000
00000000
00000001
00000010
00000000
00001000
00000000
00010000
00000000
00100000
00000000
,
00010000
00000000
00001000
00000000
00100000
00000000
00000000
00100000
00010000
00000000
10000000
00000000
00010000
00000000
01000000
00000000
,
00100000
00010000
00001000
00000010
00000001
00000100
00000010
00000000
,
00000110
00000000
00001000
00010000
01000000
10000000
20020000
00000000
,
00000000
00000000
00000000
00000000
30030000
00000000
00100000
10000000
,
01000000
00000000
00100000
00000000
01000000
00000000
00000000
00010000
01000000
00000000
00000000
00000000
00010000
00000000
00001000
00000000
,
00000100
00000000
00001000
00000000
00010000
00000000
00000000
00001000
00000010
00000000
00000000
00000000
00000001
00000000
00000100
00000000
,
00001000
00000000
00000100
00000000
00000001
00000000
00000000
00000010
00000100
00000000
00001000
00000000
00000002
00000000
00000000
00000000
,
00001000
00000000
00000100
00000000
00001000
00000000
00000013
00000001
,
00000100
00000000
00000010
00000000
00000100
00000000
00000000
00001000
00000100
00000000
00000000
00000000
00001000
00000000
00010000
00000000
,
01000000
00000000
00010000
00000000
00001000
00000000
00000000
00010000
00100000
00000000
00000000
00000000
10000000
00000000
01000000
00000000
,
00010000
00000000
01000000
00000000
10000000
00000000
00000000
00100000
01000000
00000000
00010000
00000000
10000000
00000000
00000000
00000000
,
01000000
00000000
00010000
00000000
00011000
00000000
00001000
00000100
,
00000001
00000010
00001000
00000010
00000001
00000000
00001000
00000100
,
00001000
00010000
00100000
01000000
10000000
00000000
01100000
00000000
,
10010000
00011000
00001001
00011000
,
10010000
00000000
00022000
00000000
00033000
00000000
00010000
01000000
,
10000000
00100000
00010000
00100000
10000000
00000000
00010000
01000000
,
00010000
00001000
00000010
00000100
00000001
00000000
00000110
00000000
,
00001001
00011000
10010000
00022000
,
00000000
00000000
00033000
00011000
,
00001000
00000010
00000001
00000010
00001000
00000000
00011000
00000000
,
00010000
00100000
10000000
00100000
00010000
00000000
00011000
00000000
,
00001000
00000100
00000001
00000100
00001000
00000000
00011000
00000000
,
00010000
01000000
10000000
00000000
10010000
00000000
00100000
10000000
,
01000000
00000000
00010000
00000000
00001000
00000000
00000000
00000010
00000100
00000000
00000000
00000000
00000010
00000000
00000001
00000000
,
00000100
00000000
00001000
00000000
00010000
00000000
00000000
00100000
01000000
00000000
00000000
00000000
00100000
00000000
10000000
00000000
,
01000000
00010000
00001000
00000100
00000001
00000010
00000220
00000000
,
00000000
00000000
00000000
00000330
;

//---------------dance-double - NewbStepper-BDP----------------
#NOTEDATA:;
#CHARTNAME:NewbStepper-BDP;
#STEPSTYPE:dance-double;
#DESCRIPTION:NewbStepper-BDP;
#DIFFICULTY:Easy;
#METER:10;
#RADARVALUES:0.363325,0.479950,0.337457,0.279842,0.024692,309,268,41,34,0,0,0,0,0,0.363325,0.479950,0.337457,0.279842,0.024692,309,268,41,34,0,0,0,0,0;
#CREDIT:NewbStepper;
#NOTES:
00000000
00000000
00000000
00000000
,
00000000
00000000
00000000
00000000
,
00000000
00000000
00000000
00000000
,
00000000
00000000
00000000
00000000
,
00000000
00000000
00000000
00000000
,
00020000
00000000
00000000
00000000
00000000
00000000
00000000
00002000
,
00000000
00000000
00033000
00000000
,
02002000
00000000
00000000
03003000
,
01010000
00000000
00000000
10010000
00000000
00000000
00100000
00000000
,
10000000
01000000
11000000
00000000
,
00010000
01000000
01010000
00000000
,
00001000
00010000
00011000
00000000
,
00000100
00000010
00000110
00000000
,
00000001
00000000
00000100
00000000
00001000
00000000
00000100
00000010
,
00001000
00000000
00010000
00000000
01000000
00000000
00100000
10000000
,
00010000
01000000
10000000
01000000
,
02200000
00000000
00000000
03300000
,
20000000
00000000
00100000
30000000
,
00020000
00000000
00100000
00030000
,
00002000
00000000
00000100
00003000
,
00000110
00000000
00000000
00000000
,
00000001
00000000
00000000
00000010
00000100
00000000
00000010
00000001
,
00001000
00000000
00000000
00000010
00010000
00000000
00001000
00100000
,
00010000
00000000
10000000
00000000
00100000
01000000
00100000
00000000
,
20020000
00000000
00000000
30030000
,
00100000
10000000
00100000
00000000
,
01000000
00010000
01000000
00000000
,
00101000
00010000
00101000
00010000
,
00001010
00010000
00022000
00033000
,
00010010
00001000
00010010
00001000
,
00110000
00001000
00110000
00001000
,
00011000
00000100
00000001
00000010
,
00002002
00003003
00000010
00000010
,
00000001
00000000
00000100
00000000
00001000
00000000
00000100
00000010
,
00001000
00000000
00010000
00000000
01000000
00000000
00100000
10000000
,
01000000
00010000
00001000
00000010
,
00000110
00001001
00001001
00000000
,
00000010
00000001
00000100
00000000
00001000
00000000
00010000
00000000
,
00100000
10000000
01000000
00000000
00010000
00000000
00001000
00000000
,
00000100
00000010
00000100
00000000
00001000
00000000
00010000
00000000
,
01100000
00000000
00000000
00000000
,
20000000
00000000
00000000
00000000
00000000
00020000
00000000
00000000
00000000
00000000
00000000
00000000
30030000
00000000
00100000
00000000
,
00000000
00010000
00000000
00000000
00000000
00001000
00020000
00000000
00000000
00000000
00030000
00000000
00000000
00000000
00002000
00000000
,
00000000
00000000
00000000
00000002
00000000
00000000
00000000
00000000
00000000
00000000
00003003
00000000
00000010
00000000
00000000
00001000
,
00000000
00000000
00000000
00010000
00002000
00000000
00000000
00000000
00003000
00000000
00000000
00000000
00200000
00000000
00000000
00000000
,
00001000
00000000
00310000
00000000
10000000
00100000
02000000
00000000
,
10000000
03010000
00001000
00000020
,
00010000
00000000
00001030
00000000
00000001
00000010
00000200
00000000
,
00000001
00001300
00000000
00001100
,
00000010
00010010
00000000
01010000
,
00100000
00000000
00101000
00000000
00000000
00000000
00010000
00100000
,
10000000
00000000
10000000
00100000
00010000
00000000
00011000
00000000
,
00000010
00011000
00100000
00022000
,
00000000
00000000
00033000
00001000
,
00000010
00000000
00000001
00000000
00000100
00000010
00001000
00000000
,
00010000
00000000
01000000
00000000
00100000
00010000
00001000
00000000
,
00010000
00000000
00100000
00000000
10000000
01000000
00100000
00000000
,
01000000
00010000
00001000
00010000
,
00100000
00000000
10000000
00000000
01000000
00100000
00010000
00000000
,
00001000
00000000
00000100
00000000
00000010
00001000
00010000
00000000
,
00001000
00000000
00000010
00000000
00000001
00000100
00000010
00000000
,
00000010
00000000
00001001
00000000
00000000
00000000
00000010
00000001
,
00000100
00000000
00000010
00000000
00000100
00001000
00010000
00000000
,
00001000
00000000
00101000
00000000
00110000
00000000
01000000
10000000
,
00100000
00000000
01000000
00000000
00100000
00010000
00001000
00000000
,
00011000
00000000
00011000
00000000
00000000
00000000
00100000
10000000
,
01000000
00000000
00100000
00000000
01000000
00010000
00001000
00000000
,
00010000
00000000
00010010
00000000
00001010
00000000
00000100
00000001
,
00000010
00000000
00000100
00000000
00000010
00001000
00020000
00000000
,
00000000
00000000
00030000
00001000
,
00000200
00000010
00001300
00010000
,
02000000
00100000
03010000
00001000
,
00000020
00000100
00001030
00010000
,
00200000
00000000
01000000
00000000
00310000
00000000
00001000
00000100
,
00000001
00000000
00000110
00000000
00001000
00000000
00000001
00000100
,
00001000
00011000
00100000
10000000
,
01000000
00000000
00010000
00001000
00010000
00000000
00022000
00000000
,
00000000
00000000
00000000
00033000
;
