#VERSION:0.83;
#TITLE:color theory;
#ARTIST:dj kaya*;
#BANNER:color theory.png;
#BACKGROUND:color theory-bg.png;
#JACKET:color theory-jacket.png;
#MUSIC:color theory.ogg;
#SAMPLESTART:56.727;
#SAMPLELENGTH:15;
#BPMS:0=82.5,8=165,118=82.5,119=165,180=82.5,195=165,226=82.5,227=165,291=82.5;
#STOPS:147=0.091,147.25=0.182,147.75=0.182,148.25=0.182,148.75=0.091,179=0.364,195=0.364;
#TIMESIGNATURES:0=4=4,224=3=4,227=4=4;

//---------------dance-single - Marten-bSP----------------
#NOTEDATA:;
#CHARTNAME:Marten-bSP;
#STEPSTYPE:dance-single;
#DESCRIPTION:Marten-bSP;
#DIFFICULTY:Beginner;
#METER:4;
#CREDIT:Marten;
#NOTES:
0000
0000
0000
0000
,
0000
0000
0000
0000
,
0000
0001
0000
0001
,
0000
1000
0000
1000
,
0000
0010
0000
0010
,
0000
0100
0000
0100
,
0001
0001
0001
0001
,
0000
1001
0000
1001
,
2000
0000
0000
3000
,
0020
0030
0200
0300
,
2002
0000
0000
3003
,
0001
0001
0000
1000
,
1001
0000
0010
0000
,
0100
0100
0100
0000
,
0002
0003
0010
0000
,
2000
3000
0010
0000
,
0002
0003
0010
0000
,
2000
3000
0002
0003
,
2000
3000
0100
0000
,
0002
0003
0100
0000
,
2000
3000
0100
0000
,
0002
0003
2000
3000
,
0001
0001
0010
0000
,
1000
1000
0010
0000
,
0001
0001
0010
0000
,
2000
3000
0002
0003
,
1000
1000
0100
0000
,
0001
0001
0100
0000
,
1000
1000
0100
0000
,
0002
0003
2000
3000
,
1001
0000
0001
0100
,
0000
0100
0000
0010
,
0000
0010
0010
1000
,
0000
0001
1000
0001
,
0000
0010
0010
0000
,
0100
0000
1000
1000
,
0000
0001
0001
2002
,
0000
0000
0000
3003
0000
0000
0000
0000
0001
0000
0000
0000
0001
0000
0000
0000
,
0000
0010
0100
0010
,
0000
0001
0000
1000
,
0000
0010
0100
0010
,
0000
1000
0000
1001
,
0000
0001
0000
1001
,
0000
0010
0000
0110
,
0000
0100
0000
0110
,
2002
0000
0000
3003
,
0001
0001
1000
1000
,
0010
0000
0010
0010
0000
0000
0100
0000
,
0010
0010
0000
0010
0010
0000
1001
0000
,
1000
1000
1000
0000
,
0001
0001
0001
0000
,
0010
0010
0010
0000
,
0100
0100
0100
0000
,
1000
0001
1000
0000
,
0001
1000
0001
0000
,
1001
0000
0110
0000
,
1001
0000
1001
0000
0002
0003
1000
0000
,
0100
1000
0000
0001
,
0100
0001
0000
1000
,
0010
1000
0000
0001
,
0010
0001
0000
1000
,
0001
1000
0000
0010
,
0100
0010
0000
0001
,
1000
0001
0000
0100
,
0010
0100
0000
1000
,
0000
0001
0001
0100
,
0000
1000
1000
0100
,
0000
0001
0001
0010
,
0000
1000
1000
0010
,
1000
0100
0000
0010
,
0001
0100
0000
1001
,
0000
0110
0000
1001
,
0110
1001
0000
0020
,
0000
0000
0000
0000
,
0000
0000
0000
0030
;

//---------------dance-single - dj kaya*-BSP----------------
#NOTEDATA:;
#CHARTNAME:dj kaya*-BSP;
#STEPSTYPE:dance-single;
#DESCRIPTION:dj kaya*-BSP;
#DIFFICULTY:Easy;
#METER:9;
#CREDIT:dj kaya*;
#NOTES:
0000
0000
0000
0000
,
0000
0000
0000
0000
,
1001
1000
0000
1000
,
0001
0100
0000
0100
,
0001
0010
0000
0010
,
0100
1000
0000
1000
,
0001
0101
0001
0101
,
0010
0010
0010
0010
,
1000
0000
0000
0000
0000
0000
1100
0000
0000
0000
1000
0000
,
0010
0000
0100
0000
0010
0000
0100
0000
0010
0000
2000
0000
,
0002
0000
0000
3003
,
0001
0000
0101
0000
0000
0001
1000
0000
,
0010
0000
1010
0000
0000
0010
1000
0000
,
0100
0000
0000
0000
0110
0000
0000
0000
0001
0000
0000
1000
0000
0000
0001
0000
,
0200
0000
0000
0300
0000
0000
0000
0000
1001
0000
0000
0000
0000
0000
0000
0000
,
0020
0000
0000
0030
0000
0000
0000
0000
1001
0000
0000
0000
0000
0000
0000
0000
,
0200
0000
0000
0300
0000
0000
0000
0000
1001
0000
0000
0000
0000
0000
0000
0000
,
2000
0000
3000
0000
1000
0000
0002
0000
0003
0000
0001
0000
,
0020
0000
0000
0030
0000
0000
0000
0000
1100
0000
0000
0000
0000
0000
0000
0000
,
0020
0000
0000
0030
0000
0000
0000
0000
0101
0000
0000
0000
0000
0000
0000
0000
,
0002
0000
0000
0003
0000
0000
0000
0000
1100
0000
0000
0000
0000
0000
0000
0000
,
1000
0000
1000
0000
0000
0000
0001
0000
0001
0000
0000
0000
,
0010
0000
0000
0020
0000
0030
0000
0000
1001
0000
0000
0000
0000
0000
0000
0000
,
0100
0000
0000
0200
0000
0300
0000
0000
1001
0000
0000
0000
0000
0000
0000
0000
,
0010
0000
0000
0020
0000
0030
0000
0000
1001
0000
0000
0000
0000
0000
0000
0000
,
1000
0000
0001
0000
1000
0000
0100
0000
0000
0000
0000
0000
,
0010
0000
0010
0000
0010
0000
1001
0000
0000
0000
0000
0000
,
0100
0000
0000
0200
0000
0300
0000
0000
1001
0000
0000
0000
0000
0000
0000
0000
,
1000
0000
0000
2000
0000
0000
3000
0000
0101
0000
0000
0000
0000
0000
0000
0000
,
0001
0000
1000
0000
0001
0000
0000
0000
0000
0110
0000
0000
,
2002
3003
0001
0100
,
1000
0000
1000
0100
0001
0000
0110
0000
,
2002
3003
1000
0100
,
0001
0000
0001
0100
1000
0000
0110
0000
,
2002
3003
0001
0010
,
1000
0000
1000
0010
0001
0000
0110
0000
,
2002
3003
1000
0020
,
0000
0000
0030
0000
0100
0001
0100
0000
,
0001
0010
1000
0010
,
0001
0000
2000
0000
3010
1000
0010
0000
,
0100
0000
1000
0000
0100
0000
0001
1000
,
0001
0000
0000
2200
0000
3300
0000
0000
0000
0022
0000
0033
,
0000
0000
0000
2020
0000
3030
0000
0000
0000
0202
0000
0303
,
0000
0000
0000
2002
0000
3003
0000
0000
0000
0220
0000
0330
,
0000
0000
0000
1000
0000
0010
0000
0100
0000
0001
0000
0000
,
2000
0001
0000
0100
,
0000
0010
0000
3001
,
0002
1000
0000
0100
,
0000
0010
0000
1003
,
0001
0010
0100
1000
,
0100
0000
0010
0000
0001
1000
0001
0000
,
1000
0010
0100
0001
,
0100
0000
0010
0000
1000
0001
1000
0000
,
0001
0000
0010
0000
1000
0010
0001
0000
,
1000
0000
0010
0000
0001
0010
1000
0000
,
0220
0330
2002
3003
,
1000
0100
0010
0001
0000
0000
1200
0000
,
0000
0000
0301
0100
1000
0002
0000
0000
,
0000
0000
0103
1000
0100
0020
0000
0000
,
0000
0000
0031
0010
1000
0002
0000
0000
,
0023
0230
2300
3002
,
0000
0000
0013
1000
0010
0002
0000
0000
,
0000
0000
0013
0200
0000
1300
0002
0000
,
0000
0000
0103
0010
1000
0001
0100
0000
,
0110
0000
0000
1010
0000
0000
0101
0000
0000
0001
0000
0002
,
0000
0000
0000
1003
0000
2000
0000
0000
0000
3010
0000
0020
,
0000
0000
0000
0130
0000
0200
0000
0000
0000
0301
0000
0002
,
0000
0000
0000
1003
0000
2000
0000
0000
0000
3100
0000
0200
,
0000
0000
0000
0310
0000
0020
0000
0000
0000
0031
0000
0010
,
0000
0100
0000
1000
0000
1000
0000
1000
0000
0001
0000
0100
,
0000
0010
0000
1000
0000
1000
0000
1000
0000
0001
0000
0010
,
0000
0100
0000
1000
0000
0100
0000
0010
0000
0001
0000
1000
,
0000
0001
0000
1000
0000
0001
0000
1000
0000
0001
0000
0000
;

//---------------dance-single - Marten-DSP----------------
#NOTEDATA:;
#CHARTNAME:Marten-DSP;
#STEPSTYPE:dance-single;
#DESCRIPTION:Marten-DSP;
#DIFFICULTY:Medium;
#METER:11;
#CREDIT:Marten;
#NOTES:
0000
0000
0000
0000
,
0000
0000
0000
0000
,
1010
0000
1000
0000
1000
0100
0010
0000
,
0011
0000
0001
0100
0000
0001
1000
0000
,
1100
0000
1000
0000
0100
0010
0001
0000
,
0101
0000
0001
0100
0000
0100
0010
1000
,
0001
1001
1001
1001
,
1000
0100
0000
0100
0000
0100
0000
0100
,
0010
0000
0001
0000
0010
0000
0001
0000
0010
0000
0001
0000
,
0100
0000
0100
0000
0100
0000
0010
0000
0010
0000
0010
0000
,
0220
0000
0000
0330
,
0010
0000
1001
0000
0001
0010
0100
0000
,
1100
0000
0100
0000
1000
0001
0100
0000
,
0010
0000
0000
0000
0010
0000
1000
0000
0010
0000
0000
0010
0000
0000
0010
0000
,
2000
0000
0000
0000
0000
0000
0000
0000
3100
0000
0000
0100
0000
0000
0100
0000
,
2000
0000
0000
0000
0000
0000
0000
0000
0000
0000
0000
0000
3010
0000
0000
0000
0010
0000
0000
0000
0000
0100
0000
0000
,
0002
0000
0000
0000
0000
0000
0000
0000
0103
0000
0000
0100
0000
0000
0100
0000
,
0001
0000
0010
0000
0100
0000
1000
0000
0010
0000
0100
0000
,
0002
0000
0000
0000
0000
0000
0000
0000
0013
0000
0000
0010
0000
0000
0010
0000
,
0002
0000
0000
0000
0000
0000
0000
0000
0000
0000
0000
0000
0103
0000
0000
0000
0100
0000
0000
0000
0000
0010
0000
0000
,
2000
0000
0000
0000
0000
0000
0000
0000
3100
0000
0000
0100
0000
0000
0100
0000
,
1000
0000
0010
0000
0100
0000
0001
0000
0010
0000
0100
0000
,
1000
0000
0000
0001
0000
1000
0000
0000
0010
0000
0000
0010
0000
0000
0100
0000
,
0001
0000
0000
1000
0000
0001
0000
0000
0010
0000
0000
0010
0000
0000
0100
0000
,
1000
0000
0000
0001
0000
1000
0000
0000
0010
0000
0000
0010
0000
0000
0100
0000
,
0001
0000
0100
0000
0010
0000
1000
0000
0100
0000
0010
0000
,
0001
0000
0000
0000
0000
0000
0000
0000
0100
0000
0000
0000
0000
0000
0000
0000
0100
0000
0000
0000
0000
0000
0000
0000
0010
0000
0000
0000
0000
0000
0000
0000
0000
0100
0000
0000
0000
0000
0000
0000
0000
0000
0001
0000
0000
0000
0000
0000
,
1000
0000
0000
0100
0000
0100
0000
0000
0010
0000
0000
0100
0000
0000
1000
0000
,
0001
0000
0000
0010
0000
0000
0010
0000
0100
0000
0000
0010
0000
0000
0001
0000
,
1000
0000
0010
0000
0100
0000
0002
0000
0000
1003
0000
0000
,
0010
0000
2000
0000
0000
3002
0000
0000
0023
0000
0000
0000
0031
0000
0010
0000
,
0100
0000
1000
0000
0000
0100
0000
0000
1000
0000
0000
0000
0001
0000
0000
0000
,
0010
0000
0002
0000
0000
2003
0000
0000
3020
0000
0000
0000
1030
0000
0010
0000
,
0100
0001
0000
0100
0001
0010
0100
0000
,
1000
0000
0200
0000
0000
2300
0000
0000
3002
0000
0000
0000
0103
0000
0010
0000
,
1000
0000
0010
0000
0000
0100
0000
0000
0001
0000
0000
0000
0010
0000
0000
0000
,
0001
0000
0000
0000
0200
0000
0000
0000
0000
0000
0302
0000
0000
0000
0000
0000
2003
0000
0000
0000
0000
0000
0000
0000
3200
0300
0000
0000
0000
0000
0220
0330
,
0000
0000
2002
3003
0000
0000
0220
0330
0000
0000
0000
0000
0000
0000
0000
0000
1000
0000
0000
0000
0001
0000
0000
0000
0100
0000
0000
0000
0000
0000
0100
0000
,
0000
0000
0100
0000
0010
0000
1000
0000
0001
0000
1000
0000
0100
0000
0000
0100
,
0000
0000
0100
0000
0010
0000
0000
0000
0001
0000
1000
0000
0010
0000
0000
0010
,
0000
0000
0010
0000
1000
0000
0100
0000
0010
0000
0001
0000
0010
0000
0000
0010
,
0000
0000
0000
0001
0000
0000
1000
0000
0000
0000
0010
0000
0000
0000
0010
0000
0000
0000
0100
0000
0000
0000
0010
0000
,
0000
0010
0000
1000
0000
0100
0000
0100
0000
0010
0000
0001
,
0000
1000
0000
0001
0000
0100
0000
0100
0000
0010
0000
0100
,
0000
0100
0000
0001
0000
0010
0000
0010
0000
0100
0000
0000
,
1100
0000
1000
0001
0000
0100
0001
0000
,
0101
0000
0001
1000
0000
0100
0010
0001
,
0010
0000
0000
0000
0010
0000
0010
0010
0000
0000
0100
0000
1000
0000
0000
0000
,
0010
0000
0010
0000
0000
0010
0000
0000
0100
0000
0010
0000
1001
0000
0000
0000
,
1010
0000
0101
0000
0010
1000
0100
0000
,
0011
0000
1100
0000
0010
0001
0100
0000
,
0101
0000
1010
0000
0100
0001
0010
0000
,
1100
0000
0011
0000
0100
1000
0010
0000
,
1000
0010
0100
0000
0001
0010
0100
0000
,
1000
0100
0001
0000
1000
0010
0001
0000
,
1001
0000
0000
0001
0000
0000
0010
0000
0110
0000
0000
0100
0000
0000
1000
0000
,
1100
0000
0000
0000
0011
0000
0000
0000
2001
0000
0000
0000
3001
0000
0000
0010
,
0000
0000
0100
0000
1000
0000
0000
0001
0000
0000
1000
0000
1000
0000
0000
0010
,
0000
0000
0100
0000
0001
0000
0000
1000
0000
0000
0001
0000
0001
0000
0000
0100
,
0000
0000
0010
0000
1000
0000
0000
0001
0000
0000
1000
0000
1000
0000
0000
0100
,
0000
0000
0010
0000
0001
0000
0000
1000
0000
0000
0001
0000
0010
0000
0000
0001
,
0000
0000
0100
0000
0010
0000
0000
0010
0000
0000
1000
0000
0010
0000
0000
1000
,
0000
0000
0100
0000
0010
0000
0000
0010
0000
0000
0001
0000
0100
0000
0000
0001
,
0000
0000
0010
0000
0100
0000
0000
0100
0000
0000
1000
0000
0100
0000
0000
1000
,
0000
0000
0000
0000
0000
0000
0010
0000
0000
0000
0000
0000
0100
0000
0000
0000
0000
0000
0000
0000
0000
0100
0000
0000
0000
0000
0000
0000
0000
0000
0001
0000
0000
0000
0000
0000
1000
0000
0000
0000
0000
0000
0000
0000
1010
0000
0000
0000
,
0000
0000
0000
1000
0000
0001
0000
0010
0000
0001
0000
0011
,
0000
0000
0000
0001
0000
0100
0000
0001
0000
1000
0000
1100
,
0000
0000
0000
1000
0000
0100
0000
1000
0000
0001
0000
0101
,
0000
0000
0000
0001
0000
0100
0000
0010
0000
1010
0000
0000
,
0101
0000
0000
1001
0000
0000
1000
0100
1000
0100
0000
0000
,
1100
0000
0000
1001
0000
0000
0001
0100
0001
0100
0000
0100
,
0010
0000
0010
1000
0000
1000
0100
0000
0100
0010
0001
0010
,
0001
0000
0000
1000
0001
1000
0001
1000
0001
1000
0000
0000
,
0010
0000
0100
0001
1000
0000
0001
0001
,
0010
0000
0100
1000
0001
0000
0000
0000
;

//---------------dance-single - dj kaya*-ESP----------------
#NOTEDATA:;
#CHARTNAME:dj kaya*-ESP;
#STEPSTYPE:dance-single;
#DESCRIPTION:dj kaya*-ESP;
#DIFFICULTY:Hard;
#METER:15;
#CREDIT:dj kaya*;
#NOTES:
0000
0000
0000
0000
,
0000
0000
0000
0000
,
1010
0000
0001
0000
1000
0100
0010
0000
,
1001
0000
1000
0010
0100
0010
1000
0000
,
0110
0000
1000
0000
0001
0100
0010
0000
,
1001
0000
0001
0010
0100
0010
0001
1000
,
0001
0110
1000
0110
,
0001
0000
0000
0001
0010
0000
0001
0000
1000
0000
0000
1000
0010
0000
1000
0000
,
0001
0000
0100
0000
0110
0000
1000
0000
0100
0000
0110
0000
,
0002
0000
2003
0000
3002
0000
0103
0010
0100
0010
0100
0010
,
1000
0000
0000
0000
0100
0000
0000
0000
0010
0000
0000
0000
0001
0000
0000
0000
0100
0000
0000
0000
0010
0000
0000
0000
1000
0000
0000
0001
0000
0000
1000
0000
0000
0001
0000
0000
1000
0000
0000
0001
0000
0000
1000
0000
0000
0001
0000
0000
,
1000
0000
0000
0000
1100
0000
0001
1000
0000
0100
1000
0000
0010
0000
0100
0000
,
0001
0000
0000
0000
0011
0000
1000
0001
0000
0010
0001
0000
0100
0000
0010
0000
,
1000
0000
0000
0001
0000
0010
0100
0010
1000
0000
0000
0010
0000
0000
0001
0000
,
0201
0000
0000
1000
0000
0301
0000
0000
0010
0000
0000
0010
0000
0000
0100
0000
,
1200
0000
0000
0000
0000
0000
0000
0000
0000
0001
0000
0000
0000
0000
0000
1300
0000
0000
0000
0000
0000
0000
0000
0000
0010
0000
0000
0000
0000
0000
0000
0000
0010
0000
0000
0000
0000
0000
0000
0000
0000
0000
0010
0000
0000
0000
0000
0000
,
0201
0000
0000
1000
0000
0301
0000
0000
0010
0000
0000
0100
0000
0100
1000
0010
,
0200
0000
0000
0000
0000
0000
0000
0000
1000
0000
0000
0000
0000
0000
0000
0000
0301
0000
0000
0000
0010
0000
0000
0000
0200
0000
0000
0000
0000
0000
0000
0000
0000
0001
0000
0000
0000
0000
0000
0000
1300
0000
0000
0000
0000
0000
0000
0000
,
1020
0000
0000
0000
0000
0000
0000
0000
0001
0000
0000
0000
0000
0000
0000
1030
0000
0000
0000
0000
0000
0000
0000
0000
0010
0000
0000
0000
0000
0000
1000
0000
0000
0010
0000
0000
0000
0000
0000
0010
0000
0000
0100
0000
0000
0010
0000
0000
,
0002
0000
0000
0000
0000
0000
0000
0000
0000
0013
0000
0000
0000
0000
0000
2000
0000
0000
0000
0000
0000
0000
0000
0000
3100
0000
0000
0000
0000
0000
0000
0000
0100
0000
0000
0000
0000
0000
0000
0000
0000
0000
0100
0000
0000
0000
0000
0000
,
0021
0000
0000
1000
0000
0000
0031
0000
0100
0000
0000
0010
0000
0010
1000
0001
,
0020
0000
1000
0000
0031
1000
0020
0000
0001
0000
1030
0000
,
1001
0000
0000
1000
0000
0010
0000
0000
0210
0000
0000
1000
0000
0000
0301
0000
,
1001
0000
0000
0001
0000
0010
0000
0000
0210
0000
0000
0001
0000
0000
1300
0000
,
1001
0000
0000
1000
0000
0010
0000
0000
0210
0000
0000
1000
0000
0000
0301
0000
,
0001
0010
0001
0010
0001
0010
0100
0000
1000
0000
0010
0010
,
0100
0000
0001
0000
0100
0000
0010
0000
1000
0000
0001
0000
2002
0000
0000
0000
0000
0000
3003
0000
0000
1000
0000
0000
,
0001
0000
0000
0010
0000
0010
1000
0000
1020
0000
0000
0100
0000
0000
0031
0000
,
1000
0000
0000
0010
0000
0010
0001
0000
0021
0000
0000
0100
0000
0000
1030
0000
,
0001
0000
0000
0000
0000
0000
0000
0000
1000
0000
0000
0000
0000
0000
0000
0000
0001
0000
0000
0000
0000
0000
0000
0000
1000
0000
0000
0000
0000
0000
0000
0000
0001
0000
0000
0000
0000
0000
0000
0000
1000
0000
0000
0000
0000
0000
0000
0000
0000
0000
0000
0000
0000
0000
0001
0000
0000
0000
0000
0000
0010
0000
0000
0100
0000
0000
0000
0000
0000
0000
0000
0000
1000
0000
0000
0000
0000
0000
0000
0000
0000
0000
0000
0000
0000
0000
0000
0000
0000
0000
0000
0000
0000
0000
0000
0000
,
0200
0000
0001
0000
0000
0010
0000
0000
1300
0000
0000
0000
0001
0000
1000
0000
,
0010
0000
0100
1000
0000
1000
0100
0000
0010
0000
1000
0000
0001
0000
0000
0000
,
0200
0000
1000
0000
0000
0010
0000
0000
0301
0000
0000
0000
1000
0000
0001
0000
,
0010
0000
0100
0001
0000
0001
0100
0000
0010
0100
0000
0000
1000
0000
0000
0000
,
0020
0000
0001
0000
0000
0100
0000
0000
1030
0000
0000
0000
0001
0000
1000
0000
,
0100
0000
0010
1000
0000
1000
0010
0000
0100
0000
1000
0000
0001
0000
0000
0000
,
0020
0000
0000
0000
1000
0000
0000
0000
0000
0000
0100
0000
0000
0000
0000
0000
0031
0000
0000
0000
0000
0000
0000
0000
2002
3003
2020
3030
0000
0000
0202
0303
,
0000
0000
2200
3300
0000
0000
0022
0033
0000
0000
0000
0000
0000
0000
0000
0000
1000
0000
0000
0000
0001
0000
0000
0000
1000
0000
0000
0000
0100
0000
1000
0000
,
0100
0000
0010
0000
0001
0000
0100
0001
0100
0000
0010
0000
1000
0000
0001
0000
,
0010
0000
0100
0000
0020
0000
0000
0000
0031
1000
0001
1000
0001
0000
0010
0001
,
0010
0000
0100
0000
1000
0000
0010
1000
0010
0000
0100
0000
0001
0000
1000
0000
,
1001
0000
0000
0011
0000
0001
1000
0001
0000
0101
0000
0001
,
1000
0010
0000
1010
0000
1000
0010
1000
0000
1001
0000
1000
,
0100
0010
0000
0110
0000
0010
0001
1000
0000
1001
0000
0001
,
0100
0010
1000
0001
1000
0001
1000
0001
1000
0000
0000
0000
,
1000
0000
0000
1000
0100
0000
0001
0000
0000
0000
0100
0000
1000
0000
0000
0000
,
0001
0000
0000
0001
0100
0000
1000
0000
0000
0000
0100
0000
0001
0000
0000
0000
,
0010
0000
0000
0000
0010
0000
0010
0010
0100
0000
0001
0000
0100
0000
1000
0000
,
0001
1000
0001
0000
0000
0001
0000
0000
0100
0000
0000
0000
0110
0000
0000
0000
,
1000
0001
1000
0000
0100
0000
0010
0000
1000
0000
0001
0000
0100
0000
0010
0000
,
0001
0000
1000
0000
0010
0000
0100
0000
0002
0000
0010
0003
2000
0000
0010
3000
,
0001
1000
0001
0000
0100
0000
0010
0000
0001
0000
1000
0000
0100
0000
0010
0000
,
1000
0000
0001
0000
0010
0000
0100
0000
2000
0000
0010
3000
0002
0000
0010
0003
,
1000
0001
0100
0000
0010
0000
0100
0000
1000
0000
0001
0000
0010
0000
0100
0000
,
0001
1000
0100
0000
0010
0000
0100
0000
0001
0000
1000
0000
0010
0000
0100
0000
,
0010
0001
1000
0000
0001
0000
0100
0000
0010
1000
0001
0000
1000
0000
0100
0000
,
0010
0001
1000
0001
0100
0010
1000
0100
0000
0000
0000
0000
0021
0000
0000
1000
,
0000
0000
1030
0000
0001
0100
0000
1000
0000
1000
0001
0100
0020
0000
0000
0001
,
0000
0000
0031
0000
1000
0100
0000
0001
0000
0001
0010
0000
0021
0000
0000
1000
,
0000
0000
1030
0000
0001
0100
0000
1000
0000
1000
0001
0100
0020
0000
0000
0001
,
0000
0000
0031
0000
1000
0100
0000
0001
0000
0001
1000
0001
0200
0000
0000
1000
,
0000
0000
1300
0000
0001
0010
0000
1000
0000
1000
0001
1000
0200
0000
0000
0001
,
0000
0000
0301
0000
1000
0010
0000
0001
0000
0001
0100
0000
0201
0000
0000
1000
,
0000
0000
1300
0000
0001
0010
0000
1000
0000
1000
0100
0010
0001
0000
0000
0000
,
1001
0000
0000
0110
0000
0000
1001
0000
0000
2001
0000
3100
,
0000
0001
0200
1000
0000
0310
0000
0010
0002
1000
0000
0103
,
0000
1000
0200
0001
0000
0310
0000
0100
0002
1000
0000
0013
,
0000
1000
0020
0001
0000
0130
0000
0100
2000
0001
0000
3010
,
0000
0000
0001
0000
0010
0000
1000
0000
0100
0000
0010
0000
0000
0000
0001
0000
1000
0000
0010
0100
0010
0000
0100
0000
,
0001
0000
0010
0000
0100
0000
1000
0000
0000
0000
1001
0000
0000
0000
1000
0000
0001
0000
0010
0100
0010
0000
0100
0000
,
1000
0000
0010
0000
0100
0000
0001
0000
0000
0000
1001
0000
0000
0000
1000
0000
0001
0000
0100
0010
0100
0000
0010
0000
,
1000
0000
0001
0000
1000
0000
0100
0010
0100
0000
0010
0000
0001
0000
0100
0000
0010
0000
0001
0000
0010
0000
1000
0000
,
0001
0000
0010
0000
0100
0000
1000
0000
0100
0000
0001
0000
1000
0000
0010
0000
0100
0000
1000
0000
0000
1000
0000
0000
,
0100
0000
0001
0100
1000
0000
0001
0001
,
0100
0000
1000
0100
0001
0000
0000
0000
;

//---------------dance-double - dj kaya*-BDP----------------
#NOTEDATA:;
#CHARTNAME:dj kaya*-BDP;
#STEPSTYPE:dance-double;
#DESCRIPTION:dj kaya*-BDP;
#DIFFICULTY:Easy;
#METER:9;
#CREDIT:dj kaya*;
#NOTES:
00000000
00000000
00000000
00000000
,
00000000
00000000
00000000
00000000
,
10000000
00000000
00100000
00000000
01000000
00010000
01000000
00000000
,
00100000
00010000
00001000
00000010
,
00000100
00000000
00001000
00000000
00000010
00000100
00000010
00000000
,
00010000
00001000
00000010
00000001
,
00000100
00011000
01000000
00011000
,
00000010
00010000
00001000
00100000
,
20020000
00000000
30030000
00000000
00000000
00000000
02200000
00000000
03300000
00000000
00000000
00000000
,
10000000
00000000
01000000
00000000
00010000
00000000
00001000
00000000
00000100
00000000
00000002
00000000
,
00002000
00000000
00000000
00003003
,
00000001
00000000
00001000
00000000
00000100
00010000
00000100
00000000
,
00011000
00001000
01000000
00100000
,
10000000
00000000
00000000
00000000
00010000
00000000
10000000
00000000
01000000
00000000
00000000
01000000
00000000
00000000
01000000
00000000
,
00220000
00000000
00000000
00330000
00000000
00000000
00000000
00000000
00000100
00000000
00000000
00000000
00000000
00000000
00000000
00000000
,
00002020
00000000
00000000
00003030
00000000
00000000
00000000
00000000
01000000
00000000
00000000
00000000
00000000
00000000
00000000
00000000
,
02020000
00000000
00000000
03030000
00000000
00000000
00000000
00000000
00000010
00000000
00000000
00000000
00000000
00000000
00000000
00000000
,
00002020
00000000
00000000
00000000
00003030
00000000
00010000
00000000
00001000
00000000
00010000
00000000
,
00001000
00000000
01000000
00000000
,
00202000
00000000
00000000
00303000
00000000
00000000
00000000
00000000
00000100
00000000
00000000
00000000
00000000
00000000
00000000
00000000
,
00020020
00000000
00000000
00030030
00000000
00000000
00000000
00000000
01000000
00000000
00000000
00000000
00000000
00000000
00000000
00000000
,
02002000
00000000
00000000
00000000
03003000
00000000
00010000
00000000
00000010
00000000
00010000
00000000
,
00001000
00000000
00022000
00033000
,
01000000
00000000
00000000
00001000
00000000
00000000
00000000
00000000
00022000
00000000
00000000
00000000
00033000
00000000
00000000
00000000
,
00000100
00000000
00000000
00010000
00000000
00000000
00000000
00000000
00022000
00000000
00000000
00000000
00033000
00000000
00000000
00000000
,
00010000
00000000
01000000
00000000
00100000
00000000
00001000
00000000
00000000
00000000
00000000
00000000
,
00001000
00000000
00000100
00000000
00000010
00000000
00001000
00000000
00000000
00000000
00000000
00000000
,
00000010
00000000
00000000
00010000
00000000
00000000
00000000
00000000
00022000
00000000
00000000
00000000
00033000
00000000
00000000
00000000
,
00100000
00000000
00000000
00001000
00000000
00000000
00000000
00000000
00022000
00000000
00000000
00000000
00033000
00000000
00000000
00000000
,
00010000
00000000
00001000
00000000
00010000
00000000
00001000
00000000
00000000
00000000
00000000
00000000
,
00010100
00000100
00010000
01000000
,
00010000
00000000
00000100
00000000
00010000
00001000
00020000
00000000
,
00130000
00010000
00000010
00010000
,
00100000
00000000
00010000
00000000
00001000
00010000
00002000
00000000
,
00003100
00000010
00010000
00000010
,
00000100
00000000
00000010
00000000
00010000
00001000
00020000
00000000
,
01030000
00100000
00001000
02000000
,
00000000
03000000
10010000
10010000
,
01000000
00001000
00010000
00000100
,
00010000
00001000
00010000
00000000
00011000
00000000
00011000
00000000
,
00000010
00000000
00001000
00000000
00000001
00000000
00001000
00000001
,
00001000
00020200
00030300
02002000
,
03003000
00020020
00030030
00202000
,
00303000
00020200
00030300
02020000
,
03030000
00000000
00000000
01000000
00000000
00010000
00000000
10000000
00000000
00000000
00000000
00000000
,
20020000
00000000
00000000
00000000
,
30030000
00000000
00000000
00000000
,
10000000
01000000
00010000
00000000
00001000
00000100
00000001
00000000
,
00000001
00000010
00001000
00000000
00011000
00000000
00110000
00000000
,
00001100
00000100
00010000
00000100
,
00000010
00000100
00010000
00001000
,
00101000
00100000
00001000
00100000
,
01000000
00100000
00001000
00010000
,
00010010
00000010
00010000
00001000
,
00101000
00100000
00001000
00010000
,
00010010
00001000
00101000
00001000
,
00010000
00001000
00000100
00000010
00001000
00000000
00000002
00000000
,
00000000
00000000
00000013
00000100
00000010
00002000
00000000
00000000
,
00000000
00000000
00013000
00001000
00010000
02000000
00000000
00000000
,
00000000
00000000
03100000
01000000
00100000
00020000
00000000
00000000
,
20030000
30200000
02300000
03020000
,
00000000
00000000
10030000
01000000
00100000
00020000
00000000
00000000
,
00000000
00000000
00000000
02030000
00000000
00000000
03002000
00000000
,
00000000
00000000
00013000
00000010
00001000
00000010
00000100
00000000
,
00001001
00000000
00000000
00000110
00000000
00000000
00001001
00000000
00000000
00000002
00000000
00001003
,
00000000
00000000
00000000
00020000
00000000
10030000
00000000
00000000
00000000
20000000
00000000
30010000
,
00000000
00000000
00000000
00002000
00000000
00003001
00000000
00000000
00000000
00000002
00000000
00001003
,
00000000
00000000
00000000
00020000
00000000
10030000
00000000
00000000
00000000
20000000
00000000
30010000
,
00000000
00000000
00000000
00002000
00000000
00003001
00000000
00000000
00000000
00000001
00000000
00000001
,
00000000
00000001
00000000
00000200
00000000
00001300
00000000
00000000
00000000
00010000
00000000
00010000
,
00000000
00010000
00000000
02000000
00000000
13000000
00000000
00000000
00000000
10000000
00000000
10000000
,
00000000
10000000
00000000
00010000
00000000
00010000
00000000
00010000
00000000
00001000
00000000
00001000
,
00000000
00001000
00000000
00000001
00000000
00000001
00000000
00000001
00000000
00000000
00000000
00000000
;

//---------------dance-double - Marten-DDP----------------
#NOTEDATA:;
#CHARTNAME:Marten-DDP;
#STEPSTYPE:dance-double;
#DESCRIPTION:Marten-DDP;
#DIFFICULTY:Medium;
#METER:12;
#CREDIT:Marten;
#NOTES:
00000000
00000000
00000000
00000000
,
00000000
00000000
00000000
00000000
,
00000011
00000000
00000001
00000000
00000100
00000010
00001000
00000000
,
00010010
00000000
00001000
01000000
00000000
00100000
10000000
00000000
,
10100000
00000000
10000000
00000000
01000000
00100000
00010000
00000000
,
00101000
00000000
00010000
00000100
00000000
00000100
00001000
00000100
,
00010000
00011000
00011000
00011000
,
00001000
01000000
00000000
00001000
00010000
00000100
00000000
00010000
,
00001000
00000000
00001000
00000000
00001000
00000000
00010000
00000000
00010000
00000000
00010000
00000000
,
00000010
00000000
00000100
00000000
00000010
00000000
00000100
00000000
00000001
00000000
00001000
00000000
,
00000002
00000000
00000000
00000003
,
00001001
00000000
00000001
00000000
00000100
00000010
00001000
00000000
,
00001100
00000000
00010000
00001000
00000000
01000000
00010000
10000000
,
00100000
00000000
00000000
00000000
10000000
00000000
01000000
00000000
00100000
00000000
00000000
00100000
00000000
00000000
00100000
00000000
,
00220000
00000000
00000000
00000000
00330000
00000000
00000000
00000000
00000010
00000000
00000000
00000010
00000000
00000000
00000010
00000000
,
00002020
00000000
00000000
00000000
00000000
00000000
00003030
00000000
00000000
00000000
00000000
00000000
01000000
00000000
00000000
00000000
01000000
00000000
00000000
00000000
00000000
01000000
00000000
00000000
,
02020000
00000000
00000000
00000000
03030000
00000000
00000000
00000000
00000100
00000000
00000000
00000100
00000000
00000000
00000100
00000000
,
00001000
00000000
00000100
00000000
00000010
00000000
00000001
00000000
00000100
00000000
00000010
00000000
,
00002020
00000000
00000000
00000000
00003030
00000000
00000000
00000000
00100000
00000000
00000000
00100000
00000000
00000000
00100000
00000000
,
00220000
00000000
00000000
00000000
00000000
00000000
00330000
00000000
00000000
00000000
00000000
00000000
00000100
00000000
00000000
00000000
00000100
00000000
00000000
00000000
00000000
00000100
00000000
00000000
,
00002200
00000000
00000000
00000000
00003300
00000000
00000000
00000000
01000000
00000000
00000000
01000000
00000000
00000000
01000000
00000000
,
00010000
00000000
00100000
00000000
01000000
00000000
10000000
00000000
00100000
00000000
01000000
00000000
,
00010000
00000000
00000000
01000000
00000000
00001000
00000000
00000000
00000010
00000000
00000000
00000010
00000000
00000000
00000001
00000000
,
00001000
00000000
00000000
00000100
00000000
00010000
00000000
00000000
00100000
00000000
00000000
00100000
00000000
00000000
10000000
00000000
,
00010000
00000000
00000000
01000000
00000000
00001000
00000000
00000000
00000010
00000000
00000000
00000010
00000000
00000000
00000010
00000000
,
00000001
00000000
00000100
00000000
00001000
00000000
00010000
00000000
00100000
00000000
10000000
00000000
,
00010000
00000000
00000000
00000000
00000000
00000000
00000000
00000000
00100000
00000000
00000000
00000000
00000000
00000000
00000000
00000000
00001000
00000000
00000000
00000000
00000000
00000000
00000000
00000000
00000100
00000000
00000000
00000000
00000000
00000000
00000000
00000000
00000000
00000100
00000000
00000000
00000000
00000000
00000000
00000000
00000000
00000000
00000001
00000000
00000000
00000000
00000000
00000000
,
00001000
00000000
00000000
00000010
00000000
00010000
00000000
00000000
01000000
00000000
00000000
01000000
00000000
00000000
10000000
00000000
,
00010000
00000000
00000000
00100000
00000000
00000000
00001000
00000000
00000100
00000000
00000000
00000100
00000000
00000000
00000001
00000000
,
00001000
00000000
00000100
00000000
00000010
00000000
00000002
00000000
00000000
00000103
00000000
00000000
,
00000001
00000000
00000020
00000000
00000000
00000032
00000000
00000000
00002003
00000000
00000000
00000000
00003010
00000000
00010000
00000000
,
00000100
00000000
00000010
00000000
00000000
00000100
00000000
00000000
00001000
00000000
00000000
00000000
01000000
00000000
00000000
00000000
,
10000000
00000000
00200000
00000000
00000000
20300000
00000000
00000000
30020000
00000000
00000000
00000000
00130000
00000000
00001000
00000000
,
01000000
00100000
00000000
01000000
00001000
00010000
00000100
00000000
,
00000010
00000000
00000002
00000000
00000000
00002003
00000000
00000000
00003200
00000000
00000000
00000000
00000310
00000000
00000100
00000000
,
00010000
00000000
00000010
00000000
00000000
00010000
00000000
00000000
01000000
00000000
01000000
00000000
10000000
00000000
00000000
00000000
,
00100000
00000000
00000000
00000000
20000000
00000000
00000000
00000000
00000000
00000000
30020000
00000000
00000000
00000000
00000000
00000000
02030000
00000000
00000000
00000000
00000000
00000000
00000000
00000000
03200000
00300000
00000000
00000000
00000000
00000000
02002000
03003000
,
00000000
00000000
00020200
00030300
00000000
00000000
00000000
00000000
00000100
00000000
00000000
00000000
00000000
00000000
00000000
00000000
00000010
00000000
00000000
00000000
00000001
00000000
00000000
00000000
00000010
00000000
00000000
00000000
00000000
00000000
00000010
00000000
,
00000000
00000000
00000010
00000000
00000001
00000000
00000100
00000000
00000010
00000000
00010000
00000000
00000100
00000000
00000000
00010000
,
00000000
00000000
00001000
00000000
01000000
00000000
00000000
00000000
00100000
00000000
10000000
00000000
00100000
00000000
00000000
00100000
,
00000000
00000000
00100000
00000000
10000000
00000000
01000000
00000000
00100000
00000000
00001000
00000000
01000000
00000000
00000000
00001000
,
00000000
00000000
00000000
00010000
00000000
00000000
00000100
00000000
00000000
00000000
00000010
00000000
00000000
00000000
00000001
00000000
00000000
00000000
00000100
00000000
00000000
00000000
00000010
00000000
,
00000000
00010000
00000000
01000000
00000000
10000000
00000000
00100000
00000000
01000000
00000000
00010000
,
00000000
00100000
00000000
00001000
00000000
00000010
00000000
00000001
00000000
00000100
00000000
00001000
,
00000000
00010000
00000000
00100000
00000000
10000000
00000000
01000000
00000000
00100000
00000000
00000000
,
10010000
00000000
00010000
01000000
00000000
00001000
00010000
00000000
,
00001001
00000000
00001000
00000100
00000000
00010000
00001000
00000000
,
00100000
00000000
00000000
00000000
00100000
00000000
00100000
00100000
00000000
00000000
01000000
00000000
10000000
00000000
00000000
00000000
,
00100000
00000000
00100000
00000000
00000000
00100000
00000000
00000000
01000000
00000000
00100000
00000000
10010000
00000000
00000000
00000000
,
10100000
00000000
01010000
00000000
00100000
10000000
01000000
00000000
,
00110000
00000000
01010000
00000000
00001000
00010000
00000100
00000000
,
00000011
00000000
00001100
00000000
00000010
00000001
00000100
00000000
,
00001010
00000000
00001100
00000000
00010000
00001000
01000000
00000000
,
00100000
10000000
00010000
00000000
00100000
00001000
01000000
00000000
,
00001000
00010000
00000010
00000000
00000100
00000010
00010000
00000000
,
00001000
00010000
00100000
00010000
00001000
00000010
00001000
00010000
,
00001000
00000000
00000000
00000000
00010000
00000000
00000000
00000000
00012000
00000000
00000000
00000000
01003000
00000000
00000000
00100000
,
00000000
00000000
10000000
00000000
01000000
00000000
00000000
01000000
00000000
00000000
01000000
00000000
00100000
00000000
00000000
00010000
,
00000000
00000000
01000000
00000000
00001000
00000000
00000000
00001000
00000000
00000000
00000010
00000000
00000100
00000000
00000000
00000010
,
00000000
00000000
00000001
00000000
00000100
00000000
00000000
00000100
00000000
00000000
00000100
00000000
00000010
00000000
00000000
00001000
,
00000000
00000000
00000100
00000000
00010000
00000000
00000000
00010000
00000000
00000000
00100000
00000000
01000000
00000000
00000000
00010000
,
00000000
00000000
00100000
00000000
01000000
00000000
00000000
01000000
00000000
00000000
10000000
00000000
01000000
00000000
00000000
00010000
,
00000000
00000000
01000000
00000000
00100000
00000000
00000000
00001000
00000000
00000000
00010000
00000000
00000100
00000000
00000000
00001000
,
00000000
00000000
00000010
00000000
00000100
00000000
00000000
00000100
00000000
00000000
00000001
00000000
00000100
00000000
00000000
00001000
,
00000000
00000000
00000000
00000000
00000000
00000000
00000100
00000000
00000000
00000000
00000000
00000000
00000010
00000000
00000000
00000000
00000000
00000000
00000000
00000000
00000000
00010000
00000000
00000000
00000000
00000000
00000000
00000000
00000000
00000000
00001000
00000000
00000000
00000000
00000000
00000000
01000000
00000000
00000000
00000000
00000000
00000000
00000000
00000000
01100000
00000000
00000000
00000000
,
00000000
00000000
00000000
00100000
00000000
10000000
00000000
01000000
00000000
00100000
00000000
01100000
,
00000000
00000000
00000000
00100000
00000000
00001000
00000000
00010000
00000000
00000100
00000000
00000110
,
00000000
00000000
00000000
00000010
00000000
00000001
00000000
00000100
00000000
00000010
00000000
00000110
,
00000000
00000000
00000000
00000010
00000000
00010000
00000000
00001000
00000000
01000000
00000000
00000000
,
01010000
00000000
00000000
00110000
00000000
00000000
00100000
00001000
00010000
00001000
00000000
00000000
,
00010100
00000000
00000000
00001010
00000000
00000000
00000010
00010000
00001000
00010000
00000000
00001000
,
01000000
00000000
01000000
00100000
00000000
00100000
10000000
00000000
10000000
01000000
00100000
01000000
,
00100000
00000000
00000000
00001000
00010000
00001000
00010000
00001000
00010000
00002000
00000000
00000000
,
00000000
00000000
00003000
00000000
00000000
00000000
00001000
00010000
,
01000000
00000000
00010000
00001000
00000100
00000000
00000000
00000000
;

//---------------dance-double - dj kaya*-EDP----------------
#NOTEDATA:;
#CHARTNAME:dj kaya*-EDP;
#STEPSTYPE:dance-double;
#DESCRIPTION:dj kaya*-EDP;
#DIFFICULTY:Hard;
#METER:16;
#CREDIT:dj kaya*;
#NOTES:
00000000
00000000
00000000
00000000
,
00000000
00000000
00000000
00000000
,
10010000
00000000
10000000
01000000
00010000
00001000
00000010
00000000
,
00011000
00000000
00010000
00001000
00000010
00000001
00000100
00000000
,
00001001
00000000
00000001
00000100
00001000
00010000
00100000
00000000
,
00011000
00000000
00001000
00010000
00100000
10000000
01000000
00010000
,
00002000
00000000
00000000
00003000
00102000
00000000
00000000
00003000
00012000
00000000
00000000
00003000
00002010
00000000
00000000
00000000
,
00003001
00000000
00000000
00000100
00000010
00000000
00001000
00000000
00000001
00000000
00000000
00001000
00000100
00000000
00000100
00000000
,
00020000
00000000
00000000
00000000
00000010
00030000
00000000
00000000
00011000
00000000
00000000
00000000
00002000
00000000
00000000
00000000
00100000
00003000
00000000
00000000
00011000
00000000
00000000
00000000
,
00010000
01000000
00100000
00001000
00010000
00001000
00000100
00000010
00001000
00000001
00001000
00000100
,
00010000
00000000
00000000
00000000
00001000
00000000
00000000
00000000
00010000
00000000
00000000
00000000
00001000
00000000
00000000
00000000
00010000
00000000
00000000
00000000
00001000
00000000
00000000
00000000
00100000
00000000
00000000
00010000
00000000
00000000
00100000
00000000
00000000
00010000
00000000
00000000
01000000
00000000
00000000
00100000
00000000
00000000
01000000
00000000
00000000
00100000
00000000
00000000
,
10000000
00000000
00000000
00000000
11000000
00000000
01000000
00100000
00000000
00001000
00010000
00000000
00000010
00000000
00000010
00001000
,
00000002
00000000
00000003
00000000
00000101
00000000
00000100
00000010
00000000
00010000
00001000
00000000
00100000
00000000
02000000
00000000
,
00010000
00000000
00000000
13000000
00000000
10000000
00010000
10000000
00100000
00000000
00000000
00100000
00000000
00000000
00100000
00000000
,
12000000
00000000
00000000
00010000
00000000
03010000
00000000
00000000
00001000
00000000
00000000
00000100
00000000
00000000
00000001
00000000
,
00000021
00000000
00000000
00000000
00000000
00000000
00000000
00000000
00000000
00001000
00000000
00000000
00000000
00000000
00000000
00001030
00000000
00000000
00000000
00000000
00000000
00000000
00000000
00000000
00010000
00000000
00000000
00000000
00000000
00000000
00000000
00000000
00100000
00000000
00000000
00000000
00000000
00000000
00000000
00000000
00000000
00000000
10000000
00000000
00000000
00000000
00000000
00000000
,
12000000
00000000
00000000
00010000
00000000
03010000
00000000
00000000
00001000
00000000
00000000
00000010
00000000
00000100
00000010
00000001
,
00000200
00000000
00000000
00000000
00000000
00000000
00000000
00000000
00001000
00000000
00000000
00000000
00000000
00000000
00000000
00000000
00000301
00000000
00000000
00000000
00001000
00000000
00000000
00000000
00000200
00000000
00000000
00000000
00000000
00000000
00000000
00000000
00000000
00000001
00000000
00000000
00000000
00000000
00000000
00000000
00001300
00000000
00000000
00000000
00000000
00000000
00000000
00000000
,
00000201
00000000
00000000
00000000
00000000
00000000
00000000
00000000
00001000
00000000
00000000
00000000
00000000
00000000
00000000
00001300
00000000
00000000
00000000
00000000
00000000
00000000
00000000
00000000
00010000
00000000
00000000
00000000
00000000
00000000
00010000
00000000
00000000
00100000
00000000
00000000
00000000
00000000
00000000
10000000
00000000
00000000
00010000
00000000
00000000
10000000
00000000
00000000
,
00200000
00000000
00000000
00000000
00000000
00000000
00000000
00000000
00000000
00010000
00000000
00000000
00000000
00000000
00000000
00310000
00000000
00000000
00000000
00000000
00000000
00000000
00000000
00000000
00001000
00000000
00000000
00000000
00000000
00000000
00000000
00000000
00000100
00000000
00000000
00000000
00000000
00000000
00000000
00000000
00000000
00000000
00000001
00000000
00000000
00000000
00000000
00000000
,
00000021
00000000
00000000
00001000
00000000
00000000
00001030
00000000
00010000
00000000
00000000
01000000
00000000
01000000
10000000
01000000
,
00200000
00000000
10000000
00000000
00310000
10000000
00200000
00000000
00010000
00000000
10300000
00000000
,
02010000
00000000
00000000
10000000
00000000
13000000
00000000
00000000
01010000
00000000
00000000
00001000
00000000
00010000
00000010
00000000
,
00001020
00000000
00000000
00000001
00000000
00000031
00000000
00000000
00001010
00000000
00000000
00010000
00000000
00001000
00100000
00000000
,
00210000
00000000
00000000
10000000
00000000
10300000
00000000
00000000
00110000
00000000
00000000
00001000
00000000
00010000
00000100
00000000
,
00000010
00000001
00000010
00000001
00000010
00001000
00020000
00000000
02030000
00000000
03100000
00010000
,
01000000
00000000
00000000
00000000
00100000
00000000
00000000
00000000
00010000
00000000
00000000
00000000
10000000
00000000
00000000
00000000
01000000
00000000
00000000
00000000
00100000
00000000
00000000
00000000
20000000
00000000
00000000
00000000
00000000
00000000
00000000
00000000
00000000
00010000
00000000
00000000
00000000
00000000
00000000
00000000
00000000
00000000
30010000
00000000
00000000
00000000
00000000
00000000
,
12000000
00000000
00000000
00010000
00000000
03010000
00001000
00000000
00000200
00000000
00000000
00000310
00000000
00000000
00001000
00000000
,
00000021
00000000
00000000
00001000
00000000
00001030
00010000
00000000
00200000
00000000
00000000
01300000
00000000
00000000
00010000
00000000
,
10000000
00000000
00000000
00000000
00000000
00000000
00000000
00000000
00010000
00000000
00000000
00000000
00000000
00000000
00000000
00000000
10000000
00000000
00000000
00000000
00000000
00000000
00000000
00000000
00010000
00000000
00000000
00000000
00000000
00000000
00000000
00000000
10000000
00000000
00000000
00000000
00000000
00000000
00000000
00000000
00010000
00000000
00000000
00000000
00000000
00000000
00000000
00000000
00000000
00000000
00000000
00000000
00000000
00000000
10000000
00000000
00000000
00000000
00000000
00000000
01000000
00000000
00000000
00100000
00000000
00000000
00000000
00000000
00000000
00000000
00000000
00000000
00011000
00000000
00000000
00000000
00000000
00000000
00000000
00000000
00000000
00000000
00000000
00000000
00000000
00000000
00000000
00000000
00000000
00000000
00000000
00000000
00000000
00000000
00000000
00000000
,
00001000
00000000
00000100
00000000
00000000
00000001
00000000
00000000
00000020
00000000
00000000
00000000
00000031
00000000
00000010
00000000
,
00000100
00000000
00000001
00000100
00000000
00000100
00001000
00000000
00000010
00000000
00010000
00000000
00011000
00000000
00000000
00000000
,
00010000
00000000
01000000
00000000
00000000
10000000
00000000
00000000
00200000
00000000
00000000
00000000
10300000
00000000
01000000
00000000
,
00100000
00000000
10000000
00100000
00000000
00100000
00010000
00000000
01000000
00001000
00000000
00000000
00011000
00000000
00000000
00000000
,
00001000
00000000
00000010
00000000
00000000
00000001
00000000
00000000
00000200
00000000
00000000
00000000
00000301
00000000
00000100
00000000
,
00000010
00000000
00000001
00000010
00000000
00000010
00001000
00000000
00000100
00000000
00010000
00000000
00011000
00000000
00000000
00000000
,
00010000
00000000
00100000
00000000
00000000
10000000
00000000
00000000
02000000
00000000
00000000
00000000
03020000
00032000
00003000
00000020
,
00000030
00000002
00000003
00000200
00000300
00000000
00000000
00000000
10010000
00000000
00010000
00000000
10000000
00000000
01000000
00010000
,
01000000
00000000
00100000
00000000
00001000
00000000
00010000
00001000
00010000
00000000
00000010
00000000
00000100
00000000
00001000
00000000
,
00000100
00000000
00000001
00000000
00000020
00000000
00000000
00000000
00000031
00001000
00000001
00001000
00000001
00000000
00000100
00001000
,
00000100
00000000
00000010
00000000
00010000
00000000
00001000
00010000
00001000
00000000
01000000
00000000
00100000
10000000
00010000
00000000
,
10010000
00000000
00000000
11000000
00000000
01000000
00010000
01000000
00100000
00010000
00000000
00100000
,
00001000
00010000
00001000
00000010
00000000
00000100
00000010
00000001
00001000
00000010
00000000
00000100
,
00001000
00010000
00001000
02000000
00000000
03100000
10000000
00010000
00100000
02000000
00000000
03010000
,
00001000
00000100
00000001
00000010
00001000
00010000
00100000
10000000
00010000
00000000
00000000
00000000
,
00012000
00000010
00023000
01000000
,
00032000
00000000
00000010
00000000
00013000
00001000
00000100
00000001
,
00002000
00000000
00010000
00000000
00003002
00000000
00000103
00001000
,
00020000
00000000
10000000
00000000
00031000
00000010
00001001
00000000
,
00000001
00000100
00000010
00001000
00010000
01000000
00100000
10000000
,
00010000
00000000
10000000
00000000
01000000
00000000
00100000
00000000
00010000
10000000
00100000
00000000
01100000
00000000
00010000
00000000
,
10000000
01000000
00100000
00010000
00001000
00000100
00000010
00000001
,
00001000
00000000
00000001
00000000
00000100
00000000
00000010
00000000
00001000
00000001
00000010
00000000
00000110
00000000
00001000
00000000
,
00000001
00000000
00000100
00000000
00000010
00000000
00001000
00000000
00010000
01000000
00100000
00000000
10000000
00000000
00010000
00000000
,
10000000
00000000
01000000
00000000
00100000
00000000
00010000
00000000
00001000
00000100
00000010
00000000
00000001
00000000
00000100
00000000
,
00001000
00010000
00001000
00000000
00100000
00000000
01000000
00000000
00010000
00001000
00010000
00000000
00000010
00000000
00000100
00000000
,
00010000
00001000
00010000
00001000
00010000
00001000
00010000
00001000
00000000
00000000
00000000
00000000
00021000
00000000
00000000
00130000
,
00000000
00000000
00100000
00000000
10000000
01000000
00000000
00010000
00000000
00010000
00001000
00000000
00012000
00000000
00000000
00003010
,
00000000
00000000
00000010
00000000
00000001
00000100
00000000
00001000
00000000
00001000
00010000
00000000
00021000
00000000
00000000
00130000
,
00000000
00000000
00100000
00000000
10000000
01000000
00000000
00010000
00000000
00010000
01000000
00100000
00002000
00000000
00000000
00003010
,
00000000
00000000
00000010
00000000
00000001
00001000
00000000
00000010
00000000
00000010
00001000
00000100
00020000
00000000
00000000
01030000
,
00000000
00000000
01000000
00000000
10000000
00100000
00000000
00010000
00000000
00010000
00001000
00000000
00012000
00000000
00000000
00003100
,
00000000
00000000
00000100
00000000
00000001
00000010
00000000
00001000
00000000
00001000
00010000
00000000
00021000
00000000
00000000
01030000
,
00000000
00000000
01000000
00000000
10000000
00100000
00000000
00010000
00000000
00010000
00001000
00000000
00011000
00000000
00000000
00000000
,
00001010
00000000
00000000
00011000
00000000
00000000
00110000
00000000
00000000
00021000
00000000
01030000
,
00000000
10000000
01000000
00020000
00000000
00031000
00000000
00001000
00010000
00002000
00000000
00003100
,
00000000
00000001
00000100
00002000
00000000
00013000
00000000
00010000
00001000
00020000
00000000
00130000
,
00000000
10000000
00100000
00020000
00000000
00031000
00000000
00001000
00010000
00002000
00000000
00003010
,
00000000
00000010
00000001
00000100
00001000
00010000
00000000
00001000
00010000
00100000
00010000
00001000
,
00000100
00000010
00010000
00001000
00000000
00011000
00000000
00010000
00001000
00000010
00001000
00010000
,
01000000
00100000
00001000
00010000
00000000
00011000
00000000
00001000
00010000
00100000
10000000
00100000
,
10000000
01000000
00010000
00001000
00000100
00001000
00000100
00000001
00001000
00000001
00000100
00001000
,
00010000
01000000
10000000
00100000
00010000
00001000
00000010
00000001
00002000
00000200
00000000
00000000
,
00000000
00000000
00000000
00000000
,
00000000
00000000
00000000
00003300
;
