#VERSION:0.83;
#TITLE:cloche;
#ARTIST:Qrispy Joybox;
#BANNER:cloche.png;
#BACKGROUND:cloche-bg.png;
#JACKET:cloche-jacket.png;
#MUSIC:cloche.ogg;
#OFFSET:1.308;
#SAMPLESTART:21.11;
#SAMPLELENGTH:15;
#BPMS:0=182;

//---------------dance-single - NewbStepper-ESP----------------
#NOTEDATA:;
#CHARTNAME:NewbStepper-ESP;
#STEPSTYPE:dance-single;
#DESCRIPTION:NewbStepper-ESP;
#DIFFICULTY:Hard;
#METER:12;
#RADARVALUES:0.556478,0.668447,0.484674,0.403895,0.008975,434,380,54,45,0,0,0,0,0,0.556478,0.668447,0.484674,0.403895,0.008975,434,380,54,45,0,0,0,0,0;
#CREDIT:NewbStepper;
#NOTES:
// measure 0
0000
0000
0000
0000
,  // measure 1
0000
0000
0000
0000
,  // measure 2
0000
0000
0000
0000
,  // measure 3
0000
0000
0000
0000
,  // measure 4
0000
0000
0000
0000
,  // measure 5
0011
0000
0001
0200
0000
2300
0000
3200
,  // measure 6
0000
0302
0000
2003
0000
3010
0100
0010
,  // measure 7
1010
0000
1000
0100
0000
0110
0000
2002
,  // measure 8
0000
0000
0000
3003
,  // measure 9
0010
0100
1000
0100
0010
0100
0000
1100
,  // measure 10
0000
1010
0000
0011
0000
0101
0000
1100
,  // measure 11
0000
0010
0001
0010
0100
0010
0001
0202
,  // measure 12
0000
0000
0303
0000
,  // measure 13
0010
0100
0001
0100
0010
0100
0001
0011
,  // measure 14
0000
1010
0000
1100
0000
0101
0000
1001
,  // measure 15
0000
0010
1000
0010
0100
0010
1000
2200
,  // measure 16
0000
0000
3300
0000
,  // measure 17
0001
1000
0100
0001
0000
1000
0010
0001
,  // measure 18
0000
1000
0100
0001
0000
0001
0100
1000
,  // measure 19
0000
0001
0100
1000
0000
0100
0001
0020
,  // measure 20
0000
0100
0100
0130
,  // measure 21
1000
0001
0100
1000
0000
0001
0010
1000
,  // measure 22
0000
0001
0100
1000
0000
0100
0010
0100
,  // measure 23
0000
0001
0010
0100
0010
0100
1000
0020
,  // measure 24
0000
0000
0000
0030
,  // measure 25
1100
0000
0101
0000
0010
0001
0000
0101
,  // measure 26
0000
0010
1000
0200
0000
0001
0301
0000
,  // measure 27
0101
0000
0110
0000
0001
1000
0100
0022
,  // measure 28
0000
0000
0033
0000
,  // measure 29
0101
0000
1100
0000
0010
1000
0000
1100
,  // measure 30
0000
0010
0001
0200
0000
1000
1300
0000
,  // measure 31
1100
0000
0110
0000
1000
0001
0100
2020
,  // measure 32
0000
0000
3030
0000
,  // measure 33
0001
0100
0010
0100
1000
0100
0000
0001
,  // measure 34
1000
0000
0100
0000
0010
0000
0001
0000
0000
0000
0100
0010
0100
0000
0001
0000
,  // measure 35
1000
0100
0010
0100
0001
0100
1000
2020
,  // measure 36
0000
0000
0030
0000
0001
0001
3001
0000
,  // measure 37
1000
0100
0010
0100
0001
0100
0000
1000
,  // measure 38
0001
0000
0100
0000
0010
0000
1000
0000
0000
0000
0100
0010
0100
0000
1000
0000
,  // measure 39
0001
0100
0010
0100
1000
0100
0001
0022
,  // measure 40
0000
0000
0033
0000
,  // measure 41
1001
0000
0110
0000
0001
0100
1000
0100
,  // measure 42
0000
0010
1000
0100
0001
0100
0010
0000
,  // measure 43
0001
0100
0001
0100
1000
0100
0000
0110
,  // measure 44
0000
1000
0001
1000
0000
0010
0010
0000
,  // measure 45
1001
0000
0110
0000
1000
0100
0001
0100
,  // measure 46
0000
0010
0001
0100
1000
0100
0010
0000
,  // measure 47
1000
0100
1000
0100
0010
0001
0010
0002
,  // measure 48
0000
0000
0000
0000
,  // measure 49
0000
0000
0003
0000
,  // measure 50
1000
0001
0100
1000
0000
0001
0010
1000
,  // measure 51
0000
0001
0100
1000
0000
1000
0100
0001
,  // measure 52
0000
1000
0100
0001
0000
0100
1000
0020
,  // measure 53
0000
0100
0100
0130
,  // measure 54
0001
1000
0100
0001
0000
1000
0010
0001
,  // measure 55
0000
1000
0100
0001
0000
0100
0010
0100
,  // measure 56
0000
1000
0010
0100
0010
0100
0001
0020
,  // measure 57
0000
0000
0030
0000
,  // measure 58
0001
0100
0010
0100
0001
0100
1000
0100
,  // measure 59
0001
0010
1000
0010
0000
0110
0000
1001
,  // measure 60
0000
1000
0010
1000
0001
0010
0001
0200
,  // measure 61
0000
0010
0010
0310
,  // measure 62
1000
0100
0010
0100
1000
0100
0001
0100
,  // measure 63
1000
0010
0001
0010
0000
0110
0000
1001
,  // measure 64
0000
0001
0010
0001
1000
0010
1000
0200
,  // measure 65
0000
0000
0000
0300
,  // measure 66
0011
0000
0001
0200
0000
2300
0000
3200
,  // measure 67
0000
0302
0000
2003
0000
3010
0100
0010
,  // measure 68
1010
0000
1000
0100
0000
0110
0000
2002
,  // measure 69
0000
0000
0000
3003
,  // measure 70
1010
0000
1000
0200
0000
0302
0000
0203
,  // measure 71
0000
2300
0000
3002
0000
0013
0100
0010
,  // measure 72
0011
0000
0001
0100
0000
0110
0000
2002
,  // measure 73
0000
0000
0000
3003
,  // measure 74
0010
0001
0100
0010
1000
0100
0001
0100
,  // measure 75
1000
0010
0000
1010
0000
0101
0000
0110
,  // measure 76
0000
1000
0010
1000
0001
0010
1000
0010
,  // measure 77
0001
0100
1000
0200
0000
0000
0300
0000
,  // measure 78
0010
1000
0100
0010
0001
0100
1000
0100
,  // measure 79
0001
0010
0000
0011
0000
1100
0000
0110
,  // measure 80
0000
1000
0010
1000
0001
0010
0100
2200
,  // measure 81
0000
0000
0000
0000
,  // measure 82
0000
0000
0000
3300
;

//---------------dance-single - NewbStepper-DSP----------------
#NOTEDATA:;
#CHARTNAME:NewbStepper-DSP;
#STEPSTYPE:dance-single;
#DESCRIPTION:NewbStepper-DSP;
#DIFFICULTY:Medium;
#METER:10;
#RADARVALUES:0.420564,0.594175,0.287214,0.251313,0,328,296,32,28,0,0,0,0,0,0.420564,0.594175,0.287214,0.251313,0,328,296,32,28,0,0,0,0,0;
#CREDIT:NewbStepper;
#NOTES:
0000
0000
0000
0000
,
0000
0000
0000
0000
,
0000
0000
0000
0000
,
0000
0000
0000
0000
,
0000
0000
0000
0000
,
1000
0000
0100
0010
0000
0100
0000
1000
,
0000
0001
0000
0100
0000
0100
0010
0000
,
1000
0000
0001
0010
0000
0100
0000
0220
,
0000
0000
0000
0330
,
0001
0000
0100
0000
0010
0010
0000
1000
,
0000
0100
0000
0001
0000
0100
0000
1000
,
0000
0001
0100
0001
0100
0001
0100
0020
,
0000
0000
0000
0030
,
1000
0000
0100
0000
0010
0010
0000
0001
,
0000
0100
0000
1000
0000
0100
0000
0001
,
0000
1000
0100
1000
0100
1000
0100
0020
,
0000
0000
0000
0030
,
0000
0001
0000
0101
0000
1000
0000
1100
,
0000
0010
0000
0110
0000
0001
1000
0001
,
0000
1000
0000
0110
0000
0001
0000
0220
,
0000
0000
0000
0330
,
0000
1000
0000
1100
0000
0001
0000
0101
,
0000
0010
0000
0110
0000
1000
0001
1000
,
0000
0001
0000
0110
0000
1000
0000
0220
,
0000
0000
0000
0330
,
0001
0000
1000
0000
0010
1000
0000
0100
,
0000
0001
0000
0100
0000
0010
0010
0001
,
1000
0000
0100
0000
0001
0100
0000
0220
,
0000
0000
0000
0330
,
1000
0000
0001
0000
0010
0001
0000
0100
,
0000
1000
0000
0100
0000
0010
0010
1000
,
0001
0000
0100
0000
1000
0100
0000
0220
,
0000
0000
0000
0330
,
0001
0000
0100
0000
1000
0000
0000
0100
,
0000
0010
0000
1000
0001
1000
0001
0100
,
0000
0010
0000
1000
0000
0100
0010
0200
,
0000
0000
0000
0300
,
1000
0000
0100
0000
0001
0000
0000
0100
,
0000
0010
0000
0001
1000
0001
1000
0100
,
0000
0010
0000
0001
0000
0100
0010
0200
,
0000
0000
0000
0300
,
0001
0000
0010
0000
0001
0001
0000
1000
,
0000
0010
0000
1000
0000
0100
0100
0000
,
1000
0000
0010
0000
1000
1000
0000
0001
,
0000
0010
0000
0001
0000
0100
0100
0000
,
0001
0100
1000
0000
0100
0010
0000
1000
,
0000
0010
0000
0100
0000
0001
0001
0000
,
1000
0100
0001
0000
0100
0010
0000
2002
,
0000
0000
0000
0000
,
0000
0000
3003
0000
,
0000
1000
0000
1100
0000
0001
0000
0101
,
0000
0010
0000
0110
0000
1000
0001
1000
,
0000
0001
0000
0110
0000
1000
0000
0220
,
0000
0000
0000
0330
,
0000
0001
0000
0101
0000
1000
0000
1100
,
0000
0010
0000
0110
0000
0001
1000
0001
,
0000
1000
0000
0110
0000
0001
0000
0220
,
0000
0000
0000
0330
,
1000
0000
1010
0000
0001
0100
0001
0100
,
0010
0100
0010
0100
0000
1100
0000
0101
,
0000
0010
0001
1000
0001
1000
0001
0020
,
0000
0000
0000
0030
,
0001
0000
0011
0000
1000
0100
1000
0100
,
0010
0100
0010
0100
0000
0101
0000
1100
,
0000
0010
1000
0001
1000
0001
1000
0020
,
0000
0000
0000
0030
,
1000
0000
0100
0010
0000
0100
0000
1000
,
0000
0001
0000
0100
0000
0100
0010
0000
,
1000
0000
0001
0010
0000
0100
0000
0220
,
0000
0000
0000
0330
,
0001
0000
0100
0010
0000
0100
0000
0001
,
0000
1000
0000
0100
0000
0100
0010
0000
,
0001
0000
1000
0010
0000
0100
0000
0220
,
0000
0000
0000
0330
,
1000
0001
1000
0010
0100
0000
0100
0000
,
0100
1000
0000
0100
0000
0001
0000
0010
,
0000
0001
1000
0001
0100
0000
0100
0000
,
0100
0001
1000
0002
0000
0000
0003
0000
,
0001
1000
0001
0010
0100
0000
0100
0000
,
0100
0001
0000
0100
0000
1000
0000
0010
,
0000
1000
0001
1000
0100
0010
0001
0200
,
0000
0000
0000
0000
,
0000
0000
0000
0300
;

//---------------dance-single - NewbStepper-BSP----------------
#NOTEDATA:;
#CHARTNAME:NewbStepper-BSP;
#STEPSTYPE:dance-single;
#DESCRIPTION:NewbStepper-BSP;
#DIFFICULTY:Easy;
#METER:7;
#RADARVALUES:0.303883,0.371359,0.044877,0.206435,0,237,232,5,23,0,0,0,0,0,0.303883,0.371359,0.044877,0.206435,0,237,232,5,23,0,0,0,0,0;
#CREDIT:NewbStepper;
#NOTES:
0000
0000
0000
0000
,
0000
0000
0000
0000
,
0000
0000
0000
0000
,
0000
0000
0000
0000
,
0000
0000
0000
0000
,
0001
0100
0000
0100
,
0010
0100
0000
0001
,
1000
0001
0010
0100
,
2002
0000
0000
3003
,
1000
0000
0010
0000
1000
0000
0000
0001
,
0000
0100
0000
0001
0000
0010
0000
0001
,
0000
0000
1000
0000
0100
0000
0000
0020
,
0000
0000
0000
0030
,
0001
0000
0010
0000
0001
0000
0000
1000
,
0000
0100
0000
1000
0000
0010
0000
1000
,
0000
0000
0001
0000
0100
0000
0000
0020
,
0000
0000
0000
0030
,
1000
0100
0001
0100
,
1000
0100
0001
0100
,
1000
0000
0010
0000
0001
0000
0010
0200
,
0000
0000
0000
0300
,
0001
0100
1000
0100
,
0001
0100
1000
0100
,
0001
0000
0010
0000
1000
0000
0010
0200
,
0000
0000
0000
0300
,
1000
0000
0001
0000
0100
0000
0000
0001
,
0000
1000
0000
0100
0000
0000
1000
0000
,
0001
0000
1000
0000
0010
0000
0000
0220
,
0000
0000
0000
0330
,
0001
0000
1000
0000
0100
0000
0000
1000
,
0000
0001
0000
0100
0000
0000
0001
0000
,
1000
0000
0001
0000
0010
0000
0000
0220
,
0000
0000
0000
0330
,
0001
1000
0100
0100
,
0001
1000
0010
0010
,
0001
0000
0100
0000
1000
0000
0100
0020
,
0000
0000
0000
0030
,
1000
0001
0100
0100
,
1000
0001
0010
0010
,
1000
0000
0100
0000
0001
0000
0100
0020
,
0000
0000
0000
0030
,
0001
0000
1000
0000
0001
0000
0000
0100
,
0000
0100
0000
0100
0000
0100
0010
0000
,
1000
0000
0001
0000
1000
0000
0000
0100
,
0000
0100
0000
0100
0000
0100
0010
0000
,
0001
0000
1000
0000
0001
0000
0000
0010
,
0000
0010
0000
0010
0000
0010
0100
0000
,
1000
0000
0001
0000
1000
0000
0010
0020
,
0000
0000
0000
0000
,
0000
0000
0030
0000
,
1000
0010
0001
0010
,
1000
0010
0001
0010
,
1000
0000
0100
0000
0001
0000
0100
0020
,
0000
0000
0000
0030
,
0001
0010
1000
0010
,
0001
0010
1000
0010
,
0001
0000
0100
0000
1000
0000
0100
0020
,
0000
0000
0000
0030
,
1000
0000
0100
0000
0100
0000
0000
0001
,
0000
0010
0000
0010
0000
1000
0000
0100
,
0000
0000
1000
0000
0010
0000
0100
0002
,
0000
0000
0000
0003
,
0001
0000
0100
0000
0100
0000
0000
1000
,
0000
0010
0000
0010
0000
0001
0000
0100
,
0000
0000
0001
0000
0010
0000
0100
2000
,
0000
0000
0000
3000
,
0001
0100
0000
0100
,
0010
0100
0000
0001
,
1000
0001
0010
0100
,
2002
0000
0000
3003
,
1000
0100
0000
0100
,
0010
0100
0000
1000
,
0001
1000
0010
0100
,
2002
0000
0000
3003
,
0010
0001
0100
0100
,
0100
0000
0000
1000
0000
0100
0000
0001
,
0000
0000
0010
0000
0001
0000
1000
2000
,
0000
0000
0000
3000
,
0010
1000
0100
0100
,
0100
0000
0000
0001
0000
0100
0000
1000
,
0000
0000
0010
0000
1000
0000
0001
0002
,
0000
0000
0000
0000
,
0000
0000
0000
0003
;

//---------------dance-single - NewbStepper-bSP----------------
#NOTEDATA:;
#CHARTNAME:NewbStepper-bSP;
#STEPSTYPE:dance-single;
#DESCRIPTION:NewbStepper-bSP;
#DIFFICULTY:Beginner;
#METER:4;
#RADARVALUES:0.161558,0.297087,0.044877,0.152583,0,126,121,5,17,0,0,0,0,0,0.161558,0.297087,0.044877,0.152583,0,126,121,5,17,0,0,0,0,0;
#CREDIT:NewbStepper;
#NOTES:
0000
0000
0000
0000
,
0000
0000
0000
0000
,
0000
0000
0000
0000
,
0000
0000
0000
0000
,
0000
0000
0000
0000
,
1000
0000
0000
0000
,
0001
0000
0000
0000
,
1000
0000
0000
0000
0000
0000
0000
1001
,
0000
0000
0000
0000
,
0010
0000
0010
0000
,
0000
0000
0000
0000
,
0000
0000
1000
0000
0000
0000
0000
2000
,
0000
0000
3000
0000
,
0010
0000
0010
0000
,
0000
0000
0000
0000
,
0001
0000
0000
0000
0000
0000
0000
0002
,
0000
0000
0003
0000
,
1000
0000
0001
0000
,
1000
0000
0100
0000
,
0010
0000
0000
0000
0000
0000
0000
0020
,
0000
0000
0030
0000
,
0001
0000
1000
0000
,
0001
0000
0100
0000
,
0010
0000
0000
0000
0000
0000
0000
0020
,
0000
0000
0030
0000
,
1000
0000
1000
0000
,
0001
0001
0001
0000
,
0100
0000
0100
0000
,
0010
0010
0010
0000
,
0001
0000
0001
0000
,
1000
1000
1000
0000
,
0010
0000
0000
0000
0010
0000
0000
1001
,
0000
0000
0000
0000
,
0100
0000
0100
0000
,
0000
0000
0000
0000
,
0001
0000
0000
0000
0000
0000
0000
0002
,
0000
0000
0003
0000
,
0100
0000
0100
0000
,
0000
0000
0000
0000
,
1000
0000
0000
0000
0000
0000
0000
2000
,
0000
0000
3000
0000
,
0001
0000
0000
0000
0001
0000
0000
0200
,
0000
0000
0300
0000
,
1000
0000
0000
0000
1000
0000
0000
0020
,
0000
0000
0030
0000
,
0001
0000
0000
0000
0001
0000
0000
0200
,
0000
0000
0300
0000
,
1000
0000
0000
0000
1000
0000
0000
0020
,
0000
0000
0000
0000
,
0000
0000
0030
0000
,
0001
0000
1000
0000
,
0001
0000
0100
0000
,
0010
0000
0000
0000
0000
0000
0000
0020
,
0000
0000
0030
0000
,
1000
0000
0001
0000
,
1000
0000
0100
0000
,
0010
0000
0000
0000
0000
0000
0000
0020
,
0000
0000
0030
0000
,
0001
0000
0001
0000
,
0001
0000
0001
0000
,
0001
0000
0000
0100
,
0200
0000
0300
0000
,
1000
0000
1000
0000
,
1000
0000
1000
0000
,
1000
0000
0000
0010
,
0020
0000
0030
0000
,
1000
0000
0000
0000
,
0002
0003
0000
0000
,
1000
0000
0000
0000
0000
0000
0000
1001
,
0000
0000
0000
0000
,
0001
0000
0000
0000
,
1000
0000
0000
0000
,
0001
0000
0000
0000
0000
0000
0000
1001
,
0000
0000
0000
0000
,
0001
0001
0001
0001
,
0001
0001
0001
0000
,
1000
1000
1000
1000
,
1000
1000
1000
0000
,
0010
0010
0010
0010
,
0010
0010
0010
0000
,
0100
0000
0100
0000
0100
0000
0000
2002
,
0000
0000
0000
0000
,
0000
0000
0000
3003
;

//---------------dance-double - NewbStepper-EDP----------------
#NOTEDATA:;
#CHARTNAME:NewbStepper-EDP;
#STEPSTYPE:dance-double;
#DESCRIPTION:NewbStepper-EDP;
#DIFFICULTY:Hard;
#METER:12;
#RADARVALUES:0.547503,0.631311,0.430822,0.376969,0.008975,427,379,48,42,0,0,0,0,0,0.547503,0.631311,0.430822,0.376969,0.008975,427,379,48,42,0,0,0,0,0;
#CREDIT:NewbStepper;
#NOTES:
00000000
00000000
00000000
00000000
,
00000000
00000000
00000000
00000000
,
00000000
00000000
00000000
00000000
,
00000000
00000000
00000000
00000000
,
00000000
00000000
00000000
00000000
,
00110000
00000000
00010000
02000000
00000000
23000000
00000000
32000000
,
00000000
03020000
00000000
00230000
00000000
00301000
00010000
00001000
,
00001010
00000000
00000001
00000100
00000000
00000110
00000000
00002002
,
00000000
00000000
00000000
00003003
,
00000100
00000010
00001000
00010000
01000000
00100000
00000000
01100000
,
00000000
10010000
00000000
11000000
00000000
00010000
00001000
00100000
,
00000000
01000000
00100000
01000000
00010000
00001000
00000100
00000220
,
00000000
00000000
00000330
00000000
,
00001000
00000001
00000100
00001000
00010000
00001000
01000000
00100000
,
00000000
10100000
00000000
01010000
00000000
01100000
00000000
10010000
,
00000000
10000000
01000000
00010000
00001000
00000100
00000001
00000022
,
00000000
00000000
00000033
00000000
,
00001000
00000001
00000100
00001000
00000000
00010000
00100000
10000000
,
00000000
10000000
01000000
00010000
00000000
00001000
00000010
00000001
,
00000000
00000100
00001000
00010000
00000000
01000000
00100000
02000000
,
00000000
10000000
10000000
13000000
,
00010000
10000000
01000000
00010000
00000000
00001000
00000010
00000001
,
00000000
00000001
00000100
00001000
00000000
00010000
00100000
10000000
,
00000000
10000000
01000000
00010000
01000000
00010000
00001000
00000020
,
00000000
00000000
00000000
00000030
,
00000101
00000000
00001100
00000000
00001000
00010000
00000000
00011000
,
00000000
00100000
10000000
02000000
00000000
00010000
03010000
00000000
,
00011000
00000000
01001000
00000000
00100000
10000000
01000000
00220000
,
00000000
00000000
00330000
00000000
,
11000000
00000000
01010000
00000000
00010000
00001000
00000000
00011000
,
00000000
00000010
00000001
00000200
00000000
00001000
00001300
00000000
,
00011000
00000000
00010100
00000000
00000010
00000001
00000100
00002020
,
00000000
00000000
00003030
00000000
,
00000001
00000100
00000010
00000100
00001000
00010000
00000000
00100000
,
00010000
00000000
00001000
00000000
00100000
00000000
00010000
00000000
00000000
00000000
01000000
00100000
01000000
00000000
00010000
00000000
,
00000000
10000000
01000000
00010000
01000000
00100000
00010000
02000000
,
00000000
00000000
00000000
00000000
00100000
00100000
03100000
00000000
,
10000000
01000000
00100000
01000000
00010000
00001000
00000000
00000010
,
00001000
00000000
00010000
00000000
00000010
00000000
00001000
00000000
00000000
00000000
00000100
00000010
00000100
00000000
00001000
00000000
,
00000000
00000001
00000100
00001000
00000100
00000010
00001000
00000200
,
00000000
00000000
00000300
00000000
,
00001001
00000000
00000110
00000000
00000100
00001000
00000000
00010000
,
00001000
00000010
00001000
00010000
00000000
00100000
01000000
00010000
,
10000000
01000000
00010000
00001000
00100000
00010000
00000000
01010000
,
00000000
01000000
00001000
00010000
00000000
01000000
01000000
00000000
,
10010000
00000000
01100000
00000000
01000000
00010000
00000000
00001000
,
00010000
00100000
00010000
00001000
00000000
00000010
00000100
00001000
,
00000001
00000100
00001000
00010000
01000000
10000000
00010000
00200000
,
00000000
00000000
00000000
00000000
,
00000000
00000000
00300000
00000000
,
00010000
10000000
01000000
00010000
00000000
00001000
00000010
00000001
,
00000000
00000001
00000100
00001000
00000000
00010000
00100000
10000000
,
00000000
01000000
00010000
00001000
00000000
00000100
00000010
00000200
,
00000000
00000001
00000001
00000301
,
00001000
00000001
00000100
00001000
00000000
00010000
00100000
10000000
,
00000000
10000000
01000000
00010000
00000000
00001000
00000010
00000001
,
00000000
00000001
00000100
00001000
00000100
00001000
00010000
00200000
,
00000000
00000000
00000000
00300000
,
10000000
01000000
00100000
00010000
01000000
00100000
00010000
00001000
,
00100000
00010000
01000000
00100000
00000000
01100000
00000000
00011000
,
00000000
00000100
00000010
00000100
00000001
00000010
00000100
00002000
,
00000000
00000001
00000001
00003001
,
00000001
00000100
00000010
00001000
00000100
00000010
00001000
00010000
,
00000010
00001000
00000100
00000010
00000000
00000110
00000000
00011000
,
00000000
01000000
00100000
01000000
10000000
00100000
01000000
00020000
,
00000000
00000000
00000000
00030000
,
00110000
00000000
00010000
02000000
00000000
23000000
00000000
32000000
,
00000000
03020000
00000000
00230000
00000000
00301000
00010000
00001000
,
00001010
00000000
00000001
00000100
00000000
00000110
00000000
00002002
,
00000000
00000000
00000000
00003003
,
00001010
00000000
00001000
00000200
00000000
00000302
00000000
00000203
,
00000000
00002300
00000000
00003020
00000000
00010030
00001000
00010000
,
00110000
00000000
10000000
01000000
00000000
01100000
00000000
20020000
,
00000000
00000000
00000000
30030000
,
01000000
00010000
00100000
00001000
00010000
00100000
00010000
00001000
,
00010000
00100000
00000000
01100000
00000000
01001000
00000000
00010100
,
00000000
00001000
00000010
00010000
00001000
00000010
00001000
00010000
,
00001000
00000100
00000001
00002000
00000000
00000000
00003000
00000000
,
00000100
00001000
00000010
00010000
00001000
00000010
00001000
00010000
,
00001000
00000010
00000000
00000110
00000000
00010100
00000000
01001000
,
00000000
00010000
00100000
00010000
01000000
00100000
00010000
00002000
,
00000000
00000000
00000000
00000000
,
00000000
00000000
00000000
00003000
;

//---------------dance-double - NewbStepper-DDP----------------
#NOTEDATA:;
#CHARTNAME:NewbStepper-DDP;
#STEPSTYPE:dance-double;
#DESCRIPTION:NewbStepper-DDP;
#DIFFICULTY:Medium;
#METER:10;
#RADARVALUES:0.420564,0.594175,0.287214,0.251313,0,328,296,32,28,0,0,0,0,0,0.420564,0.594175,0.287214,0.251313,0,328,296,32,28,0,0,0,0,0;
#CREDIT:NewbStepper;
#NOTES:
00000000
00000000
00000000
00000000
,
00000000
00000000
00000000
00000000
,
00000000
00000000
00000000
00000000
,
00000000
00000000
00000000
00000000
,
00000000
00000000
00000000
00000000
,
00010000
00000000
00000010
00001000
00000000
00000100
00000000
00010000
,
00000000
00001000
00000000
00000100
00000000
00000100
00000010
00000000
,
00001000
00000000
00000001
00000010
00000000
00001000
00000000
00022000
,
00000000
00000000
00000000
00033000
,
00010000
00000000
00001000
00000000
00100000
00100000
00000000
00010000
,
00000000
01000000
00000000
10000000
00000000
01000000
00000000
00010000
,
00000000
00100000
00001000
00100000
00001000
00100000
00001000
00020000
,
00000000
00000000
00000000
00030000
,
00001000
00000000
00010000
00000000
00000010
00000010
00000000
00001000
,
00000000
00000100
00000000
00000001
00000000
00000100
00000000
00001000
,
00000000
00000010
00010000
00000010
00010000
00000010
00010000
00002000
,
00000000
00000000
00000000
00003000
,
00000000
00100000
00000000
00101000
00000000
00010000
00000000
01010000
,
00000000
00100000
00000000
01100000
00000000
10000000
00010000
10000000
,
00000000
01000000
00000000
01100000
00000000
00010000
00000000
00022000
,
00000000
00000000
00000000
00033000
,
00000000
00000010
00000000
00010010
00000000
00001000
00000000
00001100
,
00000000
00000010
00000000
00000110
00000000
00000001
00001000
00000001
,
00000000
00000100
00000000
00000110
00000000
00001000
00000000
00022000
,
00000000
00000000
00000000
00033000
,
01000000
00000000
00100000
00000000
01000000
00010000
00000000
00001000
,
00000000
00000100
00000000
00000010
00000000
00001000
00001000
00000001
,
00000100
00000000
00001000
00000000
00010000
00001000
00000000
00000220
,
00000000
00000000
00000000
00000330
,
00000100
00000000
00000010
00000000
00000100
00001000
00000000
00010000
,
00000000
01000000
00000000
00100000
00000000
00010000
00010000
10000000
,
00100000
00000000
01000000
00000000
00010000
00100000
00000000
02200000
,
00000000
00000000
00000000
03300000
,
10000000
00000000
01000000
00000000
00010000
00000000
00000000
00001000
,
00000000
00100000
00000000
00010000
01000000
00010000
01000000
00001000
,
00000000
00000010
00000000
00000001
00000000
00001000
00000010
00002000
,
00000000
00000000
00000000
00003000
,
00000001
00000000
00000100
00000000
00001000
00000000
00000000
00010000
,
00000000
00000010
00000000
00001000
00000100
00001000
00000100
00010000
,
00000000
00100000
00000000
10000000
00000000
00010000
00100000
00020000
,
00000000
00000000
00000000
00030000
,
10000000
00000000
00100000
00000000
10000000
10000000
00000000
00010000
,
00000000
00100000
00000000
01000000
00000000
00010000
00010000
00000000
,
00001000
00000000
00100000
00000000
01000000
01000000
00000000
00010000
,
00000000
00001000
00000000
00000100
00000000
00000001
00000001
00000000
,
00001000
00000100
00000001
00000000
00000100
00000010
00000000
00000001
,
00000000
00000100
00000000
00001000
00000000
00010000
00010000
00000000
,
00001000
00100000
01000000
00000000
10000000
00010000
00000000
20020000
,
00000000
00000000
00000000
00000000
,
00000000
00000000
30030000
00000000
,
00000000
00100000
00000000
00101000
00000000
00010000
00000000
01010000
,
00000000
00100000
00000000
01100000
00000000
10000000
00010000
10000000
,
00000000
01000000
00000000
01100000
00000000
00010000
00000000
00022000
,
00000000
00000000
00000000
00033000
,
00000000
00000010
00000000
00010010
00000000
00001000
00000000
00001100
,
00000000
00000010
00000000
00000110
00000000
00000001
00001000
00000001
,
00000000
00000100
00000000
00000110
00000000
00001000
00000000
00022000
,
00000000
00000000
00000000
00033000
,
00100000
00000000
00101000
00000000
00010000
00001000
00010000
00001000
,
01000000
00001000
01000000
00001000
00000000
00011000
00000000
00000110
,
00000000
00000010
00000001
00001000
00000001
00001000
00000001
00000200
,
00000000
00000000
00000000
00000300
,
00000010
00000000
00010010
00000000
00001000
00010000
00001000
00010000
,
00000100
00010000
00000100
00010000
00000000
00011000
00000000
01100000
,
00000000
00100000
10000000
00010000
10000000
00010000
10000000
02000000
,
00000000
00000000
00000000
03000000
,
00010000
00000000
00000010
00001000
00000000
00000100
00000000
00010000
,
00000000
00001000
00000000
00000100
00000000
00000100
00000010
00000000
,
00001000
00000000
00000001
00000010
00000000
00001000
00000000
00022000
,
00000000
00000000
00000000
00033000
,
00001000
00000000
00100000
00010000
00000000
01000000
00000000
00001000
,
00000000
00010000
00000000
01000000
00000000
01000000
00100000
00000000
,
00010000
00000000
10000000
00100000
00000000
00010000
00000000
00022000
,
00000000
00000000
00000000
00033000
,
00001000
00100000
00001000
00010000
00001000
00000000
00000100
00000000
,
00000001
00001000
00000000
00000001
00000000
00000010
00000000
00001000
,
00000000
00010000
00000100
00010000
00001000
00000000
00010000
00000000
,
00100000
01000000
00100000
00020000
00000000
00000000
00030000
00000000
,
00010000
00000010
00010000
00001000
00010000
00000000
01000000
00000000
,
10000000
00010000
00000000
10000000
00000000
00100000
00000000
00010000
,
00000000
00001000
00010000
00001000
00100000
00010000
01000000
00002000
,
00000000
00000000
00000000
00000000
,
00000000
00000000
00000000
00003000
;

//---------------dance-double - NewbStepper-BDP----------------
#NOTEDATA:;
#CHARTNAME:NewbStepper-BDP;
#STEPSTYPE:dance-double;
#DESCRIPTION:NewbStepper-BDP;
#DIFFICULTY:Easy;
#METER:7;
#RADARVALUES:0.303883,0.371359,0.044877,0.206435,0,237,232,5,23,0,0,0,0,0,0.303883,0.371359,0.044877,0.206435,0,237,232,5,23,0,0,0,0,0;
#CREDIT:NewbStepper;
#NOTES:
00000000
00000000
00000000
00000000
,
00000000
00000000
00000000
00000000
,
00000000
00000000
00000000
00000000
,
00000000
00000000
00000000
00000000
,
00000000
00000000
00000000
00000000
,
10000000
01000000
00000000
01000000
,
00100000
01000000
00000000
00010000
,
00001000
00010000
00000100
00000010
,
00000220
00000000
00000000
00000330
,
00000001
00000000
00000010
00000000
00000001
00000000
00000000
00001000
,
00000000
00000100
00000000
00000010
00000000
00001000
00000000
00010000
,
00000000
00000000
00001000
00000000
01000000
00000000
00000000
00200000
,
00000000
00000000
00000000
00300000
,
10000000
00000000
00100000
00000000
10000000
00000000
00000000
00010000
,
00000000
01000000
00000000
00001000
00000000
00010000
00000000
00000100
,
00000000
00000000
00001000
00000000
00000010
00000000
00000000
00000200
,
00000000
00000000
00000000
00000300
,
00000001
00000100
00001000
00000100
,
00000001
00000100
00001000
00010000
,
01000000
00000000
10000000
00000000
00100000
00000000
01000000
00020000
,
00000000
00000000
00000000
00030000
,
10000000
01000000
00010000
01000000
,
10000000
01000000
00010000
00001000
,
00000100
00000000
00000001
00000000
00000010
00000000
00000100
00002000
,
00000000
00000000
00000000
00003000
,
00000001
00000000
00001000
00000000
00000100
00000000
00000000
00001000
,
00000000
00000001
00000000
00000100
00000000
00000000
00001000
00000000
,
00010000
00000000
01000000
00000000
00100000
00000000
00000000
02200000
,
00000000
00000000
00000000
03300000
,
10000000
00000000
00010000
00000000
01000000
00000000
00000000
00010000
,
00000000
10000000
00000000
01000000
00000000
00000000
00010000
00000000
,
00001000
00000000
00000100
00000000
00000010
00000000
00000000
00000220
,
00000000
00000000
00000000
00000330
,
00001000
00000001
00000100
00000100
,
00001000
00000001
00000010
00000010
,
00001000
00000000
00010000
00000000
01000000
00000000
00100000
20000000
,
00000000
00000000
00000000
30000000
,
00010000
10000000
01000000
01000000
,
00010000
10000000
00100000
00100000
,
00010000
00000000
00001000
00000000
00000100
00000000
00000010
00000002
,
00000000
00000000
00000000
00000003
,
00001000
00000000
00000010
00000000
00001000
00000000
00000000
00000100
,
00000000
00000100
00000000
00000100
00000000
00000100
00000010
00000000
,
00001000
00000000
00010000
00000000
00100000
00000000
00000000
01000000
,
00000000
01000000
00000000
01000000
00000000
01000000
00100000
00000000
,
00010000
00000000
00001000
00000000
00000100
00000000
00000000
00000010
,
00000000
00000010
00000000
00000010
00000000
00000010
00000100
00000000
,
00001000
00000000
00010000
00000000
01000000
00000000
00100000
00020000
,
00000000
00000000
00000000
00000000
,
00000000
00000000
00030000
00000000
,
10000000
01000000
00010000
01000000
,
10000000
01000000
00010000
00001000
,
00000100
00000000
00000001
00000000
00000010
00000000
00000100
00002000
,
00000000
00000000
00000000
00003000
,
00000001
00000100
00001000
00000100
,
00000001
00000100
00001000
00010000
,
01000000
00000000
10000000
00000000
00100000
00000000
01000000
00020000
,
00000000
00000000
00000000
00030000
,
01000000
00000000
00100000
00000000
00100000
00000000
00000000
10000000
,
00000000
01000000
00000000
01000000
00000000
00010000
00000000
00001000
,
00000000
00000000
00000010
00000000
00000100
00000000
00001000
00000200
,
00000000
00000000
00000000
00000300
,
00000100
00000000
00000010
00000000
00000010
00000000
00000000
00000001
,
00000000
00000100
00000000
00000100
00000000
00001000
00000000
00010000
,
00000000
00000000
00100000
00000000
01000000
00000000
00010000
02000000
,
00000000
00000000
00000000
03000000
,
10000000
01000000
00000000
01000000
,
00100000
01000000
00000000
00010000
,
00001000
00010000
00000100
00000010
,
00000220
00000000
00000000
00000330
,
00000001
00000100
00000000
00000100
,
00000010
00000100
00000000
00001000
,
00010000
00001000
01000000
00100000
,
02200000
00000000
00000000
03300000
,
00010000
10000000
01000000
01000000
,
01000000
00000000
00000000
00010000
00000000
00001000
00000000
00010000
,
00000000
00000000
00000010
00000000
00001000
00000000
00000001
00000002
,
00000000
00000000
00000000
00000003
,
00001000
00000001
00000100
00000100
,
00000100
00000000
00000000
00001000
00000000
00010000
00000000
00001000
,
00000000
00000000
00100000
00000000
00010000
00000000
10000000
20000000
,
00000000
00000000
00000000
00000000
,
00000000
00000000
00000000
30000000
;
