#TITLE:birth;
#ARTIST:Yu_Asahina;
#BANNER:birth.png;
#BACKGROUND:birth-bg.png;
#MUSIC:birth.ogg;
#OFFSET:2.385;
#SAMPLESTART:94.703;
#SAMPLELENGTH:15;
#DISPLAYBPM:100:220;
#BPMS:0=100,22.75=220,75.667=440,79=220,207=110,235=220,296=440,302=220,394.667=440,402=100;
#STOPS:22.75=0.46,75.667=0.091,76.333=0.091,77=0.091,77.667=0.091,78.333=0.091,394.667=0.091,395.333=0.091,396=0.091,396.667=0.091,397.333=0.091,398=0.091,398.667=0.091,399.333=0.091,400=0.091,400.667=0.091,401.333=0.091;

//--------------- dance-single - Talkion-bSP ----------------
#NOTES:
     dance-single:
     Talkion:
     Beginner:
     5:
     :
0000
0000
0000
0000
,
0000
0000
0000
0000
,
0000
0000
0000
0000
,
0000
0000
0000
0000
,
0000
0000
0000
0000
,
0000
0000
0000
1001
,
0000
0000
0000
0000
,
0000
0000
0000
1001
,
0000
0000
0000
0010
,
0000
0010
0000
1000
,
0000
0000
1000
0000
0000
0001
0000
0000
,
0000
0001
0000
1000
,
0000
0000
1000
0000
0000
0001
0000
0000
,
0000
0001
0000
0010
,
0000
0000
0010
0000
0000
0100
0000
0000
,
0000
0100
0000
1000
,
0000
0000
1000
0000
0000
0010
0000
0000
,
0000
0010
0000
0200
,
0000
0000
0000
0000
0000
0310
0000
0000
,
0000
0000
0000
1000
,
0000
0000
1000
0000
0000
0001
0000
0000
,
0000
0001
0000
0100
,
0000
0020
0000
0000
0000
0000
0000
0000
,
0000
0030
0000
1000
,
0000
0000
1000
0000
0000
0001
0000
0000
,
0000
0001
0000
0010
,
0000
0100
0000
0010
,
0000
0100
0000
1000
,
0000
0000
1000
0000
0000
0010
0000
0000
,
0000
0010
0000
0100
,
0000
0000
0001
0000
0000
0002
0000
0000
,
0000
0003
0000
1000
,
0000
0000
1000
0000
0000
0100
0000
0000
,
0000
0100
0000
0020
,
0000
0000
0000
0000
,
0000
0030
0000
0002
,
0000
0000
0000
0000
,
0000
0003
0000
2000
,
0000
0000
0000
0000
,
0000
3000
0000
0020
,
0000
0000
0000
0000
,
0000
0030
0000
0200
,
0000
0000
0000
0000
,
0000
0300
0000
0010
,
0000
0010
0000
0020
,
0000
0030
0000
0100
,
0000
0100
0000
0200
,
0000
0300
0000
0001
,
0000
0001
0000
0000
0001
0000
0000
0001
,
0000
0001
0000
1000
,
0000
1000
0000
0000
1000
0000
0000
1000
,
0000
1000
0000
0100
,
0100
0000
0110
0010
,
0010
0000
0110
0100
,
0100
0000
0110
0002
,
0000
0000
1003
0001
,
0001
0000
1001
1000
,
1000
0000
1001
0002
,
0000
0000
0103
0010
,
0000
0010
0000
0010
,
0000
0010
0000
0010
,
0000
0010
0000
0010
,
0000
1001
0000
0100
,
0000
0100
0000
0100
,
0000
0100
0000
0100
,
0000
0100
0000
0100
,
0000
1001
0000
1000
,
0000
0000
1000
0000
,
0000
1000
0000
0001
,
0000
0000
0001
0000
,
0000
0001
0000
0100
,
0000
0100
0000
0000
0100
0000
0000
0000
,
0000
0100
0000
0010
,
0000
0010
0000
0010
0000
0010
0000
0000
,
0000
0000
0000
0000
,
0000
0000
1000
0000
,
1000
0000
0000
0100
0000
0000
0000
0000
,
0100
0000
0000
0000
0001
0000
0000
0200
,
0000
0000
0000
0000
,
0300
0000
1000
0000
,
1000
0000
0000
0010
0000
0000
0000
0000
,
0010
0000
0100
0000
,
0100
0000
0010
0000
,
0010
0000
1000
0000
,
1000
0000
0000
0010
0000
0000
0000
0000
,
0001
0000
0010
0000
,
0010
0000
0000
2000
0000
0000
0000
0000
,
3000
0000
0001
0000
,
0010
0000
0000
0010
0000
0000
0000
0000
,
0100
0000
1000
0000
,
1000
0000
0000
0001
0000
0000
0000
0000
,
0001
0000
0100
0000
,
0100
0000
0000
0100
0000
0000
0000
0000
,
0010
0000
1000
0000
,
1000
0000
0000
0001
0000
0000
0000
0000
,
1000
0000
0100
0000
,
0100
0000
0000
0001
0000
0000
0000
0000
,
0100
0000
2000
0000
,
0000
0000
0000
3001
0000
0000
0000
0000
,
0000
0000
0000
0000
,
0000
0000
0002
0003
,
0020
0030
0200
0000
,
0000
0000
0300
0000
;

//--------------- dance-single - Talkion-BSP ----------------
#NOTES:
     dance-single:
     Talkion:
     Easy:
     8:
     :
0000
0000
0000
0000
,
0000
0000
0000
0000
,
0000
0000
0000
0000
,
0000
0000
0000
0000
,
0000
0000
0000
0000
,
0000
0000
0000
2002
,
0000
0000
0000
0000
,
0000
0000
3003
2020
,
0000
0000
0000
0000
,
0000
0000
3030
0100
,
0001
0000
0100
0000
0000
0010
0000
0000
,
0010
1000
0000
0100
,
1000
0000
0100
0000
0000
0010
0000
0000
,
0010
0001
1000
0001
,
0100
0000
0001
0000
0000
0100
0000
0000
,
0100
0010
0000
1000
,
0010
0000
1000
0000
0000
0001
0000
0000
,
0001
0010
0100
2000
,
0000
0000
3001
0000
0000
1001
0000
0000
,
0000
0000
0000
1001
,
0001
0000
0100
0000
0000
0010
0000
0000
,
0010
1000
0100
0010
,
0000
0020
0000
0000
0000
0000
0000
0000
,
0000
0000
0031
1000
,
0001
0000
0000
0100
0000
0100
0000
0000
,
0010
1000
0000
0001
,
1000
0001
1000
0100
,
0010
0100
0010
0001
,
1000
0000
0010
0000
0000
0010
0000
0000
,
0100
0001
0000
1000
,
0100
0000
0010
0000
0000
0010
0000
0000
,
0001
1000
0000
0001
,
0100
0000
0001
0000
0000
1000
0000
0000
,
1000
0100
0000
0010
,
0100
0010
0100
1000
,
0001
1000
0001
0200
,
0000
0010
0000
0010
,
0000
0010
0000
0302
,
0000
0010
0000
0010
,
0000
0010
0000
2003
,
0000
0010
0000
0010
,
0000
0010
0000
3002
,
0000
0010
0000
0010
,
0000
0010
0000
0203
,
0000
0010
0000
0010
,
0000
0010
0000
0302
,
0000
1000
0000
1000
,
0000
1000
0000
0013
,
0000
0010
0000
0000
0010
0000
0000
0010
,
0000
0110
0000
0100
,
0000
0100
0000
0000
0100
0000
0000
0100
,
0000
0110
0000
1001
,
1000
0000
0100
0100
0100
0000
1001
0000
,
0001
0000
0100
0100
0100
0000
1001
0000
,
1000
0000
0010
0010
0010
0000
0100
0010
,
0100
0000
0000
0100
0000
0000
0100
0000
0010
0000
0000
0000
1001
0000
0000
0000
,
0100
0000
0010
0010
0010
0000
1001
0000
,
0010
0000
0000
0000
0100
0000
0100
0000
0100
0000
0000
0000
1000
0000
0000
0001
,
0000
0001
0000
0001
0000
0000
0000
0000
1001
0000
0000
0000
1000
0000
0000
0000
,
0010
1000
0010
1000
,
0010
1000
0010
1000
,
0010
1000
0010
1000
,
0010
1000
0000
0001
,
0010
0001
0010
0001
,
0010
0001
0010
0001
,
0010
0001
0010
0001
,
0010
0001
0000
0100
,
0000
0100
0000
0000
0100
0000
0000
0100
,
0000
1001
0000
0001
,
0010
0001
0010
0100
,
1000
0100
1000
0001
,
0000
0001
0000
0000
1000
0000
0000
1000
,
0000
0010
0100
0010
,
0000
0010
0000
0010
0000
0010
0000
0000
,
0000
0000
0000
0000
,
0000
0000
1000
0100
,
0010
0000
0000
0010
0000
0000
1000
0000
,
0010
0000
0001
0000
0100
0000
0000
0200
,
0000
0000
0000
0000
,
0000
0310
0001
0100
,
0010
0000
0000
0010
0000
0000
1000
0000
,
0001
0000
1000
0100
,
0001
0100
1000
0100
,
0010
0001
1000
0010
,
0100
0000
0000
0001
0000
0000
0001
0000
,
1000
0000
0100
0000
,
0010
0000
0000
0010
0000
0000
0001
0000
,
1000
0000
0010
0100
,
0010
0000
0000
0010
0000
0000
1000
0000
,
0001
0000
0010
0100
,
1000
0000
0000
1000
0000
0000
0010
0000
,
0001
0000
0010
0100
,
0001
0000
0000
0001
0000
0000
0010
0000
,
0100
0000
1000
0010
,
0001
0000
0000
0010
0000
0000
0010
0000
,
1000
0000
0001
0010
,
1000
0000
0000
0010
0000
0000
0010
0000
,
0001
0000
0200
0000
,
0310
0000
0000
0110
0000
0000
0000
0000
,
0000
0000
0000
0000
,
0000
0000
0002
0000
,
0023
0000
0200
0000
,
0000
0000
0330
0000
;

//--------------- dance-single - Talkion-DSP ----------------
#NOTES:
     dance-single:
     Talkion:
     Medium:
     13:
     :
0000
0000
0000
0000
,
0000
0000
0000
0000
,
0000
0000
0000
0000
,
0000
0000
0000
0000
,
0000
0000
0000
0000
,
0000
0000
0000
0022
,
0000
0000
0000
0000
,
0000
0000
0033
0110
0000
0000
2200
0000
,
0000
0000
3300
1001
0000
0201
0000
0010
,
0000
0010
0000
0310
1001
0000
1000
0000
,
0100
1000
0100
1000
0000
0001
0000
0100
,
0010
0000
1000
0002
0000
0000
0013
0000
,
0100
0010
0100
0010
0000
0001
0000
1000
,
0010
1100
0101
0001
,
0010
0001
0010
0001
0000
1000
0000
0010
,
0100
0000
0001
2000
0000
0000
3100
0000
,
0010
0100
0010
0100
0000
0001
0000
0100
,
1000
0000
0001
1000
0001
1000
0020
0000
,
0000
0000
0000
0000
0000
0000
0200
0000
0000
0000
0000
0000
0330
0000
0000
0110
0000
0000
0000
0000
0000
0000
1000
0000
,
0000
1000
0000
1100
0000
0001
0000
0001
0000
0101
0000
0000
,
0110
0000
0010
0000
1000
0200
0000
0000
,
0000
0000
0010
0000
0310
0000
0000
0001
0000
0000
0001
0000
0200
0000
0000
0000
,
0000
0010
0000
1000
1300
0000
0100
0001
,
0100
0000
0001
0010
0100
1000
0002
0000
,
0100
0103
0000
0110
0000
2010
0000
0000
,
0010
0001
3100
0010
,
0100
0000
0010
0100
0010
0100
0000
1000
,
0100
0010
0001
1000
0001
0100
0010
0000
,
0110
0000
0100
0000
0001
0020
0000
0000
,
0000
0100
0130
1000
0001
0100
0020
0000
,
0000
0000
1030
0010
0000
0102
0000
0010
,
0013
0000
0001
1000
0001
0000
2000
0000
,
0100
3100
0000
0110
0000
0012
0000
0000
,
0010
0000
1000
0000
0103
0000
0001
0010
,
0001
0000
1000
0010
1000
0000
0001
1000
,
0001
1000
0001
1000
0001
0000
0200
0000
,
0000
0320
0000
0000
0000
0000
0000
0000
,
2030
3200
0320
0032
,
2003
3020
0000
0100
0000
0100
0000
0000
,
0000
2030
3002
0023
,
0000
0230
0000
0000
0000
0000
0000
0000
,
2300
3002
0203
0320
,
0000
2030
0000
0000
0000
0000
0000
0000
,
0000
0000
0000
0000
3001
0000
0000
0001
0000
0000
0001
0000
0020
0000
0000
0000
,
0000
0000
0000
0230
2300
0000
0000
0000
,
0000
3002
0203
0320
,
0000
1000
0000
0000
0001
0000
0230
0000
,
0000
0000
0302
0000
0000
0000
1003
0100
,
0000
1000
0100
0000
0001
0100
0000
0001
,
0100
0000
1000
0000
1000
0000
0001
0100
,
0000
0001
0100
0000
1000
0100
0000
1000
,
0100
0000
0001
1000
0001
0000
1000
0000
,
1100
0000
0010
0010
0010
0000
0001
0000
,
0101
0000
0010
0010
0010
1000
0100
0000
,
0110
0000
0001
0001
0001
0000
1000
0010
,
0100
0010
0000
0010
0000
0000
0000
0000
1001
0000
0000
0000
0001
0000
0000
0000
,
0011
0000
0100
0100
0100
0000
1000
0000
,
1010
0000
0000
0000
0100
0000
0100
0000
0100
0000
0000
0000
0001
0000
0000
1000
,
0000
1000
0000
1000
0000
0000
0001
0000
1001
0000
0000
0000
1000
0000
0000
0000
,
0100
0001
0010
1000
,
0100
0001
0010
1000
,
0100
0001
0010
1000
,
0001
0000
1000
0001
0000
0000
0001
0000
,
0100
1000
0010
0001
,
0100
1000
0010
0001
,
0100
1000
0010
0001
,
1000
0000
0001
1000
0000
0000
0001
0010
,
0000
0001
0010
0000
0100
1000
0000
0100
,
1000
0000
0001
0100
0000
0001
0100
0000
,
0010
0000
1000
0010
1000
0000
0001
1000
,
0001
1000
0020
0000
0000
0000
0130
0000
,
0000
1100
0000
0000
0101
0000
0000
0011
,
0000
0000
1010
0000
1000
0000
0001
1000
,
0001
1000
0000
0100
0000
0110
0000
0000
,
0000
0000
0000
0000
,
0000
0000
1001
1100
,
0100
0000
0010
0002
0000
0000
0000
0100
,
0103
0000
0000
0010
0000
0000
0010
0000
2000
0000
0000
0000
0000
0000
0100
0000
,
0000
0010
3010
0000
0001
0010
1000
0000
,
0100
1000
0001
0100
0020
0000
1030
0010
,
0000
0101
0000
2100
0000
0000
0100
0000
,
0001
3010
0100
0010
,
0001
0010
0001
0010
0000
1000
0010
0010
,
1000
0010
0010
0000
0100
0000
0101
0000
,
0001
0000
0010
0200
0000
0000
1000
1300
,
0100
0010
0001
1000
0002
0000
0000
0000
,
0103
0010
0000
2010
0000
0100
3100
0000
,
1000
0001
1000
0000
0002
0000
0010
0013
,
0000
0110
0000
2100
0000
0000
0100
0000
,
0001
0000
3010
0000
0100
0000
0001
0100
,
0010
1000
0000
0001
0000
1000
0100
0000
,
0001
0200
0000
0000
0310
0000
0001
1000
,
0010
0100
0000
0001
0000
0100
0010
0000
,
2002
0000
3003
0000
1000
0100
0010
0001
,
1000
0010
0000
0100
0000
0010
1000
0100
,
0010
0002
0000
0000
0013
0100
1000
0001
,
0100
0010
0000
0100
0000
1000
0100
0000
,
0001
0100
0010
1000
0002
0000
0000
0000
,
2000
0000
0000
0000
0000
0000
3003
0000
0000
1001
0000
0000
0000
0000
0000
0000
0001
0000
0000
0000
0001
0000
0000
0000
,
1000
0000
1000
0000
1000
0000
0010
0000
0010
0000
0010
0000
,
0100
0000
0100
0000
0100
0000
1002
0000
0000
0000
0000
0000
,
0023
0000
0200
0000
,
0000
0000
0330
0000
;

//--------------- dance-single - Talkion-ESP ----------------
#NOTES:
     dance-single:
     Talkion:
     Hard:
     16:
     :
0000
0000
0000
0000
,
0000
0000
0000
0000
,
0000
0000
0000
0000
,
0000
0000
0000
0000
,
2002
0000
0000
0000
,
0000
0000
0000
0000
3003
0000
1000
0100
,
0010
0001
0100
0010
0000
1010
0000
1000
,
0010
0100
0001
2001
0000
0000
3100
0001
,
0100
0010
0001
1000
0000
1010
0000
0010
,
0100
0010
1000
0001
1001
0000
0001
0010
,
1000
0001
0100
1000
0000
1100
0000
0100
,
1000
0001
0100
0020
0000
0000
1030
0010
,
0001
1000
0100
0001
0000
0011
0000
0001
,
1001
0000
1100
0000
0101
0000
0001
0100
,
1000
0001
0010
1000
0000
1010
0000
0010
,
0001
0010
0100
0002
0000
0000
1003
0100
,
0001
1000
0010
0001
0000
0011
0000
0001
,
0010
0100
1000
0010
0100
0001
2000
0000
,
0000
0000
0000
0000
0000
0000
0000
0000
0000
0000
0000
0000
3100
0000
0000
1000
0000
0000
0100
0000
0000
1000
0000
0000
0001
0000
0000
0000
0000
0000
0100
0000
0000
0000
0000
0000
0000
0000
0000
0000
0000
0000
0000
0000
0110
0000
0000
0000
,
0000
0110
0000
0110
0000
0101
0000
1100
0000
1001
0000
0000
,
0101
0000
0100
0010
1000
0200
0000
0001
,
0301
0000
1000
0000
0010
0000
0000
0001
0000
0000
0100
0000
0020
0000
0000
0000
,
1000
1000
0000
0100
0100
0000
0031
0010
,
1000
0000
1000
0100
0010
0001
0200
0000
,
0010
0310
0000
0101
0000
1100
0000
1000
,
1001
0000
0001
0010
0100
0000
0100
1000
,
0010
0001
1000
0100
0001
1000
0010
0100
,
0001
0010
0100
1000
0100
0010
0001
0000
,
0011
0000
0010
0100
1000
0020
0000
0001
,
0031
1000
0100
0001
0010
0100
2000
0000
,
3001
0000
0100
0001
0100
0000
0010
0000
0000
0000
0110
0000
0000
0000
1000
0000
,
0010
1000
0001
0010
0001
0000
2001
0000
,
0100
3100
0000
0011
0000
1010
0000
0010
,
0100
0000
0100
0010
1000
0000
0001
0100
,
1000
0100
0001
0100
1000
0100
0001
0010
,
0100
1000
0001
0100
0101
0000
2001
0000
,
0100
0000
0100
0000
0100
0000
3100
0010
,
0001
0100
0010
1000
0001
0010
0002
0000
,
0100
0000
0100
0000
0100
0000
0103
0010
,
1000
0100
0010
0001
0100
1000
0200
0000
,
0010
0000
0010
0000
0010
0000
0310
1000
,
0100
0010
0001
0100
0010
1000
0020
0000
,
0001
0000
1000
0000
0001
0000
0130
0010
,
0001
0000
0010
0000
0100
0000
0000
0100
0000
0000
0100
0000
0002
0000
0000
0000
,
0010
0000
0100
0000
0010
0000
0103
1000
,
0100
0001
0010
0100
1000
0001
2000
0000
,
0010
0000
0010
0000
0010
0000
3100
0001
,
0100
1000
0010
0100
0001
0010
0001
0001
,
0000
1000
1000
0000
0010
0010
0000
0100
,
0100
0000
0110
0000
1001
0000
0001
0010
,
0010
1000
0010
0010
0001
0010
0010
1000
,
0010
0010
0001
0100
0010
1000
0100
0010
,
0110
0000
0000
0000
0000
0000
1000
0100
1000
0100
0000
0000
1000
0000
0000
0000
0000
0000
0010
0000
0000
0100
0000
0000
,
0110
0000
0000
0010
0000
0000
1000
0001
1000
0001
1000
0001
0010
0000
0000
0000
0000
0000
0100
0000
0000
0010
0000
0000
,
0110
0000
0000
0000
0000
0000
0001
1000
0001
1000
0000
0000
0100
0000
0000
0000
0000
0000
1200
0000
0000
0320
0000
0000
,
0031
1000
0000
1002
0000
0000
0103
0000
0110
0000
0010
0000
1000
0000
0001
0000
,
1001
0000
0000
0000
0000
0000
1000
0100
1000
0100
0000
0000
0010
0000
0000
0000
0000
0000
0100
0000
0000
0010
0000
0000
,
0110
0000
0000
0000
0000
0000
0100
0000
0000
0000
0000
0000
1000
0000
0001
0000
1000
0000
0001
0000
1000
0000
0001
0000
0100
0000
0000
0000
0000
0000
0010
0000
0000
0000
0000
0000
0120
0000
0000
0000
0000
0000
0000
0000
0000
1000
0000
0000
,
0000
1000
0000
1030
0000
0000
0011
0000
2010
0000
0000
0000
3001
0000
0010
0000
,
0001
0000
0010
1000
0010
0000
1000
0100
,
1000
0000
0100
0001
0100
0000
0001
0010
,
0001
0000
0010
1000
0010
0000
1000
0100
,
1000
0000
0100
0002
0000
0000
1003
0010
,
1000
0000
0010
0001
0010
0000
0001
0100
,
0001
0000
0100
1000
0100
0000
1000
0010
,
1000
0000
0010
0001
0010
0000
0001
0100
,
0001
0000
0100
1000
0100
1000
0001
0100
,
0000
0100
1000
0000
1000
0010
0000
0010
,
0001
0000
0001
1000
0000
1000
0010
0100
,
0001
0100
0010
0100
0001
1000
0100
0010
,
1000
0001
0100
0010
0001
1000
0001
0000
,
1000
1100
0000
0001
0101
0000
1000
1010
,
0000
0001
0011
0000
1000
0100
0001
1000
,
0010
0001
0000
1001
0000
0202
0000
0000
,
0000
0000
0000
0000
,
0000
0303
0101
1001
,
1000
0100
0001
2000
0000
0010
3010
0001
,
0100
0000
0000
0010
0000
0000
1000
0000
0200
0000
0000
0000
0010
0000
0010
0000
,
0000
0001
0001
0000
1300
0100
0001
0000
,
0001
0100
1000
0010
0200
0000
0301
0100
,
0000
1010
0000
0011
0000
0001
0010
0100
,
1000
0001
0100
0000
0100
0001
0010
1000
,
0001
0100
1000
0010
0001
0010
1000
0100
,
0010
0001
0100
0010
1000
0000
1001
0000
,
0001
0010
1000
0002
0000
0100
0103
1000
,
0010
0000
0100
0000
0001
0000
0010
0000
0200
0000
0000
0000
0310
0000
0001
1000
,
0001
0100
0000
0110
0000
0001
0100
0001
,
1000
0100
1000
0000
1002
0000
0010
0013
,
0000
1100
0000
0101
0000
0100
0010
0000
,
0100
0010
0100
0010
0100
0000
0010
0000
1000
0000
0100
0000
0001
0000
1000
0000
,
0010
0001
0000
0011
0000
0001
0100
1000
,
0001
0020
0000
0000
1030
0010
0001
1000
,
0100
0001
0000
0011
0000
0010
0100
1000
,
0020
0000
0000
0000
0031
0010
1000
0100
,
0010
0001
0100
0110
0000
1001
1000
0010
,
0001
0021
0000
0000
1030
0100
0001
1000
,
0010
0001
0100
0201
0000
0310
0100
1000
,
0100
0001
1000
0100
0020
0000
0000
0000
,
0031
0000
0000
0010
0000
0000
0001
0000
0000
0010
0000
0000
0100
0000
0000
0000
0000
0000
1000
0000
0000
0000
0000
0000
0000
0000
0000
0000
0000
0000
0000
0000
1001
0000
0000
0000
0000
0000
0000
0000
1001
0000
0000
0000
0000
0000
0000
0000
,
1001
0000
0101
0000
1100
0000
0110
0000
0110
0000
1001
0000
,
0101
0000
0101
0000
1001
0000
2000
0000
0000
0000
0000
0000
,
3200
0000
0020
0000
,
0000
0000
0330
0000
;

//--------------- dance-single - Talkion-CSP ----------------
#NOTES:
     dance-single:
     Talkion:
     Challenge:
     18:
     :
0000
0000
0000
0000
,
0000
0000
0000
0000
,
0000
0000
0000
0000
,
0000
0000
0000
0000
,
2002
0000
0000
0000
,
0000
0000
0000
0000
3003
0000
0101
0100
,
1000
0100
0010
2000
0000
3002
0000
0013
,
1000
0010
0100
0002
0000
0003
1100
0100
,
0010
0001
0100
0110
0000
1001
0000
0011
,
0010
0000
0100
0000
1000
0000
0001
0100
0010
0100
0001
0000
1000
0000
0100
0000
,
0001
0000
0100
0010
0001
0000
1000
0000
0001
0100
0020
0000
0000
0000
1030
0000
,
0010
0000
0001
0010
0100
0000
2000
0000
0000
0000
3100
0000
0001
0000
0010
0000
,
1000
0000
0010
0100
1000
0000
0001
0000
1000
0010
0200
0000
0000
0000
0301
0000
,
0101
0000
1000
0000
1100
0000
0001
0000
1001
0000
1000
0010
0100
0000
0010
0000
,
0001
0000
1000
0100
0010
0000
1000
0000
0001
0010
0200
0000
0000
0000
1300
0000
,
0100
0000
0010
0100
0001
0000
2000
0000
0000
0000
3010
0000
0001
0000
0100
0000
,
1000
0000
0001
0010
0100
0000
0001
0000
1000
0100
0010
0000
0000
0000
0010
0000
,
0001
1000
0001
0100
0001
1000
2100
0000
,
0001
0000
0000
0000
0000
0000
3000
0000
0000
0001
0000
0000
0010
0000
0000
0100
0000
0000
0010
0000
0000
0001
0000
0000
1000
0000
0000
0100
0000
0000
0010
0000
0000
0000
0000
0000
0000
0000
0000
0000
0000
0000
0000
0000
0011
0000
0000
0000
,
0000
1001
0000
1010
0000
0110
0000
0101
0000
1001
0000
0000
,
1100
0000
0100
0010
0001
0000
1000
0000
0010
0000
0120
0000
0000
0000
1030
0000
,
1000
0000
0001
0010
0100
0000
0000
1000
0000
0000
0001
0000
0201
0000
0000
0000
,
0310
0210
0000
1300
0100
0002
0000
0103
,
0010
0000
1000
0001
1000
0000
0100
0000
0010
0000
0001
0000
1002
0000
0000
0000
,
0103
0000
0100
0000
0000
0000
1001
0000
0000
0000
1100
0000
0000
0000
0100
0010
,
0001
1000
0010
0010
0100
0000
0101
0100
,
1000
0000
1100
0100
0001
1002
0000
0013
,
0010
0000
0100
1000
0001
0000
0100
0000
0010
1000
0001
1000
0010
0000
0000
0000
,
0101
0000
0100
0010
1000
0000
0001
0000
0010
0000
0120
0000
0000
0000
0031
0000
,
0001
0000
1000
0100
1000
0000
0001
0000
0100
0000
0010
0000
0120
0000
0000
0000
,
0031
0000
0010
1000
0100
0000
1100
0000
0000
0000
1001
0000
0000
0000
0001
0000
,
0100
0000
0010
0100
0010
0000
1000
0000
0001
0000
0000
0000
0012
0000
0000
0000
,
1003
1000
0000
1100
0000
0110
0000
0100
,
0001
0100
0010
0100
1000
0000
1001
0001
,
0100
0000
0001
0000
0010
0000
0001
0000
0100
0000
0001
0000
1000
0100
1000
0001
,
1000
0010
0100
0001
1000
0001
0010
0001
0100
0010
0100
0001
2000
0000
0000
0000
,
0100
0000
0000
0100
0000
0000
3100
0010
0001
0100
0010
0100
,
0001
0000
1000
0000
0100
0000
1000
0000
0001
0000
0010
0000
0100
0000
0000
1000
0000
0000
0002
0000
0000
0000
0000
0000
,
0100
0000
0000
0100
0000
0000
0103
0010
1000
0100
0010
0100
,
1000
0000
0000
0000
0001
0000
0000
0000
0100
0000
0000
0000
0010
0000
0000
0000
0000
0000
0000
0000
0000
0010
0000
0000
0000
0000
0000
0000
0000
0000
1000
0000
0000
0000
0000
0000
2001
0000
0000
0000
0000
0000
0000
0000
0000
0000
0000
0000
,
0100
0000
0000
0100
0000
0000
3100
0010
0001
0100
0010
1000
,
0001
0000
0100
0000
0001
0000
1000
0000
0001
0000
0010
0000
0100
0000
0000
1000
0000
0000
0002
0000
0000
0000
0000
0000
,
0100
0000
0000
0100
0000
0000
0103
0010
1000
0100
0010
0001
,
1000
0000
0000
0000
0100
0000
0000
0000
1000
0000
0000
0000
0001
0000
0000
0000
0000
0000
0000
0000
0000
0001
0000
0000
0000
0000
0000
0000
0000
0000
0100
0000
0000
0000
0000
0000
0210
0000
0000
0000
0000
0000
0000
0000
0000
0000
0000
0000
,
0001
0000
0000
0001
0000
0000
0301
1000
0100
0010
0001
0100
,
0010
0000
0100
0000
0001
0000
0010
0000
0100
0000
0010
0000
0001
0000
0000
0100
0000
0000
0020
0000
0000
0000
0000
0000
,
1000
0000
0000
1000
0000
0000
1030
0001
0010
0100
1000
0010
,
0100
0000
0010
0000
1000
0000
0100
0000
0010
0000
0100
0000
1000
0000
0000
0010
0000
0000
1020
0000
0000
0130
0000
0000
,
0000
0021
0130
0000
1200
0310
0000
0201
,
0310
0000
1001
0000
1001
0000
1100
1001
,
0000
0101
1001
0000
1010
1001
0000
0011
,
1001
0000
1000
0000
0100
0010
0001
1000
0001
0100
0010
1000
0001
0000
0010
0000
,
0110
0000
0000
0000
0000
0000
1000
0000
0000
0000
0001
0000
0100
0000
0100
0000
1000
0000
0001
0000
0000
0000
0000
0000
0100
0000
0000
0010
0000
0000
1000
0000
0000
0001
0000
0000
2000
0000
0000
0000
0000
0000
3100
0000
0000
0000
0100
0000
,
0010
0000
0000
0001
0000
1000
0010
0010
0001
1000
0100
1000
0010
0100
0001
1000
0000
0000
0001
0000
0000
0010
0000
0010
,
0100
0000
0000
0000
0000
0000
1000
0000
0000
0000
0001
0000
0100
0000
0100
0000
1000
0000
0001
0000
0000
0000
0000
0000
0100
0000
0000
0010
0000
0000
1000
0000
0000
0000
0000
0000
0100
0000
0000
0000
0000
0000
0010
0000
0000
0000
0000
0000
,
0100
0000
0000
1000
0000
0000
0000
0000
0000
0002
0000
0000
0000
0000
0000
0000
0103
0000
0010
0000
0000
0000
0010
0000
0001
0000
0000
0000
0000
0000
0010
0000
0000
0000
0000
0000
1000
0000
0000
0000
0000
0000
0100
0000
0000
0000
0100
0000
,
0010
0000
0000
0000
0000
0000
0001
0000
0000
0000
1000
0000
0010
0000
0010
0000
0001
0000
1000
0000
0000
0000
0000
0000
0010
0000
0000
0100
0000
0000
0010
0000
0000
1000
0000
0000
0001
0000
0000
0000
0010
0000
0100
0000
0010
0000
0000
0000
,
0001
0000
0000
0000
1000
0000
0000
0000
0000
0000
0001
0000
0010
0000
0010
0000
1000
0000
0001
0000
0100
0000
0001
0000
0010
0000
0100
0000
1000
0000
0001
0000
0000
0000
0000
0000
0201
0000
0000
0000
0000
0000
0000
0000
0000
1000
0000
0000
,
0000
0000
0000
0001
0000
0000
0000
0000
0000
1300
0000
0000
0000
0000
0000
0000
0100
0000
0010
0000
0000
0000
0000
0000
2002
0000
0000
0000
0000
0000
3003
0000
0000
0000
0000
0000
1000
0000
0000
0000
0000
0000
0100
0000
0000
1000
0000
0000
,
0100
0000
1000
0100
1000
0000
0100
0010
0001
0000
1000
0010
0100
0000
0001
0100
,
0001
0000
0100
0001
0100
0000
0001
0100
0010
0000
1000
0001
0010
0000
0001
0010
,
0001
0000
1000
0010
1000
0000
0001
0010
0001
0000
1000
0010
0100
0000
0001
0100
,
0001
0000
1000
0000
1001
0000
1001
0000
0000
0000
0000
0000
0001
0000
0010
0001
,
0010
0000
0001
0010
0001
0000
0010
0100
1000
0000
0001
0100
0010
0000
1000
0010
,
1000
0000
0010
1000
0010
0000
1000
0010
0100
0000
0001
1000
0100
0000
1000
0100
,
1000
0000
0001
0100
0001
0000
1000
0100
1000
0000
0001
0100
0010
0000
1000
0010
,
1000
0000
0001
0000
0010
0000
0010
0000
0100
1000
0100
1000
0001
0000
1001
0000
,
0000
0101
1001
0000
1010
1001
0000
0011
,
1001
0000
1100
1001
0000
0101
1001
0000
,
1000
0100
0010
0100
0001
0100
0010
0100
,
1000
0000
0001
0000
0100
0010
1000
0010
0100
0010
1000
0010
0100
0000
0001
1000
,
0001
0000
0010
0000
0001
1000
0001
0000
0100
0000
0001
1000
0001
0000
0010
0100
,
1000
0001
0100
0001
1000
0001
0010
0100
1000
0100
0010
0001
1000
0001
0100
0010
,
1000
1001
0000
0011
0000
2200
0000
0000
,
0000
0000
0000
0000
,
3300
0000
0000
0000
0000
0000
0000
0000
1001
0000
0000
0000
0101
0000
0100
0010
,
1000
0000
0001
0000
0010
0000
0120
0000
0000
0000
0031
0000
0001
0000
1000
0010
,
0100
0000
0000
0001
0000
0000
1000
0000
1200
0000
0000
0000
0310
0000
0210
0000
,
0000
0000
0301
0000
0100
0000
2000
0000
0000
0000
3100
0000
0010
0000
0001
1000
,
0001
0100
0010
1000
2100
0000
3001
0011
,
0000
0000
0010
0000
1000
0000
1100
0000
0000
0000
1000
0010
1000
0000
0010
0000
,
0100
0000
0100
0000
1000
0000
0000
0000
1001
0000
0001
0000
0100
0000
0010
0100
,
0001
1000
0010
2000
0001
0000
0100
0100
,
0100
0000
3100
0000
0010
0001
1000
0001
0010
0000
0000
0000
1100
0000
0100
0010
,
0001
0000
1000
0000
0010
0000
0120
0000
0000
0000
1030
0000
1000
0000
0001
0100
,
0001
0000
1000
0000
0100
0000
0010
0000
0120
0000
0000
0000
1030
0000
0010
0001
,
0100
0000
0101
0000
0000
0000
1001
0000
0000
0000
1000
0000
0100
0000
0010
0100
,
0001
1000
1001
0000
0110
0000
1001
1001
,
0000
1010
0000
0101
0000
0001
1000
0001
,
0010
0100
1000
0100
0010
0000
0000
0000
0012
0000
0000
0000
1000
0000
2000
0000
,
0000
0000
0000
0000
,
0000
0000
0000
0000
3003
0000
0000
0000
0001
0000
0010
0000
1000
0000
0010
0100
,
1000
0000
0001
0000
1000
0010
0200
0000
0000
0000
0301
0000
0100
0000
0010
0000
,
0001
0010
0100
0010
1000
0000
0001
1000
0001
0000
0010
0000
1000
0000
0010
0100
,
1000
0000
0001
0000
1000
0010
0200
0000
0000
0000
0301
0000
0100
0000
1000
0100
,
0010
0000
0002
0000
0000
0000
0013
0000
1000
0000
0100
0000
0001
0000
0100
0010
,
0001
0000
1000
0000
0001
0100
0010
0000
0000
0000
0010
0000
1000
0000
0001
0000
,
1000
0000
0100
0000
1000
0000
0001
0000
0012
0000
0000
0000
1000
0000
0003
1000
,
0100
0000
0000
0010
0000
0000
0100
0000
0000
1000
0000
0000
0001
0000
0000
0010
0000
0000
0100
0000
0000
0000
0000
0000
0000
0000
0000
0000
0000
0000
0000
0000
1100
0000
0000
0000
0000
0000
0000
0000
1001
0000
0000
0000
0000
0000
0000
0000
,
0101
0000
1100
0000
1010
0000
0011
0000
1010
0000
1100
0000
,
0101
0000
1001
0000
1100
0000
0012
0000
0000
0000
0000
0000
,
2003
0000
3020
0000
,
0000
0000
0030
0000
;

//--------------- dance-double - Talkion-BDP ----------------
#NOTES:
     dance-double:
     Talkion:
     Easy:
     8:
     :
00000000
00000000
00000000
00000000
,
00000000
00000000
00000000
00000000
,
00000000
00000000
00000000
00000000
,
00000000
00000000
00000000
00000000
,
00000000
00000000
00000000
00000000
,
00000000
00000000
00000000
00000022
,
00000000
00000000
00000000
00000000
,
00000000
00000000
00000033
00002200
,
00000000
00000000
00000000
00000000
,
00000000
00000000
00003300
00010000
,
00001000
00000000
00100000
00000000
00000000
00100000
00000000
00000000
,
00010000
10000000
00000000
00100000
,
10000000
00000000
00010000
00000000
00000000
00010000
00000000
00000000
,
00100000
00001000
00000000
00010000
,
00000100
00000000
00001000
00000000
00000000
00001000
00000000
00000000
,
00000001
00000100
00000000
00000001
,
00001000
00000000
00000100
00000000
00000000
00000100
00000000
00000000
,
00010000
00001000
00000000
00200000
,
00000000
00000000
00300000
00000000
00000000
01100000
00000000
00000000
,
00000000
00000000
00000000
10000000
,
00010000
00000000
00100000
00000000
00000000
00001000
00000000
00000000
,
00001000
00010000
00000100
00001000
,
00000000
00000002
00000000
00000000
00000000
00000000
00000000
00000000
,
00000000
00000013
00000001
00001000
,
00000100
00000000
00000000
00010000
00000000
00010000
00000000
00000000
,
00001000
01000000
00000000
00100000
,
00000000
00000000
10000000
00000000
00000000
02000000
00000000
00000000
,
00000000
03100000
00010000
10000000
,
00100000
00000000
01000000
00000000
00000000
00010000
00000000
00000000
,
00010000
00100000
00001000
00010000
,
00000000
00000000
00000100
00000000
00000000
00000020
00000000
00000000
,
00000000
00000031
00000100
00000010
,
00000000
00001000
00000000
00001000
00000000
00001000
00000000
00000000
,
00000100
00010000
00000000
00001000
,
00010000
00001000
00010000
00001000
,
00010000
00001000
00000000
00200000
,
00000000
01000000
00000000
01000000
,
00000000
01300000
00000000
00020000
,
00000000
00001000
00000000
00001000
,
00000000
00031000
00000000
00000200
,
00000000
00000010
00000000
00000010
,
00000000
00000310
00000000
00002000
,
00000000
00000001
00000000
00000001
,
00000000
00003001
00000000
00000020
,
00000000
00001000
00000000
00001000
,
00000000
00001030
00000000
00020000
,
00000000
00100000
00000000
00100000
,
00000000
00130000
00000000
10000000
,
00000000
00010000
00000000
00000000
00100000
00000000
00000000
00001000
,
00000000
00010000
00000000
00000100
,
00000000
00010000
00000000
00000000
00001000
00000000
00000000
00100000
,
00000000
00010000
00000000
10000000
,
00100000
00010000
00001000
00000010
,
00000001
00001001
00000000
00000001
,
00000100
00001000
00010000
01000000
,
10000000
00000000
00000000
20000000
00000000
00000000
00000000
00000000
30010000
00000000
00000000
00000000
00100000
00000000
00000000
00000000
,
00001000
00010000
00000100
00001000
,
00000010
00000000
00000000
00000000
00000100
00000000
00000000
00000000
00000110
00000000
00000000
00000000
00000001
00000000
00000000
00001000
,
00000000
00001000
00000000
00001000
00000000
00000000
00000000
00000000
00000100
00000000
00000000
00000000
00010000
00000000
00000000
00000000
,
00001000
00010000
00001000
00010000
,
00001000
00010000
00001000
00010000
,
00001000
00010000
00001000
00100000
,
00010000
01000000
00000000
00100000
,
01000000
00100000
01000000
00100000
,
01000000
00100000
01000000
00100000
,
01000000
00100000
01000000
00010000
,
00100000
00001000
00000000
00010000
,
00000000
00000100
00000000
00000000
00000010
00000000
00000000
00000001
,
00000000
00001000
00000000
00000001
,
00000100
00000001
00000100
00000001
,
00000100
00001000
00010000
00001000
,
00000000
00100000
00000000
00000000
00010000
00000000
00000000
01000000
,
00000000
00100000
10000000
00010000
,
00000000
00010000
00000000
00010000
00000000
00010000
00000000
00000000
,
00000000
00000000
00000000
00000000
,
00000000
00000000
00100000
00001000
,
00010000
00000000
00000000
00010000
00000000
00000000
00000100
00000000
,
00001000
00000000
00000001
00000000
00000100
00000000
00000000
00000020
,
00000000
00000000
00000000
00000000
,
00001030
00000100
00010000
00001000
,
00000000
00100000
00000000
00100000
00000000
00000000
01000000
00000000
,
10000000
00000000
00010000
00000000
,
00100000
00000000
00000000
00002000
00000000
00000000
00000000
00000000
,
00013000
00000100
00001000
00000001
,
00000100
00000000
00000000
00000100
00000000
00000000
00000010
00000000
,
00010000
00001000
00100000
00000000
,
01000000
00000000
00000000
20000000
00000000
00000000
00000000
00000000
,
00000000
00000000
00000000
00000000
30010000
00000000
00000000
00100000
,
00000000
00100000
00000000
00100000
00000000
00000000
00001000
00000000
,
00010000
00000000
00000100
00001000
,
00000010
00000000
00000000
00000010
00000000
00000000
00000100
00000000
,
00001000
00000000
00010000
01000000
,
00100000
00000000
00000000
00100000
00000000
00000000
00010000
00000000
,
10000000
00000000
00010000
01000000
,
10000000
00000000
00000000
01000000
00000000
00000000
01000000
00000000
,
00010000
00000000
00100000
00001000
,
00010000
00000000
00000000
00000100
00000000
00000000
00000100
00000000
,
00000010
00000001
00002000
00000000
,
00000000
00003000
00000000
00001001
00000000
00000000
00000000
00000000
,
00000000
00000000
00000000
00000000
,
00000000
00000000
00002000
00000000
,
00003020
00000000
00000200
00000000
,
00000000
00000000
00000330
00000000
;

//--------------- dance-double - Talkion-DDP ----------------
#NOTES:
     dance-double:
     Talkion:
     Medium:
     13:
     :
00000000
00000000
00000000
00000000
,
00000000
00000000
00000000
00000000
,
00000000
00000000
00000000
00000000
,
00000000
00000000
00000000
00000000
,
00000000
00000000
00000000
00000000
,
00000000
00000000
00000000
22000000
,
00000000
00000000
00000000
00000000
,
00000000
00000000
33000000
01100000
00000000
00000000
00202000
00000000
,
00000000
00000000
00303000
00011000
00000000
00010200
00000000
00000010
,
00000000
00000010
00000000
00000310
00001001
00000000
00000001
00000000
,
00000100
00000010
00000100
00000010
00000000
00001000
00000000
00000100
,
00010000
00000000
00001000
00200000
00000000
00000000
00310000
00000000
,
10000000
00100000
10000000
00100000
00000000
01000000
00000000
00010000
,
00100000
00101000
00011000
00001000
,
00000010
00000100
00000010
00000100
00000000
00010000
00000000
00000100
,
00001000
00000000
00000001
00000200
00000000
00000000
00001300
00000000
,
00010000
00001000
00010000
00001000
00000000
00100000
00000000
00010000
,
01000000
00000000
00100000
10000000
00100000
10000000
00020000
00000000
,
00000000
00000000
00000000
00000000
00000000
00000000
00200000
00000000
00000000
00000000
00000000
00000000
00330000
00000000
00000000
00110000
00000000
00000000
00000000
00000000
00000000
00000000
00100000
00000000
,
00000000
00001000
00000000
00100000
00000000
00001000
00000000
00010000
00000000
00001000
00000000
00000000
,
00011000
00000000
00010000
00000000
01000000
00200000
00000000
00000000
,
00000000
00000000
00001000
00000000
00301000
00000000
00000000
00010000
00000000
00000000
00000100
00000000
00002000
00000000
00000000
00000000
,
00000000
00000010
00000000
00000001
00003001
00000000
00000100
00000001
,
00000100
00000000
00000010
00010000
00001000
01000000
00020000
00000000
,
10000000
10030000
00000000
11000000
00000000
01200000
00000000
00000000
,
00001000
00010000
00301000
00010000
,
00000100
00000000
00001000
00000010
00001000
00000010
00000000
00000100
,
00000001
00001000
00000100
00001000
00000001
00000000
00000100
00000000
,
00000110
00000000
00000010
00000000
00001000
00000200
00000000
00000000
,
00010000
00010300
00001000
00100000
00010000
10000000
00200000
00000000
,
00000000
00000000
01300000
00100000
00000000
01020000
00000000
00100000
,
00130000
00000000
00001000
00010000
00001000
00000000
00000020
00000000
,
00000100
00000130
00000000
00001100
00000000
00001002
00000000
00000000
,
00001000
00000000
00000100
00000000
00001003
00000000
00000100
00010000
,
00000100
00000000
00010000
00001000
00010000
00000000
00001000
00100000
,
00001000
00100000
00001000
00100000
00010000
00000000
10000000
00000000
,
00100000
00010000
00001000
00000010
,
00000001
00000000
00001000
00000001
00001000
00000000
00000001
00000000
,
00000100
00001000
00010000
01000000
,
10000000
00000000
00010000
10000000
00010000
00000000
10000000
00000000
,
00100000
00010000
00001000
00000010
,
00001000
00000000
00010000
00001000
00010000
00000000
00001000
00000000
,
00000100
00000001
00000010
00001000
,
00010000
00000000
00000000
00000000
00001000
00000000
00000000
00001000
00000000
00000000
00001000
00000000
00010000
00000000
00000000
00000000
,
00100000
10000000
01000000
00010000
,
00001000
00000000
00000100
00000010
00000100
00000000
00000001
00000000
,
00000100
00001000
00010000
01000000
,
10000000
00000000
00100000
01000000
00100000
00000000
00010000
00001000
,
00000000
00010000
00001000
00000000
00000010
00000100
00000000
00000010
,
00000100
00000000
00001000
00000000
00000001
00000000
00000100
00000010
,
00000000
00000100
00000010
00000000
00010000
00001000
00000000
00010000
,
00001000
00000000
00100000
01000000
00100000
00000000
00010000
00000000
,
10000000
00000000
00010000
00001000
00000001
00000000
00001000
00000000
,
00000001
00000000
00001000
00010000
10000000
00000000
00010000
00000000
,
00001000
00000000
00000001
00000010
00000100
00001000
00000001
00000100
,
00001000
00000000
00000000
00010000
00000000
00000000
00001000
00000000
00011000
00000000
00000000
00000000
00010000
00000000
00000000
00000000
,
10000000
00000000
00010000
00001000
00000010
00000000
00000001
00000000
,
00001000
00000000
00000000
00000000
00010000
00000000
00100000
00000000
01000000
00000000
00000000
00000000
10000000
00000000
00000000
00010000
,
00000000
00010000
00000000
00010000
00000000
00000000
00100000
00000000
00001000
00000000
00000000
00000000
00010000
00000000
00000000
00000000
,
01000000
10000000
00100000
00010000
,
10000000
01000000
00010000
00100000
,
10000000
00010000
01000000
10000000
,
00100000
00000000
00010000
00001000
00000000
00000000
00001000
00000000
,
00000010
00000001
00000100
00001000
,
00000001
00000010
00001000
00000100
,
00000001
00001000
00000010
00000001
,
00000100
00000000
00001000
00010000
00000000
00000000
00010000
01000000
,
00000000
00010000
01000000
00000000
10000000
00010000
00000000
10000000
,
00010000
00000000
00100000
00001000
00000000
00100000
00001000
00000000
,
00010000
00000000
00001000
00010000
00001000
00000000
00000100
00000010
,
00000100
00000010
00000200
00000000
00000000
00000000
00000301
00000000
,
00000000
00000101
00000000
00000000
00001100
00000000
00000000
00011000
,
00000000
00000000
01010000
00000000
01000000
00000000
00100000
00010000
,
00100000
00010000
00000000
10000000
00000000
10010000
00000000
00000000
,
00000000
00000000
00000000
00000000
,
00000000
00000000
00010000
00110000
,
00100000
00000000
00001000
00020000
00000000
00000000
00000100
00030100
,
00000000
00001000
00000000
00000000
00000010
00000000
00000200
00000000
00000000
00000000
00000000
00000000
00000000
00000000
00001000
00000000
,
00000000
00000010
00000310
00000000
00001000
00000001
00001000
00000000
,
00000100
00010000
00001000
00100000
00020000
00000000
10000000
10030000
,
00000000
00110000
00000000
00102000
00000000
00000000
00010000
00000000
,
00100000
00013000
00000100
00010000
,
00001000
00100000
00001000
00100000
00000000
01000000
00100000
00010000
,
10000000
00100000
01000000
00000000
00010000
00000000
01010000
00000000
,
01000000
00000000
00001000
00020000
00000000
00000000
00000100
00030100
,
00001000
00000001
00000100
00000010
00002000
00000000
00000000
00000000
,
00003001
00001000
00000000
00001200
00000000
00010000
00010000
00000000
,
00001000
00000000
00010300
00000000
00002000
00000000
00100000
00103000
,
00000000
00110000
00000000
20010000
00000000
00000000
00010000
00000000
,
00100000
00000000
30010000
00000000
00100000
00000000
00001000
00010000
,
00001000
00010000
00000000
00000100
00000000
00001000
00000010
00000000
,
00000100
00000002
00000000
00000000
00000013
00000000
00000100
00010000
,
00000100
00010000
00000000
00001000
00000000
00100000
00010000
00000000
,
20020000
00000000
30030000
00000000
10000000
00100000
01000000
00010000
,
00100000
00001000
00000000
00010000
00000000
00000100
00001000
00000001
,
00000100
00000020
00000000
00000000
00001030
00000001
00000010
00000100
,
00010000
00001000
00000000
00100000
00000000
00010000
01000000
00000000
,
00100000
10000000
00010000
00100000
00002000
00000000
00000000
00000000
,
00020000
00000000
00000000
00000000
00000000
00000000
00033000
00000000
00000000
00011000
00000000
00000000
00000000
00000000
00000000
00000000
00010000
00000000
00000000
00000000
00001000
00000000
00000000
00000000
,
00010000
00000000
00000100
00000000
00001000
00000000
00000001
00000000
00000100
00000000
00000010
00000000
,
00001000
00000000
00000100
00000000
00010000
00000000
00002000
00000000
00000000
00000000
00000000
00000000
,
00203000
00000000
02000000
00000000
,
00000000
00000000
03300000
00000000
;

//--------------- dance-double - Talkion-EDP ----------------
#NOTES:
     dance-double:
     Talkion:
     Hard:
     16:
     :
00000000
00000000
00000000
00000000
,
00000000
00000000
00000000
00000000
,
00000000
00000000
00000000
00000000
,
00000000
00000000
00000000
00000000
,
00022000
00000000
00000000
00000000
,
00000000
00000000
00000000
00000000
00033000
00000000
00001000
00100000
,
00010000
01000000
00100000
10000000
00000000
10010000
00000000
10000000
,
01000000
00100000
00001000
00102000
00000000
00000000
00013000
00000100
,
00001000
00000010
00000100
00000001
00000000
00001001
00000000
00000001
,
00000010
00001000
00010000
01000000
01100000
00000000
00100000
00010000
,
00001000
00100000
00010000
00001000
00000000
00011000
00000000
00001000
,
00000010
00000001
00000100
00000020
00000000
00000000
00000130
00001000
,
00010000
00000100
00001000
00010000
00000000
01010000
00000000
01000000
,
01100000
00000000
11000000
00000000
01010000
00000000
10000000
00100000
,
00010000
00001000
00000010
00000001
00000000
00000101
00000000
00000001
,
00000010
00001000
00010000
00000200
00000000
00000000
00000301
00000100
,
00001000
00010000
01000000
10000000
00000000
11000000
00000000
01000000
,
00100000
10000000
01000000
00100000
00001000
00010000
00000200
00000000
,
00000000
00000000
00000000
00000000
00000000
00000000
00000000
00000000
00000000
00000000
00000000
00000000
00001300
00000000
00000000
00000001
00000000
00000000
00001000
00000000
00000000
00000000
00000000
00000000
00000001
00000000
00000000
00000000
00000000
00000000
00000100
00000000
00000000
00000000
00000000
00000000
00000000
00000000
00000000
00000000
00000000
00000000
00000000
00000000
00000010
00000000
00000000
00000000
,
00000000
00000010
00000000
00000101
00000000
00000110
00000000
00010010
00000000
00011000
00000000
00000000
,
00101000
00000000
00100000
00010000
01000000
00200000
00000000
00010000
,
00310000
00000000
00001000
00000000
00000010
00000000
00000000
00000001
00000000
00000000
00000100
00000000
00000020
00000000
00000000
00000000
,
00001000
00001000
00000000
00000100
00000100
00000000
00000031
00000010
,
00001000
00000000
00001000
00000100
00000010
00001000
00020000
00000000
,
00100000
00130000
00000000
11000000
00000000
01010000
00000000
00010000
,
10010000
00000000
10000000
01000000
00010000
00000000
00010000
00001000
,
00000010
00010000
00001000
00000010
00000100
00000001
00001000
00000010
,
00000001
00000010
00001000
00010000
00002000
00000000
00003100
00000000
,
00000110
00000000
00000100
00001000
00000010
00000200
00000000
00001000
,
00001300
00010000
01000000
10000000
00100000
01000000
00020000
00000000
,
01030000
00001000
00010000
00000100
00000000
00000110
00000000
00000001
,
00000010
00000001
00001000
00000010
00001000
00000000
00000200
00000000
,
00010000
00010300
00000000
00001100
00000000
00011000
00000000
00010000
,
00100000
00000000
10000000
00010000
10000000
00000000
01000000
00010000
,
00001000
00010000
01000000
00010000
00001000
00000010
00000001
00000100
,
00001000
00010000
00100000
10000000
00010000
00000000
20010000
00000000
,
32000000
00000000
00000000
00000000
03020000
00000000
00000000
00000000
00032000
00000000
00000000
00000000
00003010
00000000
00000000
00000010
,
00000001
00000000
00000000
00000001
00000100
00000000
00000000
00000100
00000010
00000000
00000000
00000000
00001002
00000000
00000000
00000000
,
00000023
00000000
00000000
00000000
00002030
00000000
00000000
00000000
00023000
00000000
00000000
00000000
00130000
00000000
00000000
00100000
,
10000000
00000000
00000000
10000000
01000000
00000000
00000000
01000000
00100000
00000000
00000000
00000000
00102000
00000000
00000000
00000000
,
00003020
00000000
00000000
00000000
00000230
00000000
00000000
00000000
00020300
00000000
00000000
00000000
00031000
00000000
00000000
00001000
,
00000100
00000000
00000000
00000100
00000001
00000000
00000000
00000001
00000010
00000000
00000000
00000000
00000210
00000000
00000000
00000000
,
00020300
00000000
00000000
00000000
02030000
00000000
00000000
00000000
03200000
00000000
00000000
00000000
00301000
00000000
00000000
00001000
,
00010000
00000000
00000000
00010000
00100000
00000000
00000000
00100000
00000000
00000000
00100000
00000000
20010000
00000000
00000000
00000000
,
30020000
00000000
00000000
00000000
00032000
00000000
00000000
00000000
00023000
00000000
00000000
00000000
00130000
00000000
00000000
00100000
,
00001000
00000000
00000000
00001000
00010000
00000000
00000000
00010000
00000100
00000000
00000000
00000000
00001002
00000000
00000000
00000000
,
00002003
00000000
00000000
00000000
00023000
00000000
00000000
00000000
00032000
00000000
00000000
00000000
00003100
00000000
00000000
00000100
,
00010000
00000000
00000000
00010000
00001000
00000000
00000000
00001000
00100000
00000000
00010000
00000000
01000000
00000000
01000000
00000000
,
00000000
00001000
00001000
00000000
00000010
00000010
00000000
00010000
,
00010000
00000000
01100000
00000000
10010000
00000000
10000000
01000000
,
00010000
00001000
00000010
00000001
00000100
00001000
00010000
00000100
,
00001000
00010000
00000100
00000010
00001000
00000100
00000010
00000000
,
00001001
00000000
00000001
00001000
00010000
10000000
00100000
00000000
,
10010000
00000000
00000000
00000000
00000000
00000000
10000000
01000000
10000000
02000000
00000000
00000000
03010000
00000000
00000000
00001000
00000000
00000000
00000010
00000000
00000000
00000000
00000000
00000000
,
00001001
00000000
00000001
00001000
00010000
10000000
02000000
03200000
,
00301000
00010000
00000000
00012000
00000000
00000000
00103000
00000000
01100000
00000000
00000000
00000000
01000000
00000000
00000000
00000000
,
10010000
00000000
10000000
00010000
00001000
00000001
00000100
00000000
,
00001001
00000000
00000000
00000000
00000000
00000000
00000000
00000000
00000000
00000000
00000000
00000000
00000001
00000000
00000010
00000000
00000001
00000000
00000020
00000000
00000000
00000000
00000000
00000000
00001030
00000000
00010000
00000000
00001000
00000000
00010000
00000000
00000000
00000000
00000000
00000000
00021000
00000000
00000000
00000000
00000000
00000000
00000000
00000000
00000000
01000000
00000000
00000000
,
00000000
01000000
00000000
01030000
00000000
00000000
01100000
00000000
20010000
00000000
00000000
00000000
30100000
00000000
00010000
00000000
,
00100000
00000000
00010000
00001000
00010000
00000000
01000000
00010000
,
01000000
00000000
10000000
00100000
10000000
00000000
00100000
00010000
,
00100000
00000000
00010000
00001000
00010000
00000000
00001000
00000010
,
00001000
00000000
00000010
00000010
00000000
00000000
00000010
00001000
,
00000010
00000000
00001000
00010000
00001000
00000000
00000100
00001000
,
00000100
00000000
00000001
00000010
00000001
00000000
00000010
00001000
,
00000010
00000000
00001000
00010000
00001000
00000000
00010000
00100000
,
00010000
00000000
00200000
10000000
10000000
10300000
00010000
00001000
,
00000000
00001000
00000001
00000000
00000001
00000010
00000000
00000010
,
00000100
00000000
00000100
00001000
00000000
00001000
00000001
00000000
,
00000001
00000000
00000100
00000000
00001000
00010000
00001000
00000000
00010000
00000000
00000000
00000000
00010000
00000000
01000000
00000000
,
10000000
01000000
00010000
00001000
01000000
00010000
00001000
00000000
,
00000100
00000110
00000000
00000010
00000011
00000000
00000001
00000101
,
00000000
00000100
00001100
00000000
00011000
00000000
00100000
00100000
,
01000000
01000000
00000000
01010000
00000000
00022000
00000000
00000000
,
00000000
00000000
00000000
00000000
,
00000000
00033000
00001000
00001100
,
00000100
00000010
00001000
00000200
00000000
00000001
00000301
00001000
,
00000010
00000000
00000000
00000001
00000000
00000000
00000100
00000000
00002000
00000000
00000000
00000000
01000000
00000000
01000000
00000000
,
00000000
00100000
00100000
00000000
00003010
00001000
00000001
00000100
,
00001000
00000001
00000100
00001000
00020000
00000000
01000000
01030000
,
00000000
00110000
00000000
10100000
00000000
00100000
01100000
00000000
,
10000000
00100000
00010000
00000000
00001000
00100000
00010000
00001000
,
00100000
00010000
00001000
00000010
00000001
00000100
00000010
00000010
,
00010000
00010000
00001000
00001000
00010000
00000000
00110000
00000000
,
00100000
01000000
00010000
00200000
00000000
10000000
10300000
00010000
,
01000000
10000000
00010000
00100000
00002000
00000000
00003010
00000001
,
00000100
00000010
00000000
00000110
00000000
00000001
00000100
00000001
,
00001000
00000100
00001000
00000000
00000020
00000000
00010000
00010030
,
00000000
00001010
00000000
00011000
00000000
00010000
00100000
00000000
,
10000000
00010000
10000000
00000000
00100000
00010000
00001000
00100000
,
00010000
00001000
00000000
00001100
00000000
00000100
00000001
00001000
,
00000010
00000002
00000000
00000000
00000103
00001000
00010000
00000100
,
00001000
00010000
00000000
00110000
00000000
00100000
10000000
00010000
,
02000000
00000000
00000000
00000000
03100000
00001000
00010000
00100000
,
00001000
00010000
00100000
00101000
00000000
00001000
00000010
00000001
,
00000100
00000120
00000000
00000000
00000031
00000010
00001000
00010000
,
00000100
00001000
00010000
00021000
00000000
01030000
10000000
01000000
,
00010000
01000000
00100000
00001000
00020000
00000000
00000000
00000000
,
00030100
00000000
00000000
00010000
00000000
00000000
00000100
00000000
00000000
00000000
00000000
00000000
00010000
00000000
00000000
00000000
00000000
00000000
00000010
00000000
00000000
00000000
00000000
00000000
00000000
00000000
00000000
00000000
00000000
00000000
00000000
00000000
00000100
00000000
00000000
00000000
00000000
00000000
00000000
00000000
00000100
00000000
00000000
00000000
00000000
00000000
00000000
00000000
,
00000101
00000000
00000101
00000000
00000110
00000000
00001010
00000000
00001010
00000000
00010010
00000000
,
00011000
00000000
00011000
00000000
00101000
00000000
00120000
00000000
00000000
00000000
00000000
00000000
,
02030000
00000000
00200000
00000000
,
00000000
00000000
03300000
00000000
;

//--------------- dance-double - Talkion-CDP ----------------
#NOTES:
     dance-double:
     Talkion:
     Challenge:
     18:
     :
00000000
00000000
00000000
00000000
,
00000000
00000000
00000000
00000000
,
00000000
00000000
00000000
00000000
,
00000000
00000000
00000000
00000000
,
20020000
00000000
00000000
00000000
,
00000000
00000000
00000000
00000000
30030000
00000000
11000000
10000000
,
01000000
00100000
01000000
00020000
00000000
00032000
00000000
00013000
,
00100000
01000000
10000000
12000000
00000000
03000000
01010000
00010000
,
01000000
00001000
00010000
00010100
00000000
00001001
00000000
00000011
,
00000001
00000000
00000010
00000000
00000100
00000000
00001000
00000100
00010000
00000100
00001000
00000000
00000001
00000000
00000100
00000000
,
00000010
00000000
00000100
00001000
00000100
00000000
00001000
00000000
00010000
00001000
00020000
00000000
00000000
00000000
00031000
00000000
,
00000010
00000000
00000100
00000010
00000100
00000000
00000002
00000000
00000000
00000000
00000103
00000000
00001000
00000000
00000001
00000000
,
00000100
00000000
00000010
00001000
00000010
00000000
00010000
00000000
00001000
00010000
00002000
00000000
00000000
00000000
01003000
00000000
,
01010000
00000000
00100000
00000000
10100000
00000000
00000000
00000000
10010000
00000000
10000000
00100000
10000000
00000000
00010000
00000000
,
00100000
00000000
01000000
00010000
01000000
00000000
00100000
00000000
00001000
00010000
00002000
00000000
00000000
00000000
00003010
00000000
,
00000001
00000000
00000100
00000010
00000100
00000000
00002000
00000000
00000000
00000000
00003100
00000000
00000001
00000000
00001000
00000000
,
00000100
00000000
00000010
00001000
00000010
00000000
00000100
00000000
00010000
00001000
00020000
00000000
00000000
00000000
01030000
00000000
,
10000000
00010000
10000000
00100000
10000000
00010000
00210000
00000000
,
00001000
00000000
00000000
00000000
00000000
00000000
00300000
00000000
00000000
00000000
00000000
00000000
00001000
00000000
00000000
00010000
00000000
00000000
00000100
00000000
00000000
00010000
00000000
00000000
00001000
00000000
00000000
01000000
00000000
00000000
00001000
00000000
00000000
00000000
00000000
00000000
00000000
00000000
00000000
00000000
00000000
00000000
00000000
00000000
00010000
00000000
00000000
00000000
,
00000000
00000000
00000000
00000000
00000100
00000000
00000000
00000000
00000000
00000000
00000000
00000000
00000001
00000000
00000000
00000000
00000000
00000000
00000000
00000000
00000100
00000000
00000000
00000000
00000000
00000000
00000000
00000000
00010000
00000000
00000000
00000000
00000000
00000000
00000000
00000000
00011000
00000000
00000000
00000000
00000000
00000000
00000000
00000000
00000000
00001000
00000000
00000000
,
01000000
00000000
00000000
01000000
00010000
00000000
10000000
00000000
01000000
00000000
02100000
00000000
00000000
00000000
13000000
00000000
,
10000000
00000000
00010000
01000000
00100000
00000000
00000000
00010000
00000000
00000000
00001000
00000000
00012000
00000000
00000000
00000000
,
00003010
00000120
00000000
00001030
00000010
00000002
00000000
00000013
,
00000100
00000000
00001000
00000001
00001000
00000000
00000010
00000000
00000100
00000000
00001000
00000000
00012000
00000000
00000000
00000000
,
00103000
00000000
00100000
00000000
00000000
00000000
00110000
00000000
00000000
00000000
11000000
00000000
00000000
00000000
01000000
00100000
,
00010000
10000000
00100000
00100000
01000000
00000000
00011000
00001000
,
00000100
00000000
00011000
00010000
01000000
00020000
00000000
00031000
,
00001000
00000000
01000000
00010000
01000000
00000000
00001000
00000000
00010000
00001000
00100000
00001000
00010000
00000000
00000000
00010000
,
00000010
00000000
00000000
00000010
00001000
00000000
00000001
00000000
00000010
00000000
00000120
00000000
00000000
00000000
00000031
00000000
,
00000001
00000000
00000100
00000010
00000100
00000000
00000001
00000000
00001000
00000000
00000100
00000000
00000020
00000000
00000000
00000000
,
00001030
00000000
00010000
01000000
00010000
00000000
00001000
00000000
00000000
00000000
01001000
00000000
00000000
00000000
01000000
00000000
,
00010000
00000000
10000000
00010000
10000000
00000000
00100000
00000000
00010000
00000000
00000000
00000000
00021000
00000000
00000000
00000000
,
00030100
00000100
00000000
00001100
00000000
00000011
00000000
00000010
,
00000100
00000010
00001000
00010000
00001000
00000000
01000000
00010000
,
00100000
00000000
00010000
00000000
01000000
00000000
00010000
00000000
00100000
00000000
00001000
00000000
00010000
00000100
00001000
00000100
,
00010000
00000100
00001000
00000001
00000100
00000010
00000100
00000001
00000010
00000000
00000000
00000000
00000120
00000000
00000000
00000000
,
00000001
00000000
00000000
00000100
00000000
00000000
00001030
00010000
00001000
01000000
00100000
10000000
,
00010000
00000000
00100000
00000000
01000000
00000000
10000000
00000000
00010000
00000000
00100000
00000000
00010000
00000000
00000000
10000000
00000000
00000000
00200000
00000000
00000000
00000000
00000000
00000000
,
10000000
00000000
00000000
01000000
00000000
00000000
00310000
00001000
00010000
00000010
00000100
00000001
,
00001000
00000000
00000000
00000000
00000100
00000000
00000000
00000000
00000010
00000000
00000000
00000000
00000001
00000000
00000000
00000000
00000000
00000000
00000000
00000000
00000000
00000001
00000000
00000000
00000000
00000000
00000000
00000000
00000000
00000000
00000010
00000000
00000000
00000000
00000000
00000000
00000210
00000000
00000000
00000000
00000000
00000000
00000000
00000000
00000000
00000000
00000000
00000000
,
00000001
00000000
00000000
00000010
00000000
00000000
00001300
00000001
00001000
00000010
00000100
00000010
,
00010000
00000000
00001000
00000000
01000000
00000000
00010000
00000000
01000000
00000000
00100000
00000000
10000000
00000000
00000000
00100000
00000000
00000000
02000000
00000000
00000000
00000000
00000000
00000000
,
10000000
00000000
00000000
00100000
00000000
00000000
03010000
10000000
00010000
00100000
01000000
00100000
,
00001000
00000000
00000000
00000000
00010000
00000000
00000000
00000000
00000100
00000000
00000000
00000000
00000010
00000000
00000000
00000000
00000000
00000000
00000000
00000000
00000000
00000010
00000000
00000000
00000000
00000000
00000000
00000000
00000000
00000000
00000001
00000000
00000000
00000000
00000000
00000000
00000201
00000000
00000000
00000000
00000000
00000000
00000000
00000000
00000000
00000000
00000000
00000000
,
00000001
00000000
00000000
00000010
00000000
00000000
00001300
00010000
00001000
01000000
00010000
00100000
,
01000000
00000000
10000000
00000000
00100000
00000000
01000000
00000000
00100000
00000000
10000000
00000000
00010000
00000000
00000000
00100000
00000000
00000000
02000000
00000000
00000000
00000000
00000000
00000000
,
10000000
00000000
00000000
00100000
00000000
00000000
03010000
00001000
00010000
00000100
00001000
00000010
,
00000100
00000000
00000001
00000000
00000010
00000000
00000100
00000000
00000010
00000000
00000001
00000000
00001000
00000000
00000000
00000010
00000000
00000000
00100000
00000000
00000000
00110000
00000000
00000000
,
00000000
00000010
00001010
00000000
01000000
01010000
00000000
00000100
,
00010100
00000000
00011000
00000000
00011000
00000000
01000000
01100000
,
00000000
00000100
00001100
00000000
00100000
01100000
00000000
00000010
,
00001010
00000000
00001000
00000000
00000001
00000100
00000001
00001000
00000001
00000010
00000100
00010000
00001000
00000000
01000000
00000000
,
01100000
00000000
00000000
00000000
00000000
00000000
00010000
00000000
00000000
00000000
01000000
00000000
00010000
00000000
00010000
00000000
00001000
00000000
00010000
00000000
00000000
00000000
00000000
00000000
00000100
00000000
00000000
00000010
00000000
00000000
00000001
00000000
00000000
00001000
00000000
00000000
00000002
00000000
00000000
00000000
00000000
00000000
00000103
00000000
00000000
00000000
00000100
00000000
,
00000010
00000000
00000000
00010000
00000000
00001000
00010000
00010000
00100000
01000000
00100000
00010000
01000000
00100000
01000000
00001000
00000000
00000000
00010000
00000000
00000000
00000100
00000000
00000000
,
00000110
00000000
00000000
00000000
00000000
00000000
00001000
00000000
00000000
00000000
00000100
00000000
00001000
00000000
00001000
00000000
00010000
00000000
00001000
00000000
00000000
00000000
00000000
00000000
01000000
00000000
00000000
00010000
00000000
00000000
10000000
00000000
00000000
00000000
00000000
00000000
01000000
00000000
00000000
00000000
00000000
00000000
00100000
00000000
00000000
00000000
00000000
00000000
,
01000000
00000000
00000000
10000000
00000000
00000000
00000000
00000000
00000000
00200000
00000000
00000000
00000000
00000000
00000000
00000000
00310000
00000000
00001000
00000000
00000000
00000000
00001000
00000000
00000010
00000000
00000000
00000000
00000000
00000000
00001000
00000000
00000000
00000000
00000000
00000000
00010000
00000000
00000000
00000000
00000000
00000000
01000000
00000000
00000000
00000000
01000000
00000000
,
00100000
00000000
00000000
00000000
00000000
00000000
00010000
00000000
00000000
00000000
00100000
00000000
00010000
00000000
00010000
00000000
00001000
00000000
00010000
00000000
00000000
00000000
00000000
00000000
00000010
00000000
00000000
00000100
00000000
00000000
00000010
00000000
00000000
00001000
00000000
00000000
00000001
00000000
00000000
00000000
00000010
00000000
00000100
00000000
00000010
00000000
00000000
00000000
,
00001000
00000000
00000000
00000000
00010000
00000000
00000000
00000000
00000000
00000000
00001000
00000000
00010000
00000000
00010000
00000000
01000000
00000000
00100000
00000000
01000000
00000000
00010000
00000000
00100000
00000000
01000000
00000000
10000000
00000000
00010000
00000000
00000000
00000000
00000000
00000000
02010000
00000000
00000000
00000000
00000000
00000000
00000000
00000000
00000000
10000000
00000000
00000000
,
00000000
00000000
00000000
00100000
00000000
00000000
00000000
00000000
00000000
03001000
00000000
00000000
00000000
00000000
00000000
00000000
00010000
00000000
00001000
00000000
00000000
00000000
00000000
00000000
00022000
00000000
00000000
00000000
00000000
00000000
00033000
00000000
00000000
00000000
00000000
00000000
00010000
00000000
00000000
00000000
00000000
00000000
00000100
00000000
00000000
00001000
00000000
00000000
,
00000100
00000000
00001000
00000100
00001000
00000000
00000100
00000010
00000001
00000000
00001000
00000010
00000100
00000000
00000001
00000100
,
00000001
00000000
00000100
00000001
00000100
00000000
00000010
00010000
00001000
00000000
00100000
00001000
00100000
00000000
00010000
00100000
,
00010000
00000000
00100000
00001000
00100000
00000000
00010000
00100000
00010000
00000000
10000000
01000000
00100000
00000000
00001000
00010000
,
00001000
00000000
00010000
00000000
00011000
00000000
00011000
00000000
00000000
00000000
00000000
00000000
00001000
00000000
00100000
00010000
,
00100000
00000000
00010000
00100000
00010000
00000000
00100000
01000000
10000000
00000000
00010000
01000000
00100000
00000000
10000000
00100000
,
10000000
00000000
00100000
10000000
00100000
00000000
01000000
00001000
00010000
00000000
00000100
00010000
00000100
00000000
00001000
00000100
,
00001000
00000000
00000100
00010000
00000100
00000000
00001000
00000100
00001000
00000000
00000001
00000010
00000100
00000000
00010000
00001000
,
00010000
00001000
01000000
01000000
00200000
00000000
10300000
11000000
,
00000000
00001000
00011000
00000000
10000000
10100000
00000000
00001000
,
00011000
00000000
10000000
11000000
00000000
00001000
00011000
00000000
,
00001000
00000010
00000100
00000010
00000001
00000010
00000100
00000010
,
00001000
00000000
00010000
00000000
00001000
01000000
00010000
01000000
00001000
01000000
00010000
01000000
00001000
00000000
00010000
00000100
,
00010000
00000000
00001000
00000000
00010000
00000010
00010000
00000000
00001000
00000000
00010000
00000100
00010000
00000000
00001000
00000000
,
01000000
00100000
01000000
00000000
00010000
00000000
10000000
01000000
00100000
00010000
00100000
00001000
00010000
00000100
00001000
00000100
,
00000010
00000011
00000000
00001001
00000000
00020020
00000000
00000000
,
00000000
00000000
00000000
00000000
,
00030030
00000000
00000000
00000000
00000000
00000000
00000000
00000000
00011000
00000000
00000000
00010000
00000100
00000000
00000000
00000100
,
00001000
00000000
00000001
00000000
00000100
00000000
00000210
00000000
00000000
00000000
00000301
00000000
00000001
00000000
00001000
00000100
,
00000010
00000000
00000000
00001000
00000000
00000000
00010000
00000000
00021000
00000000
00000000
00000000
00130000
00000000
01200000
00000000
,
00000000
00000000
00310000
00000000
00100000
00000000
20000000
00000000
00000000
00000000
30100000
00000000
01000000
00000000
00010000
10000000
,
00010000
00100000
01000000
00010000
00012000
00000000
00003010
00000001
,
00000000
00000000
00000010
00000000
00001000
00000000
00001100
00000000
00000000
00000000
00001000
00000010
00001000
00000000
00000010
00000000
,
00000100
00000000
00000100
00000000
00010000
00000000
00000000
00000000
00011000
00000000
00001000
00000000
00100000
00000000
00010000
00100000
,
01000000
10000000
00010000
01020000
00000000
00000000
00100000
00100000
,
00100000
00000000
00130000
00000000
00001000
00010000
00000100
00010000
00001000
00000000
00000000
00001000
00100000
00000000
00000000
00100000
,
00010000
00000000
10000000
00000000
00100000
00000000
01200000
00000000
00000000
00000000
10300000
00000000
10000000
00000000
01000000
00100000
,
01000000
00000000
10000000
00000000
00010000
00000000
01000000
00000000
00200000
00000000
00000000
00000000
00310000
00000000
00001000
00000100
,
00001000
00000000
00010000
00000000
00000000
00000000
00010100
00000000
00000000
00000000
00000100
00000000
00001000
00000000
00000100
00000010
,
00001000
00000001
00001001
00000000
00000110
00000000
00001001
00001001
,
00000000
00000101
00000000
00001010
00000000
00001000
00000100
00010000
,
00001000
01000000
00010000
01000000
00100000
00000000
00000000
00000000
20100000
00000000
00000000
00000000
00010000
00000000
00020000
00000000
,
00000000
00000000
00000000
00000000
,
00000000
00000000
00000000
00000000
30030000
00000000
00000000
00000000
10000000
00000000
01000000
00000000
00100000
00000000
01000000
00010000
,
01000000
00000000
00010000
00000000
00001000
00010000
00002000
00000000
00000000
00000000
00003010
00000000
00000100
00000000
00000010
00000000
,
00001000
00000010
00000100
00000010
00000001
00000000
00001000
00000000
00000001
00000000
00000100
00000000
00000010
00000000
00000100
00001000
,
00000100
00000000
00001000
00000000
00010000
00001000
00020000
00000000
00000000
00000000
00031000
00000000
00000010
00000000
00000100
00000010
,
00000100
00000000
00000002
00000000
00000000
00000000
00000103
00000000
00001000
00000000
00000001
00000000
00000100
00000000
00000010
00001000
,
00000010
00000000
00010000
00000000
00001000
00010000
00002000
00000000
00000000
00000000
00103000
00000000
00010000
00000000
10000000
00000000
,
00010000
01000000
00010000
10000000
21000000
00000000
00010000
30000000
,
00010000
00000000
00000000
00100000
00000000
00000000
00001000
00000000
00000000
00010000
00000000
00000000
00000010
00000000
00000000
00010000
00000000
00000000
00001000
00000000
00000000
00000000
00000000
00000000
00000000
00000000
00000000
00000000
00000000
00000000
00000000
00000000
00010000
00000000
00000000
00000000
00000000
00000000
00000000
00000000
00000100
00000000
00000000
00000000
00000000
00000000
00000000
00000000
,
00000001
00000000
00000100
00000000
00010000
00000000
00000010
00000000
00000001
00000000
00000010
00000000
,
00010000
00000000
00100000
00000000
10000000
00000000
20010000
00000000
00000000
00000000
00000000
00000000
,
32000000
00000000
03020000
00000000
,
00000000
00000000
00030000
00000000
;
