#TITLE:aleatrik;
#ARTIST:nc ft. NRGFactory;
#BANNER:aleatrik.png;
#BACKGROUND:aleatrik-bg.png;
#MUSIC:aleatrik.ogg;
#OFFSET:0.026130;
#SAMPLESTART:71.278;
#SAMPLELENGTH:15;
#BPMS:0=138,160=69,162=138;

//---------------dance-single - NewbStepper-ESP----------------
#NOTES:
     dance-single:
     NewbStepper:
     Hard:
     14:
     0.614346,0.713256,0.204782,0.008191,0.573390,525,500,25,1,0,0,0.614346,0.713256,0.204782,0.008191,0.573390,525,500,25,1,0,0:
// measure 0
0000
0000
0000
0000
,  // measure 1
0100
0000
0001
0010
0001
0000
0100
0000
,  // measure 2
0001
0000
0001
0010
0000
0100
1000
0000
,  // measure 3
0100
0000
1000
0010
1000
0000
0100
0000
,  // measure 4
1000
0000
1000
0010
1000
0100
0001
0100
,  // measure 5
0010
0000
0000
0000
0010
0000
0000
0100
0000
0000
1000
0000
0100
0000
0010
0000
,  // measure 6
0001
0000
0000
0000
0001
0000
0000
1000
0000
0000
0010
0000
0100
0000
0000
0000
,  // measure 7
0010
0000
0000
0000
0010
0000
0000
0100
0000
0000
0001
0000
0100
0000
0010
0000
,  // measure 8
1000
0000
0001
0000
1000
0000
0000
0001
0000
0000
1000
0000
0001
1000
0001
0000
,  // measure 9
0010
0000
0001
0000
0010
0000
0100
1000
0000
0001
0100
0000
0010
0000
1000
0000
,  // measure 10
0100
0000
0001
0000
0100
0000
0000
0010
0000
0010
0000
0010
0001
0000
1000
0000
,  // measure 11
0010
0000
1000
0000
0010
0000
0100
0001
0000
1000
0100
0000
0010
0000
0001
0000
,  // measure 12
0100
0000
1000
0000
0100
0000
0000
0010
0000
0010
0000
0010
1000
0000
0100
0000
,  // measure 13
1100
1010
0011
0101
,  // measure 14
0110
1001
1100
0101
,  // measure 15
1000
0100
0001
0100
1000
0010
0001
0010
,  // measure 16
1000
0010
1000
0010
0100
0010
0100
0010
1000
0001
1000
0001
0010
0000
0000
0000
,  // measure 17
1001
0000
0000
0000
0000
0000
0001
0100
,  // measure 18
0001
0000
0000
0000
0000
0000
1000
0100
,  // measure 19
1000
0000
0000
0000
0000
0000
0001
0100
,  // measure 20
1000
0000
0000
0000
0000
0000
0001
0010
,  // measure 21
1000
0000
0000
0000
0000
0000
0001
0010
,  // measure 22
0001
0000
0000
0000
0000
0000
1000
0010
,  // measure 23
1000
0000
0000
0000
0000
0000
0100
0010
,  // measure 24
0100
0000
0000
0000
,  // measure 25
1001
0000
0000
0001
0000
0001
0100
0000
0010
0000
0010
0000
1000
0000
0001
0100
,  // measure 26
0010
0000
0000
1000
0000
1000
0100
0000
0010
0000
0010
0000
0001
0000
1000
0100
,  // measure 27
0010
0000
0000
0001
0000
0100
0001
0000
1000
0000
0100
0000
0010
0000
0001
1000
,  // measure 28
0010
0000
0000
1000
0000
0100
1000
0000
0001
0000
0100
0000
0010
0000
1000
0001
,  // measure 29
0010
0000
0000
0001
0000
0001
0100
0000
1000
0000
0100
0000
0001
1000
0001
1000
,  // measure 30
0010
0000
0000
1000
0000
1000
0100
0000
0001
0000
0100
0000
1000
0001
1000
0001
,  // measure 31
0100
0000
0000
0001
0000
0001
0010
0000
1000
0000
0010
0000
0001
1000
0001
1000
,  // measure 32
0100
0000
0000
1000
0000
1000
0010
0000
0001
0000
0010
0000
1000
0001
1000
0001
,  // measure 33
0010
0010
0001
0001
,  // measure 34
0100
0100
1010
0101
,  // measure 35
0010
0010
1000
1000
,  // measure 36
0100
0100
0011
1100
,  // measure 37
0001
0001
0010
0010
0100
0100
1000
1000
,  // measure 38
0001
0100
0010
0100
1000
0100
0001
0100
,  // measure 39
0010
1000
0010
1000
0100
0010
0100
0010
0001
0100
0001
0100
0010
1000
0010
1000
,  // measure 40
0100
0100
0100
0100
0020
0000
0030
0000
0001
0000
0010
0001
0000
0001
0100
0000
,  // measure 41
1000
0000
1000
0000
0100
0001
0100
0001
1000
0000
0010
1000
0000
1000
0100
0000
,  // measure 42
0001
0000
0001
0000
0100
1000
0100
1000
0001
0000
0100
0001
0000
0001
0010
0000
,  // measure 43
1000
0000
1000
0000
0010
0001
0010
0001
1000
0000
0100
1000
0000
1000
0010
0000
,  // measure 44
0001
0000
0001
0000
0010
1000
0010
1000
0001
0000
0000
0100
0000
0010
0100
0000
,  // measure 45
1000
0000
0100
0000
0001
1000
0010
1000
0001
0000
0000
0100
0000
0100
1000
0000
,  // measure 46
0100
0000
0001
0000
0010
0001
0010
0100
1000
0000
0000
0100
0000
0010
0100
0000
,  // measure 47
0001
0000
0100
0000
1000
0001
0010
0001
1000
0000
0000
0100
0000
0100
0001
0000
,  // measure 48
0100
0000
0010
0000
1001
0000
0000
0000
0010
0000
0001
0100
0000
0001
0100
0000
,  // measure 49
0010
0000
1000
0000
0001
0010
0100
1000
0100
0000
1000
0010
0000
1000
0010
0000
,  // measure 50
0100
0000
0001
0000
1000
0100
0010
0001
1000
0000
0000
0001
0000
0001
0100
0000
,  // measure 51
1000
0000
0100
0000
0010
0100
0010
0100
0001
0000
0000
1000
0000
1000
0100
0000
,  // measure 52
0001
0000
0100
0000
1001
0000
0000
0000
0010
0000
1000
0100
0000
1000
0100
0000
,  // measure 53
0010
0000
0001
0000
1000
0010
0100
0001
0100
0000
0001
0010
0000
0001
0010
0000
,  // measure 54
0100
0000
1000
0000
0001
0100
0010
1000
0001
0000
0000
1000
0000
1000
0100
0000
,  // measure 55
0001
0000
0100
0000
0010
0100
0010
0100
1000
0001
1000
0001
0100
0010
0100
0010
,  // measure 56
1000
0001
1000
0001
0100
0000
0000
0000
0010
0000
1000
0000
0100
0000
0001
0000
,  // measure 57
0100
0000
1000
0100
0010
0100
1000
0100
0010
0000
0001
0000
0100
0000
1000
0000
,  // measure 58
0100
0000
0001
0100
0010
0100
0001
0100
0010
0000
1000
0100
0000
0010
0100
0000
,  // measure 59
1000
0001
1000
0000
0100
0010
0100
0000
1000
0000
0100
0000
0010
0000
0001
0000
,  // measure 60
1000
0001
0010
0001
1000
0010
0100
0000
0101
0000
0000
0000
0011
0000
0000
0000
,  // measure 61
1010
1100
0110
1001
,  // measure 62
0101
0000
1100
0000
0001
0100
1000
0100
,  // measure 63
0001
0000
0010
0000
1000
0000
0010
0000
0001
0010
0001
0010
0100
0010
0100
0010
,  // measure 64
0001
1000
0001
1000
0010
0000
0000
0000
1001
0000
0000
0000
0000
0000
0000
0000
;

//---------------dance-single - NewbStepper-DSP----------------
#NOTES:
     dance-single:
     NewbStepper:
     Medium:
     10:
     0.342864,0.449087,0.131061,0.106487,0.040956,293,277,16,13,0,0,0.342864,0.449087,0.131061,0.106487,0.040956,293,277,16,13,0,0:
0000
0000
0000
0000
,
1000
0000
0001
0000
0100
0010
0100
0000
,
0001
0000
1000
0000
0100
0010
0100
0000
,
1000
0000
0001
0000
0010
0100
0010
0000
,
0001
0000
1000
0000
0010
0100
0010
0000
,
1000
0000
0100
0000
0010
0001
1000
0010
,
0100
0000
0001
0000
0010
1000
0001
0100
,
1000
0000
0010
0000
0100
0001
1000
0100
,
0001
0100
1000
0000
0010
0100
0010
0100
,
0101
0010
1100
0010
,
0001
0100
1000
0000
0100
0001
0010
0000
,
1100
0010
0101
0010
,
1000
0100
0001
0000
0100
1000
0010
0000
,
1000
1100
0100
0110
,
0010
0011
0001
0101
,
0010
1000
0010
1000
0100
0010
0100
0010
,
0001
0100
0001
0100
1000
0100
0001
0000
,
1000
0000
0000
0000
,
0000
0000
0000
0000
,
0001
0000
0000
0000
,
0000
0000
0000
0000
,
1000
0000
0000
0000
,
0000
0000
0000
0000
,
0001
0000
0000
0000
,
0000
0000
0000
0000
,
0020
0000
0000
0000
,
0032
0000
0000
0000
,
0203
0000
0000
0000
,
0320
0000
0000
0000
,
2030
0000
0000
0000
,
3200
0000
0000
0000
,
0320
0000
0000
0000
,
0032
0000
0000
0000
,
1003
1000
1000
1000
,
0001
0001
0001
0001
,
0100
0100
0100
0100
,
0010
0010
0010
0010
,
1000
0010
1000
0010
0100
0001
0100
0001
,
0010
0100
0010
0100
1000
0100
1000
0001
,
0200
0000
0000
0000
,
0020
0000
0000
0000
0330
0000
0000
0000
1000
0000
0000
0001
0000
0000
1000
0000
,
0100
0000
0000
0000
0010
0000
0001
0000
1000
0000
0000
0010
0000
0000
0100
0000
,
0010
0000
0000
0000
1000
0000
0100
0000
0001
0000
0000
0100
0000
0000
0010
0000
,
0001
0000
1000
0010
0100
0000
0001
0100
,
1000
0000
0100
0000
0100
0000
0000
0000
0001
0000
0000
1000
0000
0000
0001
0000
,
0100
0000
0000
0000
0010
0000
1000
0000
0001
0000
0000
0010
0000
0000
0100
0000
,
0010
0000
0000
0000
0001
0000
0100
0000
1000
0000
0000
0100
0000
0000
0010
0000
,
1000
0000
0001
0010
0100
1000
0010
0100
,
0002
0000
0000
0000
0003
0000
0000
0000
1000
0000
0000
0100
0000
0000
1000
0000
,
0001
0100
0100
0001
0010
0000
0100
0000
,
1000
0000
0001
0000
0010
0000
0000
0000
0001
0000
0000
0100
0000
0000
0001
0000
,
1000
0100
0100
1000
0010
0000
0100
0000
,
0001
0000
1000
0000
0010
0000
0000
0000
0100
0000
0000
0001
0000
0000
0100
0000
,
1000
0000
0100
0000
0001
0000
0010
0000
0100
0000
0000
1000
0000
0000
0100
0000
,
0001
0100
1000
0010
0100
0000
0101
0000
,
0010
1100
0010
2002
,
0000
0000
3003
0000
0010
1000
0010
1000
,
0001
0010
0100
0000
0010
0001
0010
0001
,
1000
0010
0100
0000
0001
0100
0010
1000
,
0001
0100
1000
0000
0100
0010
1000
0100
,
0001
0100
1000
0000
0001
0000
0101
0000
,
0100
0110
0010
1010
,
1000
0000
1100
0000
0010
0001
0010
0001
,
0100
0010
0100
0010
1000
0100
1000
0100
,
0001
0100
1000
0000
1001
0000
0000
0000
;

//---------------dance-single - NewbStepper-BSP----------------
#NOTES:
     dance-single:
     NewbStepper:
     Easy:
     5:
     0.181378,0.264169,0.024574,0.040956,0,155,152,3,5,0,0,0.181378,0.264169,0.024574,0.040956,0,155,152,3,5,0,0:
0000
0000
0000
0000
,
0001
0010
0001
0000
,
1000
0010
1000
0000
,
0100
0000
0100
0000
,
0010
0000
0010
0000
,
1000
0010
1000
0000
,
0001
0010
0001
0000
,
0100
0000
0100
0000
,
0010
0000
0010
0000
,
1000
0100
0010
0001
,
1000
0010
0100
0000
,
0001
0100
0010
1000
,
0001
0100
0010
0000
,
1000
1000
0100
0100
,
0010
0010
0001
0001
,
1000
0010
0100
0001
,
0020
0000
0000
0030
,
0001
0000
0000
0000
,
0000
0000
0000
0000
,
0001
0000
0000
0000
,
0000
0000
0000
0000
,
1000
0000
0000
0000
,
0000
0000
0000
0000
,
0001
0000
0000
0000
,
0000
0000
0000
0000
,
1000
0000
0000
0000
,
0100
0000
0000
0000
,
0010
0000
0000
0000
,
0001
0000
0000
0000
,
0100
0000
0000
0000
,
0010
0000
0000
0000
,
1000
0000
0000
0000
,
0001
0000
0000
0000
,
0100
0010
0100
0000
,
0001
1000
0001
0000
,
0010
0100
0010
0000
,
1000
0001
1000
0000
,
0010
0100
0010
0100
,
1000
0001
1000
0001
,
2002
0000
0000
0000
,
3003
0000
0000
0100
,
0000
0100
0010
0000
,
0000
0001
1000
0000
,
0000
0100
0001
0000
,
0000
1000
0010
0000
,
0000
0001
0100
0000
,
0000
0010
1000
0000
,
0000
0001
1000
0000
,
2002
3003
0010
0001
,
0010
0000
0100
1000
,
0100
0000
1000
0010
,
1000
0000
0001
0010
,
0001
0000
1000
0100
,
0100
0000
0001
0100
,
0100
0000
1000
0010
,
0010
0000
0001
0010
,
0010
0000
1000
0001
,
1000
0001
0100
0001
,
0100
0010
0100
0010
,
1000
0010
1000
0010
,
0100
0001
0100
0001
,
0010
1000
0010
1000
,
0001
0100
0001
0100
,
1000
0010
1000
0010
,
0100
0000
1001
0000
;

//---------------dance-single - NewbStepper-bSP----------------
#NOTES:
     dance-single:
     NewbStepper:
     Beginner:
     3:
     0.133401,0.211335,0.073722,0.024574,0,114,105,9,3,0,0,0.133401,0.211335,0.073722,0.024574,0,114,105,9,3,0,0:
0000
0000
0000
0000
,
1000
0000
0000
0000
,
0001
0000
0000
0000
,
1000
0000
0000
0000
,
0001
0000
0000
0000
,
0100
0100
0000
0000
,
0010
0010
0000
0000
,
1000
1000
0000
0000
,
0001
0001
0000
0000
,
0010
0010
0010
0000
,
0100
0100
0100
0000
,
0001
0000
1000
0000
,
0001
0000
0000
0000
,
1000
1000
1000
0000
,
0001
0001
0001
0000
,
0100
0100
0100
0000
,
0020
0000
0030
0000
,
1000
0000
0000
0000
,
0000
0000
0000
0000
,
1000
0000
0000
0000
,
0000
0000
0000
0000
,
0001
0000
0000
0000
,
0000
0000
0000
0000
,
0001
0000
0000
0000
,
0000
0000
0000
0000
,
0100
0000
0000
0000
,
0000
0000
0000
0000
,
0100
0000
0000
0000
,
0000
0000
0000
0000
,
0010
0000
0000
0000
,
0000
0000
0000
0000
,
0010
0000
0000
0000
,
0000
0000
0000
0000
,
1000
0000
1000
0000
,
0001
0000
0001
0000
,
0100
0000
0100
0000
,
0010
0000
0010
0000
,
1000
0000
1000
0000
,
0001
0000
0001
0000
,
0200
0000
0300
0000
,
0000
0000
0000
0000
,
0000
0000
1000
1000
,
0000
0000
0001
0001
,
0000
0000
0100
0100
,
0000
0000
1000
1000
,
0000
0000
0010
0010
,
0000
0000
0001
0001
,
0000
0000
1000
1000
,
0000
0000
0001
0001
,
0001
0000
1000
1000
,
1000
0000
0010
0010
,
0010
0000
0100
0100
,
0100
0000
0001
0001
,
0001
0000
1000
1000
,
1000
0000
0010
0010
,
0010
0000
0200
0000
,
0300
0000
0001
0000
,
1001
0000
1000
0000
,
1001
0000
0001
0000
,
1001
0000
1000
0000
,
1001
0000
0010
0000
,
0110
0000
0100
0000
,
0110
0000
0010
0000
,
0110
0000
0100
0000
,
0110
0000
1001
0000
;

//---------------dance-double - NewbStepper-EDP----------------
#NOTES:
     dance-double:
     NewbStepper:
     Hard:
     14:
     0.600304,0.660422,0.188400,0.016383,0.479190,513,490,23,2,0,0,0.600304,0.660422,0.188400,0.016383,0.479190,513,490,23,2,0,0:
00000000
00000000
00000000
00000000
,
01000000
00000000
10000000
00000000
00100000
00010000
00001000
00000000
,
00000100
00000000
00000001
00000010
00000000
00000100
00001000
00000010
,
00000100
00000000
00000001
00000000
00000010
00001000
00010000
00000000
,
01000000
00000000
10000000
00100000
00000000
01000000
00010000
01000000
,
00100000
00000000
00000000
00000000
00100000
00000000
00000000
00010000
00000000
00000000
00001000
00000000
00000010
00000000
00000001
00000000
,
00001000
00000000
00000000
00000000
00001000
00000000
00000000
00000100
00000000
00000000
00000001
00000000
00000100
00000000
00000000
00000000
,
00000010
00000000
00000000
00000000
00000010
00000000
00000000
00001000
00000000
00000000
00010000
00000000
00100000
00000000
10000000
00000000
,
00010000
00000000
00100000
00000000
01000000
00000000
00000000
00010000
00000000
00000000
00001000
00000000
00000010
00000100
00000010
00000000
,
00000001
00000000
00000100
00000000
00000010
00000000
00001000
00000100
00000000
00001000
00000100
00000000
00000010
00000000
00001000
00000000
,
00010000
00000000
00100000
00000000
00010000
00000000
00000000
00001000
00000000
00001000
00000000
00001000
01000000
00000000
00100000
00000000
,
10000000
00000000
01000000
00000000
00100000
00000000
00010000
01000000
00000000
00010000
01000000
00000000
00100000
00000000
00010000
00000000
,
00001000
00000000
00000010
00000000
00001000
00000000
00000000
00010000
00000000
00010000
00000000
00010000
00000100
00000000
00000010
00000000
,
00000011
00000101
00001100
00001010
,
01010000
00110000
10100000
11000000
,
00010000
00100000
00001000
00010000
01000000
00010000
00001000
00000010
,
00000001
00000010
00000001
00000010
00000100
00000010
00000100
00000010
00000001
00001000
00000001
00001000
00000010
00000000
00000000
00000000
,
00001001
00000000
00000000
00000000
00000000
00000000
00000001
00000100
,
00001000
00000000
00000000
00000000
00000000
00000000
00010000
01000000
,
10000000
00000000
00000000
00000000
00000000
00000000
10000000
00100000
,
00010000
00000000
00000000
00000000
00000000
00000000
00001000
00000010
,
00000001
00000000
00000000
00000000
00000000
00000000
00000001
00000100
,
00001000
00000000
00000000
00000000
00000000
00000000
00010000
01000000
,
10000000
00000000
00000000
00000000
00000000
00000000
10000000
00100000
,
00010000
00000000
00000000
00000000
,
00001000
00000000
00000000
00100000
00000000
00100000
00010000
00000000
10000000
00000000
10000000
00000000
01000000
00000000
00010000
00001000
,
00010000
00000000
00000000
00000100
00000000
00000100
00001000
00000000
00000001
00000000
00000001
00000000
00000010
00000000
00001000
00010000
,
00001000
00000000
00000000
00100000
00000000
00010000
01000000
00000000
10000000
00000000
01000000
00000000
00010000
00000000
00100000
00001000
,
00010000
00000000
00000000
00000010
00000000
00001000
00000100
00000000
00000001
00000000
00000100
00000000
00001000
00000000
00000010
00010000
,
00001000
00000000
00000000
00100000
00000000
00100000
01000000
00000000
10000000
00000000
01000000
00000000
00100000
00010000
00100000
00001000
,
00010000
00000000
00000000
00000010
00000000
00000010
00000100
00000000
00000001
00000000
00000100
00000000
00000010
00001000
00000010
00010000
,
00001000
00000000
00000000
01000000
00000000
01000000
00010000
00000000
00100000
00000000
01000000
00000000
00010000
00001000
00010000
00001000
,
00010000
00000000
00000000
00000100
00000000
00000100
00001000
00000000
00000010
00000000
00000100
00000000
00001000
00010000
00001000
00010000
,
00001000
00001000
00000100
00000100
,
00000001
00000001
00000011
00001010
,
00010000
00010000
01000000
01000000
,
10000000
10000000
10100000
00110000
,
00001000
00001000
00100000
00100000
00010000
00010000
10000000
10000000
,
01000000
00010000
00001000
00000100
00000001
00001000
00000100
00010000
,
00001000
00100000
00001000
00000000
00100000
00010000
00100000
00000000
00001000
01000000
00001000
01000000
00100000
10000000
00100000
10000000
,
01000000
01000000
01000000
01000000
00200000
00000000
00300000
00000000
00010000
00000000
00100000
00001000
00000000
00001000
00010000
00000000
,
00000010
00000000
00000010
00000000
00001000
00000001
00001000
00000001
00000100
00000000
00000010
00010000
00000000
00010000
00001000
00000000
,
00100000
00000000
00100000
00000000
00010000
10000000
00010000
10000000
01000000
00000000
00010000
00001000
00000000
00001000
00010000
00000000
,
00100000
00000000
00100000
00000000
01000000
00010000
01000000
00010000
00100000
00000000
00001000
00010000
00000000
00010000
00001000
00000000
,
00000010
00000000
00000010
00000000
00000100
00001000
00000100
00001000
00000010
00000000
00000100
00000001
00000000
00000001
00001000
00000000
,
00000010
00000000
00000010
00000000
00010000
00001000
00010000
00001000
00100000
00000000
01000000
10000000
00000000
10000000
00010000
00000000
,
00100000
00000000
00100000
00000000
00001000
00010000
00001000
00010000
00000010
00000000
00000100
00000001
00000000
00000001
00000010
00000000
,
00001000
00000000
00001000
00000000
00010000
00000100
00010000
00000100
00001000
00000000
00000001
00000100
00000000
00000100
00001000
00000000
,
00020000
00000000
00000000
00000000
01030000
10000000
00010000
00100000
,
00010000
00000000
01000000
00000000
00100000
00010000
00001000
00010000
00000010
00000000
00000100
00000000
00000001
00000000
00000010
00000000
,
00001000
00000000
00010000
00000000
00100000
00010000
00001000
00100000
00010000
00000000
10000000
00000000
01000000
00000000
00010000
00000000
,
00001000
00000000
00000010
00000000
00000100
00010000
00001000
00010000
00000100
00000000
00000001
00000000
00000100
00000000
00001000
00000000
,
00000010
00001000
00001001
00000000
00000100
00000001
00001000
00000010
,
00001000
00000000
00000100
00000000
00000010
00001000
00010000
00001000
00100000
00000000
01000000
00000000
10000000
00000000
00100000
00000000
,
00010000
00000000
00001000
00000000
00000010
00001000
00010000
00000010
00001000
00000000
00000001
00000000
00000100
00000000
00001000
00000000
,
00010000
00000000
00100000
00000000
01000000
00001000
00010000
00001000
01000000
00000000
10000000
00000000
01000000
00000000
00010000
00000000
,
00100000
01000000
01100000
00000000
00010000
10000000
01000000
00010000
,
00001000
00000000
00000100
00000001
00001000
00000001
00000100
00000001
00001000
00000000
00000001
00000000
00000100
00000000
00001000
00000000
,
00010000
00000000
01000000
10000000
00010000
10000000
01000000
10000000
00010000
00000000
10000000
00000000
00100000
00000000
00010000
00000000
,
00001000
00000000
00000010
00000001
00001000
00000001
00000010
00000001
00001000
00000000
00000001
00000000
00000010
00000000
00001000
00000000
,
00010000
00000000
00100000
10000000
00010000
10000000
00100000
10000000
00010000
00000000
00000000
00000000
11000000
00000000
00000000
00000000
,
01010000
00110000
00001100
00001010
,
00000011
00000000
00000101
00000000
00001000
00000010
00010000
00001000
,
00000100
00000000
00001000
00000000
00010000
00000000
00100000
00000000
10000000
00100000
10000000
00100000
01000000
00100000
01000000
00100000
,
10000000
00010000
10000000
00010000
00100000
00000000
00000000
00000000
10010000
00000000
00000000
00000000
00000000
00000000
00000000
00000000
;

//---------------dance-double - NewbStepper-DDP----------------
#NOTES:
     dance-double:
     NewbStepper:
     Medium:
     10:
     0.341693,0.449087,0.131061,0.106487,0.040956,292,276,16,13,0,0,0.341693,0.449087,0.131061,0.106487,0.040956,292,276,16,13,0,0:
00000000
00000000
00000000
00000000
,
10000000
00000000
00010000
00000000
01000000
00100000
01000000
00000000
,
00010000
00000000
10000000
00000000
01000000
00100000
01000000
00000000
,
00010000
00000000
00001000
00000000
00000010
00000100
00000010
00000000
,
00000001
00000000
00001000
00000000
00000010
00000100
00000010
00000000
,
00010000
00000000
00001000
00000000
00000010
00000100
00010000
00001000
,
00010000
00000000
00100000
00000000
01000000
00001000
00010000
00100000
,
10000000
00000000
01000000
00000000
00010000
00001000
00100000
00001000
,
00010000
00001000
00000010
00000000
00000001
00000100
00000001
00001000
,
00001100
00000010
00000101
00000010
,
00001000
00000100
00000001
00000000
00000100
00010000
00001000
00000000
,
01010000
00100000
11000000
00100000
,
00010000
01000000
10000000
00000000
01000000
00001000
00010000
00000000
,
00000010
00001010
00100000
00110000
,
00001000
00001100
00010000
01010000
,
00100000
10000000
00100000
10000000
01000000
00010000
01000000
00010000
,
00001000
00000010
00001000
00000010
00000001
00000100
00000001
00000000
,
00001000
00000000
00000000
00000000
,
00000000
00000000
00000000
00000000
,
00000001
00000000
00000000
00000000
,
00000000
00000000
00000000
00000000
,
00001000
00000000
00000000
00000000
,
00000000
00000000
00000000
00000000
,
00010000
00000000
00000000
00000000
,
00000000
00000000
00000000
00000000
,
00200000
00000000
00000000
00000000
,
00320000
00000000
00000000
00000000
,
00032000
00000000
00000000
00000000
,
00003200
00000000
00000000
00000000
,
00000320
00000000
00000000
00000000
,
00000032
00000000
00000000
00000000
,
00002003
00000000
00000000
00000000
,
00023000
00000000
00000000
00000000
,
10030000
10000000
10000000
10000000
,
00010000
00010000
00010000
00010000
,
01000000
01000000
01000000
01000000
,
00001000
00001000
00001000
00001000
,
00010000
00000010
00010000
00000010
00001000
00000001
00001000
00000001
,
00000010
00000100
00000010
00000100
00010000
00001000
00010000
00001000
,
02000000
00000000
00000000
00000000
,
00200000
00000000
00000000
00000000
03300000
00000000
00000000
00000000
10000000
00000000
00000000
00010000
00000000
00000000
10000000
00000000
,
01000000
00000000
00000000
00000000
00100000
00000000
00010000
00000000
00001000
00000000
00000000
00000010
00000000
00000000
00000100
00000000
,
00000010
00000000
00000000
00000000
00001000
00000000
00000100
00000000
00000001
00000000
00000000
00000100
00000000
00000000
00000010
00000000
,
00001000
00000000
00010000
00100000
10000000
00000000
01000000
00000000
,
00010000
00000000
00001000
00000000
00000100
00000000
00000000
00000000
00000001
00000000
00000000
00001000
00000000
00000000
00000001
00000000
,
00000100
00000000
00000000
00000000
00000010
00000000
00001000
00000000
00010000
00000000
00000000
00100000
00000000
00000000
01000000
00000000
,
00100000
00000000
00000000
00000000
00010000
00000000
01000000
00000000
10000000
00000000
00000000
01000000
00000000
00000000
00100000
00000000
,
00010000
00000000
00001000
00000010
00000001
00000100
00000010
00001000
,
00000200
00000000
00000000
00000000
00000300
00000000
00000000
00000000
00010000
00000000
00000000
00001000
00000000
00000000
00000010
00000000
,
00000100
00010000
00010000
00001000
00100000
00000000
01000000
00000000
,
10000000
00000000
00010000
00000000
00100000
00000000
00000000
00000000
00001000
00000000
00000000
00010000
00000000
00000000
00100000
00000000
,
01000000
00001000
00001000
00010000
00000010
00000000
00000100
00000000
,
00000001
00000000
00001000
00000000
00000010
00000000
00000000
00000000
00000100
00000000
00000000
00000001
00000000
00000000
00000100
00000000
,
00001000
00000000
00010000
00000000
00100000
00000000
10000000
00000000
01000000
00000000
00000000
10000000
00000000
00000000
01000000
00000000
,
00010000
00001000
00000010
00000001
00000100
00000000
00000101
00000000
,
00000010
00001100
00000010
00002002
,
00000000
00000000
00003003
00000000
00000010
00001000
00000010
00001000
,
00000001
00000010
00000100
00000000
00000010
00001000
00010000
00001000
,
00100000
00010000
10000000
00000000
00100000
00010000
00100000
01000000
,
00010000
10000000
00100000
00000000
00010000
00001000
00000010
00001000
,
00010000
00001000
00000100
00000000
00000010
00000000
00001010
00000000
,
00100000
00110000
00001000
00001100
,
00010000
00000000
01010000
00000000
00100000
10000000
00100000
10000000
,
01000000
00010000
01000000
00010000
00001000
00000010
00001000
00000010
,
00000001
00000100
00000001
00000000
00001001
00000000
00000000
00000000
;

//---------------dance-double - NewbStepper-BDP----------------
#NOTES:
     dance-double:
     NewbStepper:
     Easy:
     5:
     0.180208,0.264169,0.024574,0.040956,0,154,151,3,5,0,0,0.180208,0.264169,0.024574,0.040956,0,154,151,3,5,0,0:
00000000
00000000
00000000
00000000
,
00001000
00000010
00001000
00000000
,
00010000
00100000
00010000
00000000
,
01000000
00000000
01000000
00000000
,
00100000
00000000
00100000
00000000
,
00010000
00001000
00010000
00000000
,
00000010
00001000
00000010
00000000
,
00000100
00000000
00000100
00000000
,
00000010
00000000
00000010
00000000
,
00001000
00000100
00000010
00000001
,
00001000
00000010
00000100
00000000
,
00001000
00010000
00000100
00001000
,
00000010
00010000
00001000
00000000
,
10000000
10000000
01000000
01000000
,
00100000
00100000
00010000
00010000
,
00100000
00001000
00010000
00000010
,
00002000
00000000
00000000
00003000
,
00000001
00000000
00000000
00000000
,
00000000
00000000
00000000
00000000
,
00001000
00000000
00000000
00000000
,
00000000
00000000
00000000
00000000
,
00010000
00000000
00000000
00000000
,
00000000
00000000
00000000
00000000
,
10000000
00000000
00000000
00000000
,
00000000
00000000
00000000
00000000
,
00010000
00000000
00000000
00000000
,
00000000
00000000
00000000
00000000
,
00001000
00000000
00000000
00000000
,
00000100
00000000
00000000
00000000
,
00000010
00000000
00000000
00000000
,
00000001
00000000
00000000
00000000
,
00000100
00000000
00000000
00000000
,
00001000
00000000
00000000
00000000
,
01000000
00100000
01000000
00000000
,
00010000
10000000
00010000
00000000
,
00100000
01000000
00100000
00000000
,
00010000
00001000
00010000
00000000
,
00000010
00000100
00000010
00000100
,
00001000
00010000
00001000
00010000
,
00022000
00000000
00000000
00000000
,
00033000
00000000
00000000
01000000
,
00000000
01000000
00100000
00000000
,
00000000
00010000
10000000
00000000
,
00000000
01000000
00010000
00000000
,
00000000
10000000
00100000
00000000
,
00000000
00001000
00010000
00000000
,
00000000
00000010
00001000
00000000
,
00000000
00000001
00001000
00000000
,
00002002
00003003
00000010
00000001
,
00000010
00000000
00000100
00001000
,
00000100
00000000
00000010
00001000
,
00000010
00000000
00001000
00010000
,
00001000
00000000
00100000
00010000
,
00010000
00000000
00100000
10000000
,
10000000
00000000
00100000
01000000
,
01000000
00000000
00100000
00001000
,
00001000
00000000
00010000
00000100
,
00010000
00000100
00001000
00000010
,
00001000
00000010
00000100
00000001
,
00000100
00000001
00000010
00000100
,
00000010
00000100
00010000
00001000
,
00010000
00001000
00100000
00010000
,
00100000
00010000
10000000
00100000
,
10000000
00100000
01000000
00010000
,
01000000
00000000
10010000
00000000
;
