#TITLE:絶対にチョコミントを食べるアオイチャン;
#ARTIST:GYARI(ココアシガレットP);
#TITLETRANSLIT:Zettai ni Chocomint wo taberu Aoi-chan;
#ARTISTTRANSLIT:GYARI(Kokoashigaretto P);
#CREDIT:GYARI (Independent);
#BANNER:Zettai ni Chocomint wo taberu Aoi-chan.png;
#BACKGROUND:Zettai ni Chocomint wo taberu Aoi-chan-bg.png;
#MUSIC:Zettai ni Chocomint wo taberu Aoi-chan.ogg;
#OFFSET:0.735;
#SAMPLESTART:92;
#SAMPLELENGTH:15;
#BPMS:0=140;

//---------------dance-single - RGTM-bSP----------------
#NOTES:
     dance-single:
     RGTM:
     Beginner:
     3:
     0.093472,0.141703,0.045649,0.045649,0.011412,86,80,6,6,0,0,0.093472,0.141703,0.045649,0.045649,0.011412,86,80,6,6,0,0:
0000
0000
0000
0000
,
0000
0000
0000
0000
,
0000
0000
0000
0000
,
0000
0000
0000
0000
,
0000
0000
0000
1000
,
2000
0000
0000
0000
,
0000
3000
0000
0000
0000
0000
0001
0000
,
0002
0000
0000
0000
,
0000
0003
0000
0000
0000
0000
1000
0000
,
2000
0000
0000
0000
,
0000
3000
0000
0000
0000
0000
0001
0000
,
0000
0000
0000
0000
0010
0000
0000
0020
,
0000
0000
0000
0000
0000
0030
0000
0000
,
0000
0000
0000
0000
0000
0000
0000
0000
0000
0000
0000
0000
0000
0000
0000
0100
,
0000
0000
0000
0000
,
1000
0000
1000
0000
,
0001
0000
0001
0000
,
0100
0000
0000
0000
0000
0000
0000
0000
0000
0000
0000
0000
0000
0000
0000
0100
,
0000
0000
0000
0000
,
0001
0000
0001
0000
,
1000
0000
0000
0000
0000
0000
0000
0000
1000
0000
0000
0000
0000
0000
0000
1000
,
0000
0000
0000
0000
,
0000
0000
0001
0000
,
0000
0000
0000
0000
,
0000
1000
1000
0000
,
0000
0000
0000
0000
,
0000
0001
0001
0000
,
0000
0000
0000
0000
,
0000
0100
0100
0000
,
0000
0000
0000
0000
,
0010
0000
1000
0000
,
0000
0000
1000
0000
,
0000
0001
0001
0000
,
0000
0000
0001
0000
,
0000
0010
0010
0000
,
0000
0000
0010
0000
,
0000
0100
0100
0000
,
0000
0000
1000
0000
,
0000
0000
0000
1000
0000
0000
0000
0000
,
0000
0000
0000
0000
,
0001
0000
1000
0000
,
0000
0000
0000
0000
,
0000
0000
0000
0100
0000
0000
0000
0000
,
0000
0000
0000
0000
,
0010
0000
0100
0000
,
0000
0000
0000
0000
,
1000
0000
0000
1000
0000
0000
0000
0000
,
0000
0000
0001
0000
,
1000
0000
0001
0000
,
0000
0000
0000
0100
0000
0000
0000
0000
,
0010
0000
0000
0010
0000
0000
0000
0000
,
1000
0000
0000
1000
0000
0000
0000
0000
,
0001
0000
0000
0002
0000
0000
0000
0000
,
0000
0003
0000
0000
0000
0000
0000
0000
,
0000
0000
0001
0000
,
0000
1001
0000
0000
,
0000
0000
1000
0000
,
0000
1001
0000
0000
,
0000
0000
0010
0000
,
0000
0110
0000
0000
,
0000
0000
1000
0000
,
0000
0000
0000
0001
0000
0000
0000
0000
,
0000
0000
1000
0000
,
0000
1001
0000
0000
,
0000
0000
0001
0000
,
0000
1001
0000
0000
,
0000
0000
0010
0000
,
0000
0110
0000
0000
,
0000
0000
0001
0000
,
0000
0000
0000
1000
0000
0000
0000
0000
,
0000
0000
0000
0000
0100
0000
0000
0200
,
0000
0000
0000
0000
0000
0000
0000
0300
,
0000
0000
0000
0000
,
1000
0000
1000
0000
,
0001
0000
0001
0000
;

//---------------dance-single - RGTM-BSP----------------
#NOTES:
     dance-single:
     RGTM:
     Easy:
     7:
     0.224986,0.311485,0.136948,0.060866,0.049453,207,189,18,8,0,0,0.224986,0.311485,0.136948,0.060866,0.049453,207,189,18,8,0,0:
0000
0000
0000
0000
,
0000
0000
0000
0000
,
0000
0000
0000
0000
,
0000
0000
0000
0000
,
0000
0000
0000
0000
,
0000
1000
0000
0000
0001
0000
0000
0110
,
0000
0000
0000
0000
,
0000
0001
0000
0000
1000
0000
0000
0110
,
0000
0000
0000
0000
,
0000
1000
0000
0000
0001
0000
0000
0110
,
0000
0000
0000
0000
,
0000
0001
0000
0000
1000
0000
0000
0200
,
0000
0300
0010
0010
,
0000
0000
0000
0000
0000
0000
0000
0000
0000
0000
0000
0000
0000
0000
0000
1001
,
0000
0000
0000
1000
,
0001
0000
0010
0100
,
1000
0000
0000
0000
0000
0000
0000
0000
0001
0000
0000
0000
0000
0000
0000
0100
,
0000
0000
0000
0000
0000
0000
0000
0000
0010
0000
0000
0000
1000
0000
0000
0001
,
0000
0000
0000
0001
,
1000
0000
0100
0010
,
0001
0000
0000
0000
0000
0000
0000
0000
1000
0000
0000
0000
0000
0000
0000
0020
,
0000
0000
0100
0000
,
0030
0000
1001
1000
,
0100
0000
0000
0010
0000
0000
0010
0000
,
0000
0001
1000
0001
,
0100
0000
0000
0010
0000
0000
0010
0000
,
0000
1000
0001
0010
,
0100
0000
0000
1000
0000
0000
0001
0000
,
0000
0001
1000
0010
,
0100
0000
0000
0001
0000
0000
1000
0000
,
0000
0110
0001
1000
,
0001
0000
0000
0010
0000
0000
0001
0000
,
0100
0010
1000
0001
,
1000
0000
0000
0100
0000
0000
0010
0000
,
0001
1000
0010
0100
,
0010
0000
0000
1000
0000
0000
0100
0000
,
1000
0001
0010
0100
,
0010
0000
0000
0000
0000
0000
0001
0000
0000
0000
0000
0000
0100
0000
0000
0100
,
0000
0000
0000
1001
0000
0000
0000
0000
,
1000
0000
0000
0100
0000
0000
0000
0010
,
0000
0000
0000
0001
0000
0000
0000
0000
,
1000
0000
0000
0001
0000
0000
0000
0100
,
0000
0000
0000
0010
0000
0000
0000
0000
,
1000
0000
0000
0001
0000
0000
0000
1000
,
0000
0000
0000
0010
0000
0000
0000
0000
,
0100
0000
0000
0010
0000
0000
0000
0000
,
1000
0000
0000
1001
0000
0000
0000
0000
,
0001
0000
0000
0010
0000
0000
0000
0100
,
0000
0000
0000
1000
0000
0000
0000
0000
,
0001
0000
0000
1000
0000
0000
0000
0000
,
0010
0000
0000
0110
0000
0100
0000
0000
,
0001
0000
0000
1001
0000
1000
0000
0000
,
0100
0000
0000
0120
0000
0000
0000
0000
,
0000
0000
0030
0100
0000
1000
0001
1000
,
0000
0000
0000
0000
0001
0000
0000
0000
0010
0000
0000
0010
0000
0000
0010
0000
,
0000
1001
0001
0010
,
0100
0000
0000
0000
1000
0000
0000
0000
0010
0000
0000
0010
0000
0000
0010
0000
,
0000
1001
1000
0010
,
0100
0000
0000
0000
0001
0000
0000
0000
0010
0000
0000
0010
0000
0000
0010
0000
,
0000
1001
0001
1000
,
0001
0010
0200
0000
,
0300
1000
0000
0001
0000
1000
0000
0010
,
0000
0000
0000
0000
1000
0000
0000
0000
0100
0000
0000
0100
0000
0000
0100
0000
,
0000
1001
1000
0100
,
0010
0000
0000
0000
0001
0000
0000
0000
0100
0000
0000
0100
0000
0000
0100
0000
,
0000
1001
0001
0100
,
0010
0000
0000
0000
1000
0000
0000
0000
0100
0000
0000
0100
0000
0000
0100
0000
,
0000
1001
1000
0001
,
1000
0100
0020
0000
,
0030
0001
0000
2000
0000
0000
3002
0000
,
0023
0000
0030
0000
0100
0000
0000
1001
,
0000
1000
0001
0000
,
0010
0000
0000
0000
0000
0000
0000
0100
0000
0000
0000
0000
0000
0000
0000
0000
,
1000
0000
0001
0000
,
0100
0000
0000
0000
0000
0000
0000
0010
0000
0000
0000
0000
0000
0000
0000
0000
;

//---------------dance-single - RGTM-DSP----------------
#NOTES:
     dance-single:
     RGTM:
     Medium:
     9:
     0.338022,0.368118,0.190205,0.213030,0.213030,311,286,25,28,0,0,0.338022,0.368118,0.190205,0.213030,0.213030,311,286,25,28,0,0:
0000
0000
0000
0000
,
0000
0000
0000
0000
,
0000
0000
0000
0000
,
0000
0000
0000
0000
,
0000
0000
0000
0000
,
0000
0000
0001
0000
0000
0101
0000
0000
1000
0000
0000
1100
0000
0000
0220
0000
,
0000
0330
0000
0000
0000
0000
0000
0000
,
0000
0000
1000
0000
0000
1100
0000
0000
0001
0000
0000
0101
0000
0000
0220
0000
,
0000
0330
0000
0000
0000
0000
0000
0000
,
0000
0000
0001
0000
0000
0011
0000
0000
1000
0000
0000
1010
0000
0000
0220
0000
,
0000
0330
0000
0000
0000
0000
0000
0000
,
0000
0000
1010
0000
0000
1000
0000
0000
0011
0000
0000
0001
0000
0000
1001
0000
,
0000
1000
0001
0001
,
0000
0000
0000
0000
0000
0000
0000
0000
0010
0000
0000
0000
0000
0000
0000
0220
,
0000
0000
0000
0000
0000
0000
0000
0000
0330
0000
0000
0000
0001
0000
0000
2000
,
0000
0000
0000
0000
3000
0000
1000
0000
0001
0000
0000
0000
0010
0000
0000
0001
,
0000
0000
0100
0000
0000
0000
0100
0000
0010
0000
0000
0000
0010
0000
0000
2000
,
0000
0000
0000
3000
0000
0000
0001
0000
0010
0000
0000
0000
0100
0000
0000
0200
,
0000
0000
0000
0000
0000
0000
0000
0000
0000
0000
0300
0000
1000
0000
0000
0002
,
0000
0000
0000
0000
0003
0000
0001
0000
1000
0000
0000
0000
0010
0000
0000
1000
,
0000
0000
0100
0000
0000
0000
0010
0000
0100
0000
0000
0000
1000
0000
0000
0002
,
0000
0000
0000
0000
0000
0000
0000
0000
1000
0000
0000
1000
0000
0000
0000
0000
,
0003
0000
0000
0000
0000
0000
0000
0000
0000
0000
1000
0000
1000
0000
0000
0001
,
0000
0000
0001
0000
1000
0000
0100
0000
0000
0000
0010
0000
0010
0000
0000
0100
,
0000
0000
0000
0000
0010
0000
0000
0000
0000
0000
0001
0000
0001
0000
0000
1000
,
0000
1000
0001
0100
0000
0010
0000
0010
,
0000
0000
0100
0000
0001
0000
1000
0000
0000
0000
0010
0000
1000
0000
0000
0001
,
0000
0000
0001
0000
1000
0000
0100
0000
0000
0000
0100
0000
0010
0000
0000
0100
,
0000
0000
0100
0000
0010
0000
0000
0000
0000
0000
0001
0000
0001
0000
0000
1000
,
0000
0000
1000
0000
0001
0000
0010
0000
0000
0000
0100
0000
1000
0000
0000
0001
,
0000
0000
0100
0000
1001
1000
0001
0000
,
0010
0000
0000
0000
0010
0000
0001
0000
0000
0000
1000
0000
0010
0000
0000
0100
,
0000
0010
0010
0000
1000
0001
1000
0000
,
0100
0000
0000
0000
0010
0000
0001
0000
0000
0000
0010
0000
0100
0000
0000
1000
,
0000
1000
0010
0000
0100
0001
1000
0000
,
0001
0000
0000
0000
0010
0000
0100
0000
0000
0000
0100
0000
1000
0000
0000
1000
,
0000
0001
0001
0000
0100
0001
1000
0000
,
0100
0000
0000
0000
0100
0000
1000
0000
0000
0000
0010
0000
0100
0000
0000
0100
,
0000
0001
1000
1002
0000
0000
0003
0000
,
1000
0000
0000
0010
0000
0000
0100
0000
0000
0000
0001
0000
0000
0000
0001
0000
,
0000
1000
0000
2000
0000
0000
3000
0000
,
0001
0000
0000
0010
0000
0000
0100
0000
0000
0000
1000
0000
0000
0000
1000
0000
,
0000
0001
0000
0002
0000
0000
0003
0000
,
0100
0000
0000
0010
0000
0000
1000
0000
0000
0000
0100
0000
0000
0000
0001
0000
,
0000
0100
0000
2000
0000
0000
3001
0000
,
0010
0000
0000
0010
0000
0000
0002
0000
0000
0000
0000
0000
1003
0000
0000
0000
,
0001
0000
0000
0010
0000
0000
0200
0000
0000
0000
0000
0000
0300
0000
0000
0000
,
1000
0000
0000
0001
0000
0000
0010
0000
0000
0000
0001
0000
0000
0000
0100
0000
,
0000
1000
0000
0100
0000
0000
0001
0000
,
1000
0000
0000
0001
0000
0000
0200
0000
0000
0000
0300
0000
0000
0000
0000
0000
,
0010
0000
0000
0010
0000
0000
1001
0000
0000
0000
1000
0000
0000
1000
0000
0000
,
0001
0000
0000
0001
0000
0000
0010
0000
0000
0000
0001
0000
0000
0001
0000
0000
,
1000
0000
0000
1000
0000
0000
0220
0000
0000
0000
0000
0000
0000
0000
0000
0000
,
0000
0330
0000
0110
0000
1000
0001
1000
,
0000
0000
0000
0000
0100
0000
0000
0000
1000
0000
0000
1000
0000
0000
1000
0000
,
0000
0000
0000
0000
0110
0000
0000
0000
1000
0000
0001
0000
0100
0000
0000
0010
,
0000
0000
0000
0000
0100
0000
0000
0000
0001
0000
0000
0001
0000
0000
0001
0000
,
0000
0000
0000
0000
0110
0000
0000
0000
0001
0000
1000
0000
0010
0000
0000
0100
,
0000
0000
0000
0000
0010
0000
0000
0000
1000
0000
0000
1000
0000
0000
1000
0000
,
0000
0110
1000
0001
,
0010
0100
0010
0001
2000
0000
0100
0000
,
0000
3010
1000
0001
0000
0100
0010
1000
,
0000
0000
0100
0000
0010
0000
0000
0000
0001
0000
0000
0001
0000
0000
0001
0000
,
0000
0000
0000
0000
0110
0000
0000
0000
0001
0000
1000
0000
0100
0000
0000
0010
,
0000
0000
0000
0000
0100
0000
0000
0000
1000
0000
0000
1000
0000
0000
1000
0000
,
0000
0000
0000
0000
0110
0000
0000
0000
1000
0000
0001
0000
0010
0000
0000
0100
,
0000
0000
0000
0000
0010
0000
0000
0000
0001
0000
0000
0001
0000
0000
0001
0000
,
0000
0110
0001
1000
,
0010
0100
0010
1000
0002
0000
0100
0000
,
0000
0013
0001
2000
0000
0000
3002
0000
,
0023
0000
0000
0000
0030
0000
0000
0000
0100
0000
0000
1000
0000
0000
1002
0000
,
0000
0013
0100
0000
,
1000
0000
0000
0001
0000
0000
0000
0001
0000
0000
0000
0000
0000
0000
0100
0000
,
0010
0000
0000
0010
0000
0000
0000
0000
1000
0000
0000
0000
0000
0000
0000
0000
,
0001
0000
0000
1000
0000
0000
0000
1000
0000
0000
0000
0000
0000
0000
0000
0000
;

//---------------dance-single - RGTM-ESP----------------
#NOTES:
     dance-single:
     RGTM:
     Hard:
     13:
     0.514098,0.622970,0.197813,0.456492,0.418451,473,447,26,60,0,0,0.514098,0.622970,0.197813,0.456492,0.418451,473,447,26,60,0,0:
0000
0000
0000
0000
,
0000
0000
0000
0000
,
0000
0000
0000
0000
,
0000
0000
0000
0000
,
0000
0000
0000
0000
0000
0000
0000
0000
0000
0000
0001
1000
0001
0000
0100
0000
,
0020
0000
0100
0000
0000
0100
0000
0000
0001
0000
0000
0001
0000
0000
1000
0000
,
0000
0000
0030
0000
0010
0100
0000
0001
0000
0000
1000
0001
1000
0000
0100
0000
,
0020
0000
0100
0000
0000
0100
0000
0000
1000
0000
0000
1000
0000
0000
0001
0000
,
0000
0000
0030
0000
0010
0100
0000
1000
0000
0000
0001
1000
0001
0000
0100
0000
,
0020
0000
0100
0000
0000
0001
0000
0000
0100
0000
0000
1000
0000
0000
0100
0000
,
0000
0000
0030
0000
0010
0100
0000
0001
0000
0000
1000
0001
1000
0000
0100
0000
,
0020
0000
0100
0030
0000
0100
1000
0000
0010
0000
0001
0000
0010
0000
2000
0000
,
0000
0001
0010
3010
,
0000
0000
0000
0000
0000
0000
0000
0000
0010
0000
1000
0000
0100
0000
1000
0002
,
0000
0000
0000
0000
0013
0000
0000
0001
0000
0000
0001
0000
1000
0100
0000
0200
,
0000
0000
0000
0000
0300
0000
1000
0000
0010
0000
1000
0000
0001
0000
0010
0001
,
0000
0000
0100
0000
0000
0100
0010
0000
1000
0000
0000
0000
1000
0000
0001
2000
,
0000
0000
0000
0000
3000
0000
0010
0000
0001
0000
0010
0000
0100
0000
0001
2000
,
0000
0000
0000
0000
3010
0000
0000
1000
0000
0000
1000
0000
0001
0100
0000
0200
,
0000
0000
0000
0000
0300
0000
0001
0000
0010
0000
0001
0000
1000
0000
0010
1000
,
0000
0000
0100
0000
0000
0100
0010
0000
0001
0000
0000
0000
0001
0000
1000
0002
,
0000
0000
0000
0000
0000
0000
0000
0000
0010
0000
0000
1000
0000
0000
0000
0000
,
0003
0000
0000
0000
0110
0000
0000
0000
0000
0000
1000
0000
1000
0000
0001
1000
,
0000
0000
0100
0000
0100
0000
0010
0000
0000
0000
0010
0000
0001
0000
1000
0001
,
0000
0000
0000
0010
0100
0000
1000
0000
0000
0000
0001
0000
0001
0000
1000
0001
,
0000
0000
0100
0000
0100
0000
0010
0000
0000
0000
0010
0000
0000
0000
1000
0001
,
0000
0000
0100
0010
0100
0000
0001
0000
0000
0000
0010
0000
0010
0000
0001
1000
,
0000
0000
1000
0000
1000
0000
0010
0000
0000
0000
0010
0000
0100
0000
0100
0001
,
0000
1000
0100
0000
1000
0000
0001
0000
0000
0000
0010
0000
0010
0000
0001
1000
,
0000
0000
0001
0000
0001
0000
0010
0000
0000
0000
0010
0000
0100
0000
0100
1000
,
0000
0000
0110
0000
0000
0001
0001
2000
,
0000
3000
1000
0000
1000
0000
0020
0000
0000
0030
0010
0000
0010
0000
0100
0001
,
0000
0000
0010
0000
0010
0100
0000
1000
0000
0000
0001
0000
0001
0000
1000
0002
,
0000
0003
0001
0000
0001
0000
0020
0000
0000
0000
0130
0000
0010
0000
0001
1000
,
0000
0000
0010
0000
0010
1000
0000
0100
0000
0000
1000
0000
1000
0000
1000
0001
,
0000
0000
0001
0000
0001
0000
0200
0000
0000
0300
0100
0000
0100
0000
0100
0010
,
0000
0000
0010
0000
0010
1000
0000
0001
0000
0000
1000
0000
1000
0000
1000
0200
,
0000
0300
0100
0000
0100
0000
0020
0000
0000
0030
0010
0000
0001
0000
0001
1000
,
0000
0100
1000
0002
0000
0010
0013
0000
,
0002
0000
0000
0023
0000
0000
0230
0000
0000
0000
0301
0000
0100
0000
2000
0000
,
0000
3001
0100
2000
0000
0000
3100
0000
,
0002
0000
0000
0203
0000
0000
0320
0000
0000
0000
0031
0000
0010
0000
2000
0000
,
0000
3001
0010
2000
0000
0000
3010
0000
,
0200
0000
0000
0320
0000
0000
0032
0000
0000
0000
1003
0000
0010
0000
0001
0000
,
0000
0001
0010
2000
0000
0000
3001
0000
,
0010
0000
0010
0100
0000
0000
2000
0000
0000
0000
3100
1000
0000
1000
0001
0000
,
0101
0000
0000
0110
0000
0000
2001
0000
0000
0000
0000
0000
3100
0000
0000
0000
,
2000
0000
0000
3002
0000
0000
0023
0000
0000
0000
1030
0000
0010
0000
0002
0000
,
0000
1003
0010
0002
0000
0013
1000
0000
,
0002
0000
0000
0023
0000
0000
0230
0000
0000
0000
1300
0000
1000
0000
0010
0000
,
1010
0000
0000
0011
0000
0000
1001
0000
0000
0000
1100
0000
0000
0101
0000
0000
,
0110
0000
0000
0101
0000
0000
1100
0000
0000
0000
0011
0000
0000
1010
0000
0000
,
1001
0000
0000
0110
0000
0000
2002
0000
0000
0000
0000
0000
0000
0000
0000
0000
,
0000
3003
0000
0110
0000
0010
0010
1001
,
0000
0000
0001
1000
0001
0000
0100
0000
0010
0000
0100
0010
0000
1000
0010
0000
,
0000
0000
0100
0000
1001
0000
0002
0000
0000
0000
0103
0000
0010
0000
0010
1000
,
0000
0000
1000
0001
1000
0000
0100
0000
0010
0000
0100
0010
0000
0001
0010
0000
,
0000
0000
0100
0000
1001
0000
2000
0000
0000
0000
3010
0000
0010
0000
1000
0001
,
0000
0000
0001
1000
0001
0000
0100
0000
0010
0000
1000
0010
0000
0100
0010
0000
,
0000
0000
0100
0000
1001
0000
0002
0000
0000
0000
0013
0000
0100
0000
1000
0002
,
0000
0013
0001
0100
0020
0000
1000
0000
,
0130
0000
0010
0000
1000
0000
0001
0000
0000
0000
0010
0000
0100
0000
1000
0001
,
0000
0000
0001
1000
0001
0000
0010
0000
0100
0000
0010
0100
0000
1000
0100
0000
,
0000
0000
0010
0000
1001
0000
0002
0000
0000
0000
0013
0000
0100
0000
0100
1000
,
0000
0000
1000
0001
1000
0000
0010
0000
0100
0000
0010
0100
0000
0001
0100
0000
,
0000
0000
0010
0000
1001
0000
2000
0000
0000
0000
3100
0000
0100
0000
1000
0001
,
0000
0000
0001
1000
0001
0000
0010
0000
0100
0000
1000
0100
0000
0010
0100
0000
,
0000
0000
0010
0000
1001
0000
0002
0000
0000
0000
0103
0000
0010
0000
1000
0002
,
0000
0103
0001
0010
0200
0000
1000
0000
,
0310
0100
1000
0020
0000
0000
2030
0000
,
0002
0000
0000
0000
3003
0000
0000
0000
0001
0000
0010
0100
1000
0001
0200
0000
,
0000
0000
0000
0000
0310
0000
0000
0000
0100
0000
0000
0000
0010
0000
0000
0010
,
1000
0000
1000
0001
0000
0100
0000
0002
0000
0000
0000
0000
0013
0000
0000
0000
,
0100
0000
0000
1000
0000
0001
0000
0010
0001
0000
0100
0010
0000
1000
0000
1000
,
0001
0000
0010
0100
0000
0010
0000
0001
0000
0000
0000
0000
0000
0000
0000
0000
;

//---------------dance-single - RGTM-CSP----------------
#NOTES:
     dance-single:
     RGTM:
     Challenge:
     16:
     0.758647,0.849504,0.289112,0.334761,0.871140,698,660,38,44,0,0,0.758647,0.849504,0.289112,0.334761,0.871140,698,660,38,44,0,0:
0000
0000
0000
0000
,
0000
0000
0000
0000
,
0000
0000
0000
0000
,
0000
0000
0000
0000
,
0000
0000
0000
0000
0000
0000
0000
0000
0000
0000
0000
0000
0000
0000
0000
0000
0000
0000
0000
0000
0000
0000
0000
0000
0001
0000
1000
0000
0001
0000
1000
0000
0000
0010
0000
0000
0100
0000
0000
0001
0000
0000
0010
0000
0000
0100
0000
0000
,
1000
0000
1100
0000
0000
0101
0000
1000
0010
0000
0000
0011
0000
0001
2000
0000
,
0000
0000
0000
0000
3010
0100
0000
0010
0000
0000
1000
0010
0100
0000
0001
0000
,
0010
0000
0011
0000
0000
1010
0000
0001
0100
0000
0000
1100
0000
1000
0002
0000
,
0000
0000
0003
0000
0010
0100
0000
0010
0000
0000
0001
0010
0100
1000
0001
0100
,
0010
0000
1010
0000
0000
1100
0000
0100
0001
0000
0000
0011
0000
0010
2000
0000
,
0000
0000
3000
0000
0100
0010
0000
0100
0000
0000
1000
0001
1000
0000
0010
0100
,
0001
0000
0011
0000
0000
1010
0000
0000
1001
0000
1000
0001
0100
0000
0102
0000
,
0000
0000
0000
0000
0000
0000
1003
0000
0001
0000
1000
0000
0001
0000
0000
0010
0000
0000
0100
0000
0000
1000
0000
0000
0010
0000
0000
0000
0010
0000
0000
0000
0010
0000
0000
0000
1001
0000
0000
0000
0000
0000
0000
0000
0000
0000
0000
0000
,
0000
0000
1000
0000
1000
0000
1000
0000
1000
0000
1000
0000
0110
0000
0000
1001
,
0000
0000
1000
0000
0100
0000
0010
0100
0010
0000
0001
0000
0001
1000
0000
2000
,
0000
0000
0010
0000
3001
0000
0010
0100
1000
0000
0001
1000
0010
0000
0001
0020
,
0000
0000
0130
0000
0000
0010
1000
0000
0001
0000
0010
0100
0010
0000
0001
2000
,
0000
0000
0010
0000
3010
1000
0100
0010
1000
0010
0100
1000
0010
0100
0001
2000
,
0000
0000
3010
1000
0010
0000
0100
0000
0001
0000
1000
0000
1000
0001
0000
0002
,
0000
0000
0010
0000
1003
0000
0010
0100
0001
0000
1000
0001
0010
0000
1000
0020
,
0000
0000
0130
0000
0000
0010
0001
0000
1000
0000
0010
0100
0010
0000
1000
0002
,
0000
0000
0000
0000
0000
0000
0000
0000
0010
0000
0000
1000
0000
0000
0000
0003
,
0001
0000
0100
0000
0001
0000
0100
0000
0001
0000
0100
0000
0010
0000
0000
0100
0000
0000
0001
0000
0000
1000
0000
0000
0100
0000
0000
0000
0000
0000
1000
0000
0000
0000
0000
0000
1000
0000
0000
0000
0000
0000
0001
0000
0000
1000
0000
0000
,
0000
0000
0010
0100
0010
0000
1000
0000
0100
0000
0010
0000
0100
0000
1000
0001
,
0000
0010
0001
0100
0010
0000
0010
1000
0100
0000
1000
0000
0001
0000
0001
0100
,
0000
0010
0100
0010
1000
0000
0001
0000
0010
0000
0100
0010
0100
1000
0001
1000
,
0000
0010
0100
0001
0010
0100
0001
0000
0100
0000
1000
0000
0001
0000
1000
0100
,
0000
0010
0100
1000
0100
0000
0010
0000
0001
0000
1000
0000
0010
1000
0000
1000
,
0000
0000
0000
1000
0000
0000
0001
0000
0000
0000
0000
0000
0100
0000
0010
0000
0100
0000
0001
0000
0000
1000
0000
0000
0100
0000
0000
0000
0000
0000
0010
0000
0000
0000
0000
0000
0001
0000
0000
0000
0000
0000
0001
0000
0000
1000
0000
0000
,
0000
1000
0010
1000
0001
0010
0100
0000
0000
0000
0001
0100
1000
0010
0000
0010
,
0000
0010
0000
1000
0001
0010
0100
0000
1100
0000
1000
0000
0001
0000
0100
0010
,
0100
0000
0100
0000
0001
0000
1000
0000
0010
0000
1000
0000
0100
0000
0010
0100
,
0010
0000
0010
0000
0010
0001
0000
1000
0001
0000
1000
0000
0010
0000
0010
0100
,
0010
0000
1000
0010
1000
0000
0001
0000
0010
0000
0100
0000
1000
0000
0001
1000
,
0000
0000
0010
1000
0001
0010
0000
0100
1000
0000
0001
0000
0100
0000
0100
0010
,
0100
0000
0010
0000
1000
0000
0001
0000
1000
0000
0100
0000
0010
0000
0001
1000
,
0001
0000
0010
0000
0100
1000
0000
0001
1000
0000
0010
0000
0010
0000
0100
0010
,
0100
0000
0001
0000
1000
0000
0200
0000
0010
0000
1300
0000
0100
0000
0010
0001
,
0000
0000
0001
0000
1000
0000
1020
0000
0000
0000
0000
0000
0130
0001
0000
1000
,
0002
0000
0000
0023
0000
0000
0230
0000
0000
0000
1300
0000
0010
0000
0001
1000
,
0001
0000
1000
0000
0100
0000
0002
0000
0010
0000
1003
0000
0001
0010
0000
0100
,
2000
0000
0000
3020
0000
0000
0230
0000
0000
0000
1300
0000
0100
0000
0001
1000
,
0001
0000
1000
0000
0010
0000
0120
0000
0000
0000
0130
0000
0010
1000
0000
0001
,
0020
0000
0000
2030
0000
0000
3002
0000
0000
0000
0103
0000
0010
0000
0001
1000
,
0001
0000
0100
0000
0010
0000
0002
0000
1000
0000
0013
0000
1000
0000
0100
0010
,
0001
0000
0001
1000
0000
0001
0010
0000
0100
0000
0010
0001
0100
1000
0100
0010
,
1000
0001
0000
0001
0100
0000
0120
0000
0000
0000
1030
0000
0010
1000
0000
1000
,
0200
0000
0000
2300
0000
0000
3020
0000
0000
0000
0031
0000
0010
0000
1000
0001
,
1000
0000
0001
0000
0010
0000
2000
0000
0001
0000
3010
0000
0001
0000
0100
0010
,
1000
0000
1000
0100
0000
0000
0120
0000
0000
0000
0031
0010
0100
1000
0001
0100
,
0101
0000
0000
1100
0000
0000
1001
0000
0000
0000
1000
0100
0001
1000
0001
0100
,
1000
0010
0001
1000
0001
0010
1000
0000
0110
0000
0001
0100
1000
0001
1000
0100
,
0001
0010
1000
0001
1000
0010
0002
0000
0000
0000
0000
0000
0013
0100
0010
0100
,
0010
0100
0010
0100
0010
0000
0110
0000
0000
0000
0110
0000
0110
0000
1001
0000
,
0000
0000
0001
1000
0001
0000
0100
0000
0010
0000
1000
0010
0000
0100
0010
0000
,
1000
0000
0100
0010
1001
0000
0002
0000
0010
0000
1003
0000
0001
0000
0010
0100
,
0000
0000
1000
0001
1000
0000
0100
0000
0010
0000
0001
0010
0000
0100
0010
0000
,
0001
0000
0100
0010
1001
0000
2000
0000
0010
0000
3001
0000
1000
0000
0010
0100
,
0000
0001
0100
0010
0001
0010
0100
0001
0010
0000
0001
1000
0000
0001
0100
0000
,
0010
0000
0100
0010
1001
0000
0002
0000
0010
0000
1003
0000
0100
0000
0010
0002
,
0000
0000
1003
0000
0010
0000
0100
0000
0001
0000
0010
0100
0010
0000
0001
0000
,
1000
0000
0010
0000
0010
0000
1001
0000
1000
0000
0001
0000
0010
0000
0010
0001
,
1000
0001
0010
1000
0001
0100
0010
0001
1000
0000
0001
0010
0000
1000
0010
0000
,
0001
0000
0100
0010
1001
0000
2000
0000
0010
0000
3001
0000
1000
0000
0010
0100
,
0000
0000
0001
1000
0001
0000
0100
0000
0010
0000
1000
0010
0000
0001
0010
0000
,
1000
0000
0100
0010
1001
0000
0002
0000
0010
0000
1003
0000
0001
0000
0010
0100
,
0000
1000
0100
0010
1000
0010
0100
1000
0010
0000
1000
0010
0000
0001
0010
0000
,
1000
0000
0100
0010
1001
0000
2000
0000
0010
0000
3001
0000
0100
0000
0010
2000
,
0000
0000
3001
0000
0010
0000
0100
0000
1000
0000
0010
0100
0010
0000
1000
0000
,
0001
0010
0010
2002
0000
0000
3000
0000
,
0003
0000
0000
0010
1001
0000
0001
1000
0001
0010
1000
0001
0100
1000
0002
0000
,
0000
0000
0000
0000
1003
0001
0000
0010
0100
0000
1000
0000
0100
0000
0010
0001
,
1000
0000
0010
0001
0000
0010
0000
2000
0100
0000
0000
0100
0000
0000
0001
3000
,
1000
0001
0000
0010
0000
1000
0000
0010
0100
0000
1000
0010
0000
0001
0000
0010
,
1000
0000
0001
0010
0000
0100
0000
1000
0000
0000
0000
0000
0000
0000
0000
0000
;

//---------------dance-double - NewbStepper-CDP----------------
#NOTES:
     dance-double:
     NewbStepper:
     Challenge:
     16:
     0.744517,0.764554,0.311937,0.220638,0.852119,685,644,41,29,0,0,0.744517,0.764554,0.311937,0.220638,0.852119,685,644,41,29,0,0:
// measure 0
00000000
00000000
00000000
00000000
,  // measure 1
00000000
00000000
00000000
00000000
,  // measure 2
00000000
00000000
00000000
00000000
,  // measure 3
00000000
00000000
00000000
00000000
,  // measure 4
00000000
00000000
00000000
00000000
00000000
00000000
00000000
00000000
00000000
00000000
00000001
00001000
00000100
00000000
00000010
00000000
,  // measure 5
00001000
00000000
00011000
00000000
00000000
01010000
00000000
10000000
00100000
00000000
00000000
10100000
00000000
10000000
00020000
00000000
,  // measure 6
00000000
00000000
00000000
00000000
00130000
01000000
00000000
10000000
00000000
00000000
10000000
00010000
01000000
00000000
00100000
00000000
,  // measure 7
00010000
00000000
00011000
00000000
00000000
00001100
00000000
00000001
00000010
00000000
00000000
00000011
00000000
00000001
00002000
00000000
,  // measure 8
00000000
00000000
00003000
00000000
00000010
00000100
00000000
00000001
00000000
00000000
00001000
00000100
00001000
00000010
00000100
00000001
,  // measure 9
00000010
00000000
00000011
00000000
00000000
00000101
00000000
00000100
00001000
00000000
00000000
00011000
00000000
00010000
02000000
00000000
,  // measure 10
00000000
00000000
03000000
00000000
00100000
01000000
00000000
10000000
00000000
00000000
00010000
01000000
00010000
00100000
01000000
10000000
,  // measure 11
00100000
00000000
10100000
00000000
00000000
11000000
00000000
00000000
10010000
00000000
00010000
00100000
01000000
00000000
01020000
00000000
,  // measure 12
00000000
00000000
00000000
00000000
00000000
00000000
00031000
00000000
00010000
00000000
00001000
00000000
00010000
00000000
00000000
00000100
00000000
00000000
00001000
00000000
00000000
00000001
00000000
00000000
00000100
00000000
00000000
00000000
00000000
00000000
00000000
00000000
00000000
00000000
00000000
00000000
00000110
00000000
00000000
00000000
00000000
00000000
00000000
00000000
00000000
00000000
00000000
00000000
,  // measure 13
00000000
00000000
00000000
00000000
00000000
00000000
00000000
00000000
00000001
00000000
00000100
00000000
00001000
00000000
00010000
00001000
,  // measure 14
00000000
00000000
00100000
00000000
00010000
00000000
10000000
00100000
10000000
00000000
01000000
00100000
00000000
01000000
00010000
00001000
,  // measure 15
00010000
00000000
00000010
00000000
00001000
00000000
00000100
00000010
00000001
00000000
00000100
00000010
00001000
00000000
00000100
00020000
,  // measure 16
00000000
00000000
00031000
00000000
00000000
00010000
00100000
00000000
10000000
00000000
01000000
00100000
00010000
00000000
01000000
00200000
,  // measure 17
00000000
00000000
10000000
00000000
10300000
00100000
01000000
00010000
00100000
00001000
00010000
00001000
00000100
00000010
00001000
00000002
,  // measure 18
00000000
00000003
00000010
00000001
00000010
00000000
00000100
00000000
00010000
00000000
00001000
00000000
00000100
00000010
00000000
00000020
,  // measure 19
00000000
00000000
00001000
00000000
00010030
00000000
00001000
00010000
00000100
00000000
00010000
00001000
00100000
00000000
00010000
20000000
,  // measure 20
00000000
00000000
31000000
00000000
00000000
00100000
00010000
00000000
10000000
00000000
00100000
01000000
00100000
00000000
00010000
00002000
,  // measure 21
00000000
00000000
00000000
00000000
00000000
00000000
00000000
00000000
00100000
00000000
00000000
00010000
00000000
00000000
00003000
00000000
,  // measure 22
00010000
00000000
00001000
00000000
00010000
00000000
00001000
00000000
00010000
00000000
00001000
00000000
00100000
00000000
00000000
00010000
00000000
00000000
10000000
00000000
00000000
00010000
00000000
00000000
00100000
00000000
00000000
00000000
00000000
00000000
00001000
00000000
00000000
00000000
00000000
00000000
00001000
00000000
00000000
00000000
00000000
00000000
00010000
00000000
00000000
00000100
00000000
00000000
,  // measure 23
00000000
00000000
00000010
00000100
00000010
00000000
00000001
00000000
00000100
00000000
00001000
00000000
00000100
00000000
00000001
00000010
,  // measure 24
00000000
00000100
00001000
00000010
00001000
00000000
00000100
00000010
00001000
00000000
00010000
00000000
00000100
00000000
00010000
00001000
,  // measure 25
00000000
00100000
01000000
10000000
00010000
00000000
01000000
00000000
00100000
00000000
10000000
00000000
01000000
00000000
00010000
00001000
,  // measure 26
00000000
00000010
00000100
00001000
00000010
00000100
00000001
00000000
00000100
00000000
00001000
00000000
00010000
00000000
00001000
00000010
,  // measure 27
00000000
00000100
00000010
00000001
00000010
00000000
00001000
00000000
00010000
00000000
00100000
00000000
10000000
00010000
00000000
00010000
,  // measure 28
00000000
00000000
00000000
00010000
00000000
00000000
00100000
00000000
00000000
00000000
00000000
00000000
00001000
00000000
00010000
00000000
00001000
00000000
00010000
00000000
00000000
00000100
00000000
00000000
00001000
00000000
00000000
00000000
00000000
00000000
00000010
00000000
00000000
00000000
00000000
00000000
00010000
00000000
00000000
00000000
00000000
00000000
00010000
00000000
00000000
00001000
00000000
00000000
,  // measure 29
00000000
00100000
00010000
00100000
01000000
10000000
00100000
00000000
00000000
00000000
10000000
01000000
00010000
00001000
00000000
00000010
,  // measure 30
00000000
00000010
00000000
00000001
00000100
00000010
00001000
00000000
00001001
00000000
00000001
00000000
00000100
00000000
00001000
00010000
,  // measure 31
00001000
00000000
00100000
00000000
00010000
00000000
01000000
00000000
00001000
00000000
00010000
00000000
00100000
00000000
10000000
01000000
,  // measure 32
00010000
00000000
00001000
00000000
00100000
00010000
00000000
00100000
01000000
00000000
10000000
00000000
00100000
00000000
00010000
00001000
,  // measure 33
00010000
00000000
00000010
00000100
00000010
00000000
00010000
00000000
00001000
00000000
00000100
00000000
00000001
00000000
00000010
00000100
,  // measure 34
00000000
00000000
00000010
00001000
00010000
00001000
00000000
00100000
00010000
00000000
10000000
00000000
01000000
00000000
00010000
00001000
,  // measure 35
00010000
00000000
00000010
00000000
00001000
00000000
00000100
00000000
00010000
00000000
00001000
00000000
00000010
00000000
00000001
00000100
,  // measure 36
00001000
00000000
00010000
00000000
00000010
00001000
00000000
00000010
00000100
00000000
00000001
00000000
00000010
00000000
00001000
00010000
,  // measure 37
00001000
00000000
00100000
00000000
00100000
00000000
00020000
00000000
00000000
00000000
10030000
00000000
01000000
00000000
00010000
00001000
,  // measure 38
00000000
00000000
00000010
00000000
00000001
00000000
00000201
00000000
00000000
00000000
00000000
00000000
00001300
00000000
00010000
00001000
,  // measure 39
00010000
00000000
00000000
00101000
00000000
00000000
01100000
00000000
00000000
00000000
01000000
00000000
10000000
00000000
00100000
00000000
,  // measure 40
00010000
00000000
00100000
00000000
10000000
00000000
12000000
00000000
00000000
00000000
00000000
00000000
03010000
00000000
00001000
00010000
,  // measure 41
00001000
00000000
00000000
00010010
00000000
00000000
00000110
00000000
00000000
00000000
00000100
00000000
00001000
00000000
00000100
00000000
,  // measure 42
00000001
00000000
00000010
00000000
00001000
00000000
00021000
00000000
00000000
00000000
00130000
00000000
10000000
01000000
00000000
00100000
,  // measure 43
00010000
00000000
00000000
01010000
00000000
00000000
20100000
00000000
00000000
00000000
31000000
00000000
00010000
00000000
00001000
00000000
,  // measure 44
00100000
01000000
10000000
00100000
00010000
00001000
00000010
00000001
,  // measure 45
00000100
00000000
00000010
00001000
00000000
00001000
00000100
00000000
00000010
00000000
00000001
00000100
00000010
00010000
00001000
01000000
,  // measure 46
00100000
10000000
00000000
10000000
01000000
00000000
01200000
00000000
00000000
00000000
00301000
00000000
00010000
00000000
00001000
00000000
,  // measure 47
00000010
00000001
00000000
00000001
00000100
00000000
00000120
00000000
00000000
00000000
00001030
00000000
00000100
00000000
00000010
00000001
,  // measure 48
00001000
00000000
00000001
00000000
00000010
00000000
00002000
00000000
00010000
00000000
00013000
00000000
00001000
00000000
01000000
00100000
,  // measure 49
00010000
00000000
00001000
00100000
00000000
00000000
02100000
00000000
00000000
00000000
13000000
01000000
00100000
00010000
01000000
00100000
,  // measure 50
00010000
00000000
00000000
00011000
00000000
00000000
00001100
00000000
00000000
00000000
00000100
00000001
00000000
00000010
00000100
00000000
,  // measure 51
00001000
00000010
00000000
00000100
00001000
00000000
00010000
00001000
00010000
00000000
01000000
10000000
00000000
00100000
01000000
00000000
,  // measure 52
00010000
00100000
00000000
01000000
00010000
00000000
00022000
00000000
00000000
00000000
00033000
00000000
00010000
00001000
00010000
00001000
,  // measure 53
00000100
00000010
00000100
00000010
00000100
00000000
00000110
00000000
00000000
00000000
00010010
00000000
00011000
00000000
00010100
00000000
,  // measure 54
00000000
00000000
00000100
00001000
00000100
00000000
00010000
00000000
00001000
00000000
00000010
00000100
00000000
00000010
00000001
00000000
,  // measure 55
00000000
00000000
00000100
00001000
00010000
00000000
00012000
00000000
00000000
00000000
00013000
00100000
10000000
00000000
01000000
00100000
,  // measure 56
00001000
00000000
01000000
00010000
01000000
00000000
00001000
00000000
00010000
00000000
00100000
01000000
00000000
00100000
10000000
00000000
,  // measure 57
00000000
00000000
01000000
00010000
00001000
00000000
00021000
00000000
00000000
00000000
00031000
00000010
00000001
00000000
00000100
00000010
,  // measure 58
00000000
00001000
00000001
00000100
00000010
00000100
00001000
00010000
00100000
00000000
10000000
00010000
00000000
00100000
01000000
00000000
,  // measure 59
00010000
00000000
00001000
00010000
00100000
00000000
02100000
00000000
00000000
00000000
13000000
00000000
01000000
00000000
00010000
00200000
,  // measure 60
00000000
00000000
01300000
00000000
00010000
00000000
00001000
00000000
00000100
00000000
00000010
00001000
00000100
00000000
00000010
00000001
,  // measure 61
00000100
00000000
00001000
00010000
00001000
00010000
00000100
00000000
00000000
00000000
00010000
00001000
00010000
00001000
00100000
00010000
,  // measure 62
01000000
00100000
10000000
01000000
00010000
01000000
00100000
00001000
00010000
00000000
00001000
00000010
00000000
00000001
00000010
00000000
,  // measure 63
00000100
00000000
00010000
00000100
00001000
00000000
00000010
00010000
00001000
00000000
00000100
00000000
00000010
00000000
00001000
00000100
,  // measure 64
00000000
00000000
00010000
00001000
00010000
00100000
01000000
00010000
10000000
00000000
00000000
10010000
00000000
00000000
10010000
00000000
,  // measure 65
00000000
00000000
00010000
00100000
00001000
00000000
00010000
00001000
00000100
00000000
00000010
00000000
00001000
00000000
00000100
00000010
,  // measure 66
00000000
00000000
00000001
00000100
00001000
00000100
00000010
00010000
00001000
00000000
00010000
00100000
00000000
10000000
00100000
00000000
,  // measure 67
01000000
00000000
00001000
01000000
00010000
00000000
00100000
00001000
00010000
00000000
01000000
00000000
00100000
00000000
00010000
01000000
,  // measure 68
00000000
00000000
00100000
00000000
00010000
00000000
00001000
00000000
00000010
00000000
00000001
00000100
00000001
00000000
00001000
00000100
,  // measure 69
00001000
00000000
00000010
00010000
00001000
00000000
00022000
00000000
00000000
00000000
00000000
00000000
00000000
00000000
00000000
00000000
,  // measure 70
00033000
00000000
00000000
00010000
00011000
00000000
00001000
00010000
00100000
10000000
01000000
00100000
00001000
00010000
00200000
00000000
,  // measure 71
00000000
00000000
00300000
00000000
10000000
01000000
00000000
00100000
00010000
00000000
10000000
00000000
01000000
00000000
00010000
00001000
,  // measure 72
00100000
00000000
00001000
00010000
00000000
00000010
00000000
00001000
00000200
00000000
00000000
00000000
00000310
00000000
00000001
00000000
,  // measure 73
00000100
00001000
00000000
00010000
00000000
01000000
00000000
10000000
00100000
00000000
01000000
00001000
00000000
00010000
00000000
00001000
,  // measure 74
00100000
00000000
01000000
00010000
00000000
00001000
00000000
00000100
00000000
00000000
00000000
00000000
00000000
00000000
00000000
00000000
;

//---------------dance-double - NewbStepper-EDP----------------
#NOTES:
     dance-double:
     NewbStepper:
     Hard:
     13:
     0.496707,0.538019,0.114123,0.426060,0.395627,457,442,15,56,0,0,0.496707,0.538019,0.114123,0.426060,0.395627,457,442,15,56,0,0:
// measure 0
00000000
00000000
00000000
00000000
,  // measure 1
00000000
00000000
00000000
00000000
,  // measure 2
00000000
00000000
00000000
00000000
,  // measure 3
00000000
00000000
00000000
00000000
,  // measure 4
00000000
00000000
00000000
00000000
00000000
00000000
00000000
00000000
00000000
00000000
00000010
00001000
00000010
00000000
00010000
00000000
,  // measure 5
00002000
00000000
00100000
00000000
00000000
00100000
00000000
00000000
00010000
00000000
00000000
00010000
00000000
00000000
01000000
00000000
,  // measure 6
00000000
00000000
00003000
00000000
00001000
00010000
00000000
01000000
00000000
00000000
00100000
00010000
00100000
00000000
00001000
00000000
,  // measure 7
00020000
00000000
00000010
00000000
00000000
00000010
00000000
00000000
00001000
00000000
00000000
00001000
00000000
00000000
00000100
00000000
,  // measure 8
00000000
00000000
00030000
00000000
00010000
00001000
00000000
00000010
00000000
00000000
00000001
00001000
00000001
00000000
00000100
00000000
,  // measure 9
00000010
00000000
00002000
00000000
00000000
00003002
00000000
00000000
00000203
00000000
00000000
00002300
00000000
00000000
00023000
00000000
,  // measure 10
00000000
00000000
00000000
00000000
00130000
10000000
00000000
00100000
00000000
00000000
10000000
00010000
10000000
00000000
01000000
00000000
,  // measure 11
00100000
00000000
00010000
00000000
00000000
00010000
01000000
00000000
00100000
00000000
00010000
00000000
00001000
00000000
00000020
00000000
,  // measure 12
00000000
00000000
00000100
00000130
,  // measure 13
00000000
00000000
00000000
00000000
00000000
00000000
00000000
00000000
00000010
00000000
00000100
00000000
00001000
00000000
00000100
00002000
,  // measure 14
00000000
00000000
00000000
00000000
00003001
00000000
00000000
00000000
00000100
00000000
00000010
00001000
00000000
00000100
00000000
00000200
,  // measure 15
00000000
00000000
00000000
00000000
00000300
00000000
00010000
00000000
00001000
00000000
00010000
00000000
00100000
00000000
00010000
00001000
,  // measure 16
00000000
00000000
01000000
00000000
00000000
01000000
00100000
00000000
10000000
00000000
00000000
00000000
00010000
00000000
01000000
00010000
,  // measure 17
00000000
00000000
10000000
00000000
01000000
00000000
00010000
00000000
00001000
00000000
00100000
00000000
00010000
00000000
01000000
00002000
,  // measure 18
00000000
00000000
00000000
00000000
00013000
00000000
00000000
00000000
00001000
00000000
00000010
00000000
00000001
00000100
00000000
00000200
,  // measure 19
00000000
00000000
00000000
00000000
00000300
00000000
00001000
00000000
00010000
00000000
00001000
00000000
00000010
00000000
00001000
00010000
,  // measure 20
00000000
00000000
00000100
00000000
00000000
00000100
00000010
00000000
00000001
00000000
00000000
00000000
00001000
00000000
00000100
00002000
,  // measure 21
00000000
00000000
00000000
00000000
00000000
00000000
00000000
00000000
00000001
00000000
00000000
00000001
00000000
00000000
00000000
00000000
,  // measure 22
00003000
00000000
00000000
00000000
00000110
00000000
00000000
00000000
00000000
00000000
00010000
00000000
00010000
00000000
00001000
00100000
,  // measure 23
00000000
00000000
00010000
00000000
00010000
00000000
01000000
00000000
00000000
00000000
10000000
00000000
01000000
00000000
00010000
00100000
,  // measure 24
00000000
00000000
00000000
01000000
00100000
00000000
00000000
00000000
00000000
00000000
00001000
00000000
00001000
00000000
00010000
00000010
,  // measure 25
00000000
00000000
00001000
00000000
00001000
00000000
00000100
00000000
00000000
00000000
00000001
00000000
00000100
00000000
00001000
00000010
,  // measure 26
00000000
00000000
00000000
00000100
00000010
00000000
00001000
00000000
00000000
00000000
00000001
00000000
00000001
00000000
00000100
00001000
,  // measure 27
00000000
00000000
00010000
00000000
00001000
00000000
00010000
00000000
00000000
00000000
00100000
00000000
10000000
00000000
01000000
00100000
,  // measure 28
00000000
00000000
00010000
00000000
10000000
00000000
00100000
00000000
00000000
00000000
10000000
00000000
10000000
00000000
01000000
00010000
,  // measure 29
00000000
00000000
00001000
00000000
00010000
00000000
00001000
00000000
00000000
00000000
00000010
00000000
00000001
00000000
00000100
00000010
,  // measure 30
00000000
00000000
00000110
00000000
00000000
00000001
00000100
00001000
,  // measure 31
00000000
00000000
00010000
00000000
01000000
00000000
10000000
00000000
00000000
00000000
00100000
00000000
01000000
00000000
00010000
00100000
,  // measure 32
00000000
00000000
01000000
00000000
00010000
00001000
00000000
00001000
00000000
00000000
00000100
00000000
00000100
00000000
00000010
00001000
,  // measure 33
00000000
00000000
00000001
00000000
00000100
00000000
00001000
00000000
00000000
00000000
00010000
00000000
00100000
00000000
00010000
00001000
,  // measure 34
00000000
00000000
00100000
00000000
01000000
10000000
00000000
00010000
00000000
00000000
10000000
00000000
01000000
00000000
00010000
00001000
,  // measure 35
00000000
00000000
00000010
00000000
00000100
00000000
00000010
00000000
00000000
00000000
00000001
00000000
00000100
00000000
00000010
00001000
,  // measure 36
00000000
00000000
00000001
00000000
00000100
00000010
00000000
00000100
00000000
00000000
00001000
00000000
00010000
00000000
00100000
00000000
,  // measure 37
10000000
00000000
00010000
00000000
00100000
00000000
00002000
00000000
00000000
00000000
01003000
00000000
00010000
00000000
00100000
01000000
,  // measure 38
00000000
00010000
00001000
00000200
00000000
00000001
00000301
00000000
,  // measure 39
00002000
00000000
00000000
00003002
00000000
00000000
00000203
00000000
00000000
00000000
00001300
00000000
00010000
00000000
00200000
00000000
,  // measure 40
00000000
00310000
00001000
00000020
00000000
00001030
00100000
00000000
,  // measure 41
00020000
00000000
00000000
20030000
00000000
00000000
32000000
00000000
00000000
00000000
03010000
00000000
00001000
00000000
00000020
00000000
,  // measure 42
00000000
00001030
00010000
00200000
00000000
00310000
00000010
00000000
,  // measure 43
00000200
00000000
00000000
00000302
00000000
00000000
00002003
00000000
00000000
00000000
00003001
00000000
00000010
00000000
00002000
00000000
,  // measure 44
00000000
00013000
00100000
20000000
00000000
00000000
30010000
00000000
,  // measure 45
10000000
00000000
10000000
01000000
00000000
00000000
00010000
00000000
00001000
00000000
00000100
00000000
00001000
00000000
00010000
00000000
,  // measure 46
00002000
00000000
00000000
00003020
00000000
00000000
00000032
00000000
00000000
00000000
00000103
00000000
00001000
00000000
00000000
00000000
,  // measure 47
00020000
00000000
00000000
00230000
00000000
00000000
20300000
00000000
00000000
30000000
01000000
00000000
00010000
00000000
00002000
00000000
,  // measure 48
00000000
00003100
00001000
00020000
00000000
00031000
00000010
00000000
,  // measure 49
00000200
00000000
00000000
00002300
00000000
00000000
00003002
00000000
00000000
00000000
00000103
00000000
00001000
00000000
00000000
00000000
,  // measure 50
00011000
00000000
00000000
00110000
00000000
00000000
10100000
00000000
00000000
00000000
01010000
00000000
00000000
00100000
00000000
00000000
,  // measure 51
01001000
00000000
00000000
00010000
00000000
00000000
00011000
00000000
00000000
00000000
00001100
00000000
00000000
00000010
00000000
00000000
,  // measure 52
00010100
00000000
00000000
00001000
00000000
00000000
00022000
00000000
00000000
00000000
00000000
00000000
00000000
00000000
00000000
00000000
,  // measure 53
00000000
00033000
00000000
00011000
00000000
00000000
00000000
00000000
,  // measure 54
00000000
00000000
00000001
00000100
00000001
00000000
00001000
00000000
00000010
00000000
00010000
00001000
00000000
00010000
00001000
00000000
,  // measure 55
00000000
00000000
01000000
00000000
00100000
00000000
00020000
00000000
00000000
00000000
00031000
00000000
01000000
00000000
00100000
10000000
,  // measure 56
00000000
00000000
10000000
01000000
10000000
00000000
00010000
00000000
00100000
00000000
00001000
00010000
00000000
00001000
00010000
00000000
,  // measure 57
00000000
00000100
00000010
00002000
00000000
00013000
00001000
00000100
,  // measure 58
00000000
00000000
00000001
00000010
00000001
00000000
00000100
00000000
00000001
00000000
00001000
00000100
00000000
00001000
00000100
00000000
,  // measure 59
00000000
00000000
00000010
00000100
00000010
00000000
00002000
00000000
00000000
00000000
00013000
00000000
00100000
00000000
10000000
00020000
,  // measure 60
00000000
10030000
01000000
00100000
00020000
00000000
01000000
00000000
,  // measure 61
10030000
00000000
01000000
00000000
00010000
00000000
00001000
00000000
00000000
00000000
00000100
00000000
00000010
00000000
00000100
00000001
,  // measure 62
00000000
00000000
00001000
00000100
00001000
00000000
00000001
00000000
00000100
00000000
00000010
00010000
00000000
00001000
00010000
00000000
,  // measure 63
00000000
00000000
00100000
00000000
10000000
00000000
10020000
00000000
00000000
00000000
10030000
00000000
01000000
00000000
00100000
00010000
,  // measure 64
00000000
00000000
00010000
01000000
00010000
00000000
10000000
00000000
01000000
00000000
00100000
00001000
00000000
00010000
00001000
00000000
,  // measure 65
00000000
00000000
00000010
00000000
00000001
00000000
00002001
00000000
00000000
00000000
00003001
00000000
00000100
00000000
00000010
00001000
,  // measure 66
00000000
00000000
00000100
00010000
00001000
00000000
00010000
00000000
00000100
00000000
00010000
00001000
00000000
00100000
00010000
00000000
,  // measure 67
00000000
00000000
10000000
00000000
01000000
00000000
00020000
00000000
00000000
00000000
00031000
00000000
00100000
00000000
01000000
00010000
,  // measure 68
00000000
00001000
00010000
00100000
02000000
00000000
00000000
00000000
,  // measure 69
03000000
10000000
01000000
00020000
00000000
00000000
10000000
00000000
,  // measure 70
00130000
00000000
00000000
00000000
00000000
00000000
00000000
00000000
00010000
00000000
00100000
00001000
00010000
00000000
00022000
00000000
,  // measure 71
00000000
00000000
00033000
00000000
00001000
00000000
00000000
00000000
00000100
00000000
00000000
00000000
00000001
00000000
00000000
00001000
,  // measure 72
00000100
00000000
00000010
00000100
00000000
00000010
00000000
00000200
00000000
00000000
00000000
00000000
00010300
00000000
00000000
00000000
,  // measure 73
00001000
00000000
00000000
00010000
00000000
00100000
00000000
01000000
00010000
00000000
01000000
00100000
00000000
10000000
00000000
10000000
,  // measure 74
00010000
00000000
00100000
01000000
00000000
00100000
00000000
00001000
00000000
00000000
00000000
00000000
00000000
00000000
00000000
00000000
;

//---------------dance-double - NewbStepper-DDP----------------
#NOTES:
     dance-double:
     NewbStepper:
     Medium:
     10:
     0.340196,0.368118,0.182597,0.213030,0.182597,313,289,24,28,0,0,0.340196,0.368118,0.182597,0.213030,0.182597,313,289,24,28,0,0:
// measure 0
00000000
00000000
00000000
00000000
,  // measure 1
00000000
00000000
00000000
00000000
,  // measure 2
00000000
00000000
00000000
00000000
,  // measure 3
00000000
00000000
00000000
00000000
,  // measure 4
00000000
00000000
00000000
00000000
,  // measure 5
00000000
00000000
00000010
00000000
00000000
00001010
00000000
00000000
00001000
00000000
00000000
00010100
00000000
00000000
00022000
00000000
,  // measure 6
00000000
00033000
00000000
00000000
00000000
00000000
00000000
00000000
,  // measure 7
00000000
00000000
00100000
00000000
00000000
00110000
00000000
00000000
00010000
00000000
00000000
01001000
00000000
00000000
00022000
00000000
,  // measure 8
00000000
00033000
00000000
00000000
00000000
00000000
00000000
00000000
,  // measure 9
00000000
00000000
00110000
00000000
00000000
00100000
00000000
00000000
10100000
00000000
00000000
10000000
00000000
00000000
02020000
00000000
,  // measure 10
00000000
03030000
00000000
00000000
00000000
00000000
00000000
00000000
,  // measure 11
00000000
00000000
00001010
00000000
00000000
00000010
00000000
00000000
00000011
00000000
00000000
00000001
00000000
00000000
00001100
00000000
,  // measure 12
00000000
00000000
00001000
00010000
,  // measure 13
00000000
00000000
00000000
00000000
00000000
00000000
00000000
00000000
00100000
00000000
00000000
00000000
00000000
00000000
00000000
02200000
,  // measure 14
00000000
00000000
00000000
00000000
00000000
00000000
00000000
00000000
03300000
00000000
00000000
00000000
10000000
00000000
00000000
00020000
,  // measure 15
00000000
00000000
00000000
00000000
00030000
00000000
00100000
00000000
01000000
00000000
00000000
00000000
00010000
00000000
00000000
00001000
,  // measure 16
00000000
00000000
00000010
00000000
00000000
00000000
00000010
00000000
00000100
00000000
00000000
00000000
00001000
00000000
00000000
00000002
,  // measure 17
00000000
00000000
00000000
00000003
00000000
00000000
00001000
00000000
00000100
00000000
00000000
00000000
00000010
00000000
00000000
00002000
,  // measure 18
00000000
00000000
00000000
00000000
00000000
00000000
00000000
00000000
00000000
00000000
00003000
00000000
00010000
00000000
00000000
00020000
,  // measure 19
00000000
00000000
00000000
00000000
00030000
00000000
00100000
00000000
10000000
00000000
00000000
00000000
00010000
00000000
00000000
00100000
,  // measure 20
00000000
00000000
00001000
00000000
00000000
00000000
01000000
00000000
00100000
00000000
00000000
00000000
00010000
00000000
00000000
00002000
,  // measure 21
00000000
00000000
00000000
00000000
00000000
00000000
00000000
00000000
00010000
00000000
00000000
00010000
00000000
00000000
00000000
00000000
,  // measure 22
00003000
00000000
00000000
00000000
00000000
00000000
00000000
00000000
00000000
00000000
00001000
00000000
00001000
00000000
00000000
00010000
,  // measure 23
00000000
00000000
00000100
00000000
00000010
00000000
00000001
00000000
00000000
00000000
00000100
00000000
00001000
00000000
00000000
00010000
,  // measure 24
00000000
00000000
00000000
00000000
00000000
00000000
00000000
00000000
00000000
00000000
00010000
00000000
00010000
00000000
00000000
00001000
,  // measure 25
00000000
01000000
00100000
10000000
00000000
01000000
00000000
01000000
,  // measure 26
00000000
00000000
00010000
00000000
00001000
00000000
00010000
00000000
00000000
00000000
00000010
00000000
00001000
00000000
00000000
00000001
,  // measure 27
00000000
00000000
00000010
00000000
00000100
00000000
00001000
00000000
00000000
00000000
00000001
00000000
00000100
00000000
00000000
00001000
,  // measure 28
00000000
00000000
00010000
00000000
00001000
00000000
00000000
00000000
00000000
00000000
00100000
00000000
00010000
00000000
00000000
10000000
,  // measure 29
00000000
00000000
00100000
00000000
01000000
00000000
00010000
00000000
00000000
00000000
10000000
00000000
01000000
00000000
00000000
00010000
,  // measure 30
00000000
00000000
00000000
00000000
00000000
00000010
00000010
00001000
,  // measure 31
00000000
00000001
00000010
00001000
00000000
00010000
00001000
01000000
,  // measure 32
00010000
00000000
00000000
00000000
00000000
00100000
00100000
00010000
,  // measure 33
00000000
10000000
00100000
00010000
00000000
00001000
00010000
00000100
,  // measure 34
00001000
00000000
00000000
00000000
00000000
00000000
00000000
00000000
00000000
00000000
00000001
00000000
00000100
00000000
00000000
00000001
,  // measure 35
00000000
00000000
00000100
00000000
00001000
00000000
00010000
00000000
00000000
00000000
00100000
00000000
10000000
00000000
00000000
01000000
,  // measure 36
00000000
00000000
00000000
00000000
00000000
00000000
00000000
00000000
00000000
00000000
10000000
00000000
01000000
00000000
00000000
10000000
,  // measure 37
00000000
00000000
01000000
00000000
00010000
00000000
00001000
00000000
00000000
00000000
00000010
00000000
00000001
00000000
00000000
00000100
,  // measure 38
00000000
00001000
00010000
00011000
00000000
00000000
00000000
00000000
,  // measure 39
00100000
00000000
00000000
10000000
00000000
00000000
00010000
00000000
00000000
00000000
01000000
00000000
00100000
00000000
01000000
00000000
,  // measure 40
00000000
00001000
00010000
00002000
00000000
00000000
00003000
00000000
,  // measure 41
00000010
00000000
00000000
00000001
00000000
00000000
00001000
00000000
00000000
00000000
00000100
00000000
00000010
00000000
00000100
00000000
,  // measure 42
00000000
00010000
00001000
00020000
00000000
00000000
00030000
00000000
,  // measure 43
01000000
00000000
00000000
10000000
00000000
00000000
00010000
00000000
00000000
00000000
00100000
00000000
01000000
00000000
00100000
00000000
,  // measure 44
00000000
00001000
00010000
00002000
00000000
00000000
00003100
00000000
,  // measure 45
00000001
00000000
00000000
00001000
00000000
00000000
00002002
00000000
00000000
00000000
00000000
00000000
00003003
00000000
00000000
00000000
,  // measure 46
00000010
00000000
00000000
00010000
00000000
00000000
00002000
00000000
00000000
00000000
00000000
00000000
00003000
00000000
00000000
00000000
,  // measure 47
00100000
00000000
00000000
00001000
00000000
00000000
00010000
00000000
00000000
00000000
01000000
00000000
10000000
00000000
00000000
00000000
,  // measure 48
01000000
00010000
00001000
00000100
,  // measure 49
00000001
00000000
00000000
00001000
00000000
00000000
00000020
00000000
00000000
00000000
00000030
00000000
00000000
00000000
00000000
00000000
,  // measure 50
00001000
00000000
00000000
00000001
00000000
00000000
00000010
00000000
00000000
00000000
00001000
00000000
00000000
00010000
00000000
00000000
,  // measure 51
00100000
00000000
00000000
10000000
00000000
00000000
01000000
00000000
00000000
00000000
00010000
00000000
00000000
00001000
00000000
00000000
,  // measure 52
00000010
00000000
00000000
00000001
00000000
00000000
00002002
00000000
00000000
00000000
00000000
00000000
00000000
00000000
00000000
00000000
,  // measure 53
00000000
00003003
00000000
00000110
00000000
00000000
00000000
00000000
,  // measure 54
00000000
00000000
00001000
00000000
00000100
00000000
00001000
00000000
00000010
00000000
00000000
00000010
00000000
00000000
00000010
00000000
,  // measure 55
00000000
00000000
00000000
00011000
00000000
00010000
01000000
10000000
,  // measure 56
00000000
00000000
00010000
00000000
01000000
00000000
00010000
00000000
00100000
00000000
00000000
00100000
00000000
00000000
00100000
00000000
,  // measure 57
00000000
00000000
00000000
00011000
00000000
00001000
00000010
00000001
,  // measure 58
00000000
00000000
00001000
00000000
00000100
00000000
00010000
00000000
00001000
00000000
00000000
00000010
00000000
00000000
00001000
00000000
,  // measure 59
00000000
00000000
00000000
00011000
00000000
00010000
00100000
10000000
,  // measure 60
00000000
01000000
00010000
00001000
00000200
00000000
00000000
00000000
,  // measure 61
00000300
00000010
00000100
00000010
00000000
00001000
00000001
00001000
,  // measure 62
00000000
00000000
00000001
00000000
00000100
00000000
00000001
00000000
00001000
00000000
00000000
00000100
00000000
00000000
00010000
00000000
,  // measure 63
00000000
00000000
00000000
00011000
00000000
00001000
00010000
01000000
,  // measure 64
00000000
00000000
10000000
00000000
01000000
00000000
10000000
00000000
00010000
00000000
00000000
01000000
00000000
00000000
00001000
00000000
,  // measure 65
00000000
00000000
00000000
00011000
00000000
00010000
00001000
00000100
,  // measure 66
00000000
00000000
00000001
00000000
00000010
00000000
00000001
00000000
00000100
00000000
00000000
00001000
00000000
00000000
00010000
00000000
,  // measure 67
00000000
00000000
00000000
00011000
00000000
00010000
01000000
10000000
,  // measure 68
00000000
00100000
00010000
00001000
00000020
00000000
00000000
00000000
,  // measure 69
00000030
00000100
00000010
00000200
00000000
00000000
00002300
00000000
,  // measure 70
00003002
00000000
00000003
00000000
00001000
00000100
00000010
00000002
,  // measure 71
00000000
00000103
00001000
00000000
,  // measure 72
00010000
00100000
10000000
00100000
,  // measure 73
00010000
00001000
00000010
00000001
,  // measure 74
00000010
00000000
00000000
00000100
00000000
00000000
00000000
00000110
00000000
00000000
00000000
00000000
00000000
00000000
00000000
00000000
;

//---------------dance-double - NewbStepper-BDP----------------
#NOTES:
     dance-double:
     NewbStepper:
     Easy:
     7:
     0.221725,0.311485,0.136948,0.068474,0.049453,204,186,18,9,0,0,0.221725,0.311485,0.136948,0.068474,0.049453,204,186,18,9,0,0:
// measure 0
00000000
00000000
00000000
00000000
,  // measure 1
00000000
00000000
00000000
00000000
,  // measure 2
00000000
00000000
00000000
00000000
,  // measure 3
00000000
00000000
00000000
00000000
,  // measure 4
00000000
00000000
00000000
00000000
,  // measure 5
00000000
10000000
00000000
00000000
00010000
00000000
00000000
01100000
,  // measure 6
00000000
00000000
00000000
00000000
,  // measure 7
00000000
00000001
00000000
00000000
00001000
00000000
00000000
00000110
,  // measure 8
00000000
00000000
00000000
00000000
,  // measure 9
00000000
00001000
00000000
00000000
00010000
00000000
00000000
00011000
,  // measure 10
00000000
00000000
00000000
00000000
,  // measure 11
00000000
00100000
00000000
00000000
00001000
00000000
00000000
00020000
,  // measure 12
00000000
00030000
00000010
00000010
,  // measure 13
00000000
00000000
00000000
00000000
00000000
00000000
00000000
00000000
00000000
00000000
00000000
00000000
00000000
00000000
00000000
00001001
,  // measure 14
00000000
00000000
00000000
00001000
,  // measure 15
00000001
00000000
00000010
00000100
,  // measure 16
00010000
00000000
00000000
00000000
00000000
00000000
00000000
00000000
00001000
00000000
00000000
00000000
00000000
00000000
00000000
01000000
,  // measure 17
00000000
00000000
00000000
00000000
00000000
00000000
00000000
00000000
00100000
00000000
00000000
00000000
10000000
00000000
00000000
00010000
,  // measure 18
00000000
00000000
00000000
00010000
,  // measure 19
10000000
00000000
00100000
01000000
,  // measure 20
00001000
00000000
00000000
00000000
00000000
00000000
00000000
00000000
00010000
00000000
00000000
00000000
00000000
00000000
00000000
00000200
,  // measure 21
00000000
00000000
00000010
00000000
,  // measure 22
00000300
00000000
00001001
00000001
,  // measure 23
00000100
00000000
00000000
00001000
00000000
00000000
00001000
00000000
,  // measure 24
00000000
00010000
00001000
01000000
,  // measure 25
00010000
00000000
00000000
00100000
00000000
00000000
00100000
00000000
,  // measure 26
00000000
00010000
10000000
00100000
,  // measure 27
01000000
00000000
00000000
00001000
00000000
00000000
00010000
00000000
,  // measure 28
00000000
00001000
00010000
00000100
,  // measure 29
00000010
00000000
00000000
00000001
00000000
00000000
00001000
00000000
,  // measure 30
00000000
00000110
00000001
00001000
,  // measure 31
00000001
00000000
00000000
00000010
00000000
00000000
00000001
00000000
,  // measure 32
00000100
00001000
00010000
01000000
,  // measure 33
00100000
00000000
00000000
00010000
00000000
00000000
10000000
00000000
,  // measure 34
00100000
01000000
00001000
00010000
,  // measure 35
00000010
00000000
00000000
00001000
00000000
00000000
00000001
00000000
,  // measure 36
00000100
00000010
00010000
00001000
,  // measure 37
01000000
00000000
00000000
00000000
00000000
00000000
00100000
00000000
00000000
00000000
00000000
00000000
10000000
00000000
00000000
10000000
,  // measure 38
00000000
00000000
00000000
10010000
00000000
00000000
00000000
00000000
,  // measure 39
00010000
00000000
00000000
01000000
00000000
00000000
00000000
00001000
,  // measure 40
00000000
00000000
00000000
00000010
00000000
00000000
00000000
00000000
,  // measure 41
00000100
00000000
00000000
00010000
00000000
00000000
00000000
00001000
,  // measure 42
00000000
00000000
00000000
00000010
00000000
00000000
00000000
00000000
,  // measure 43
00000001
00000000
00000000
00000100
00000000
00000000
00000000
00000010
,  // measure 44
00000000
00000000
00000000
00010000
00000000
00000000
00000000
00000000
,  // measure 45
00001000
00000000
00000000
00010000
00000000
00000000
00000000
00000000
,  // measure 46
01000000
00000000
00000000
10010000
00000000
00000000
00000000
00000000
,  // measure 47
10000000
00000000
00000000
00100000
00000000
00000000
00000000
01000000
,  // measure 48
00000000
00000000
00000000
00001000
00000000
00000000
00000000
00000000
,  // measure 49
00000010
00000000
00000000
00000100
00000000
00000000
00000000
00000000
,  // measure 50
00001000
00000000
00000000
00001001
00000000
00000100
00000000
00000000
,  // measure 51
00000010
00000000
00000000
00000110
00000000
00001000
00000000
00000000
,  // measure 52
00010000
00000000
00000000
00022000
00000000
00000000
00000000
00033000
,  // measure 53
00000000
00000000
00000000
00001000
00000000
00000000
00000000
00000000
,  // measure 54
00000000
00000000
00000000
00000000
00100000
00000000
00000000
00000000
00010000
00000000
00000000
00010000
00000000
00000000
00010000
00000000
,  // measure 55
00000000
10010000
10000000
00010000
,  // measure 56
00001000
00000000
00000000
00000000
00000010
00000000
00000000
00000000
00001000
00000000
00000000
00001000
00000000
00000000
00001000
00000000
,  // measure 57
00000000
00001001
00000001
00001000
,  // measure 58
00010000
00000000
00000000
00000000
01000000
00000000
00000000
00000000
00100000
00000000
00000000
00100000
00000000
00000000
00100000
00000000
,  // measure 59
00000000
10010000
10000000
01000000
,  // measure 60
00010000
00001000
00000200
00000000
,  // measure 61
00000300
00000001
00000000
00001000
00000000
00000001
00000000
00000010
,  // measure 62
00000000
00000000
00000000
00000000
00001000
00000000
00000000
00000000
00010000
00000000
00000000
00010000
00000000
00000000
00010000
00000000
,  // measure 63
00000000
00011000
00001000
00000010
,  // measure 64
00001000
00000000
00000000
00000000
00010000
00000000
00000000
00000000
00001000
00000000
00000000
00001000
00000000
00000000
00001000
00000000
,  // measure 65
00000000
00011000
00010000
00100000
,  // measure 66
00010000
00000000
00000000
00000000
00001000
00000000
00000000
00000000
00010000
00000000
00000000
00010000
00000000
00000000
00010000
00000000
,  // measure 67
00000000
00011000
00001000
00010000
,  // measure 68
01000000
10000000
00020000
00000000
,  // measure 69
00030000
10000000
00000000
00020000
00000000
00000000
20030000
00000000
,  // measure 70
30200000
00000000
00300000
00000000
01000000
00000000
00000000
10010000
,  // measure 71
00000000
10000000
00010000
00000000
,  // measure 72
00100000
00000000
00000000
00000000
00000000
00000000
00000000
00001000
00000000
00000000
00000000
00000000
00000000
00000000
00000000
00000000
,  // measure 73
00010000
00000000
00001000
00000000
,  // measure 74
00000100
00000000
00000000
00000000
00000000
00000000
00000000
00000001
00000000
00000000
00000000
00000000
00000000
00000000
00000000
00000000
;
