#TITLE:Yum Yum Sweetie;
#ARTIST:t+pazolite;
#BANNER:Yum Yum Sweetie.png;
#BACKGROUND:Yum Yum Sweetie-bg.png;
#MUSIC:Yum Yum Sweetie.ogg;
#OFFSET:1.437545;
#SAMPLESTART:11.653;
#SAMPLELENGTH:15;
#BPMS:0=165,127=82.5,143=165;
#STOPS:118.5=0.364,121.5=0.364,126=1.091;

//---------------dance-single - NewbStepper-ESP----------------
#NOTES:
     dance-single:
     NewbStepper:
     Hard:
     15:
     0.712972,0.867720,0.342272,0.151237,0.728323,627,584,43,19,0,0,0.712972,0.867720,0.342272,0.151237,0.728323,627,584,43,19,0,0:
// measure 0
0000
0000
0000
0000
,  // measure 1
0000
0000
0000
0000
,  // measure 2
0000
0000
0000
0000
,  // measure 3
0000
0000
0000
0000
,  // measure 4
0000
0000
0000
0000
,  // measure 5
1000
0000
0000
1100
0000
0000
0010
0000
0001
0000
0000
0100
0000
0010
0100
0000
,  // measure 6
0001
0000
0000
0101
0000
0000
0010
0000
1000
0001
0100
0001
1000
0000
0100
0000
,  // measure 7
0010
0000
0001
0000
1000
0000
0001
0000
1000
0010
1000
0010
0100
0001
0100
0001
,  // measure 8
2000
0000
0000
3000
,  // measure 9
0001
0000
0010
0000
0001
1000
0000
0100
0000
0000
0100
0000
0010
0000
0010
0000
,  // measure 10
0100
0000
0000
0100
0000
0010
0001
0000
1000
0000
0001
0000
0010
0000
0000
0000
,  // measure 11
0001
0000
1000
0000
0001
0100
0000
0001
0100
0000
0010
0000
1000
0100
1000
0000
,  // measure 12
0001
0000
0000
0001
0000
0100
0010
0000
2000
0000
0000
0000
3000
0000
0000
0000
,  // measure 13
0001
0000
0010
0000
0001
0010
0000
0100
0000
0000
1000
0000
0100
0000
0100
0000
,  // measure 14
1000
0000
0000
1000
0000
0001
0100
0000
0010
0100
0010
0000
1000
0000
0100
0000
,  // measure 15
0001
0000
0100
0000
1000
0010
0000
0100
0000
0100
0000
0001
0010
0000
0100
0000
,  // measure 16
1000
0000
0001
0000
1000
0010
0000
0010
0100
0010
0100
0001
0100
0001
0100
0010
,  // measure 17
1000
1000
0100
0100
,  // measure 18
0010
0010
0001
0001
,  // measure 19
1000
1000
0010
0010
,  // measure 20
0100
0100
0001
0001
,  // measure 21
1000
0000
0100
0000
0001
0100
0000
0100
0000
0010
0000
0010
0001
1000
0010
1000
,  // measure 22
0001
0000
0100
0000
1000
0100
0000
0100
0000
0010
0000
0010
1000
0000
0001
0000
,  // measure 23
1000
0000
0100
0000
1000
0010
0000
0100
0000
0000
0001
0000
1000
0010
0000
0200
,  // measure 24
0000
0000
0300
0000
,  // measure 25
0001
0000
1000
0000
0001
0100
0000
0100
0000
0010
0000
1000
0010
0100
0010
0000
,  // measure 26
1000
0000
0001
0000
0100
1000
0000
0100
0001
0100
0010
0100
0001
0000
1000
0000
,  // measure 27
0010
0000
1000
0000
0001
0010
0000
0010
0000
0100
1000
0100
0010
0100
1000
0100
,  // measure 28
0010
0000
0001
0000
0010
0001
0000
1000
0010
0000
0100
0010
0100
0000
0001
0000
,  // measure 29
1000
0000
0100
0000
0010
0001
0000
1000
0000
0001
0010
0000
0001
0000
0100
0000
,  // measure 30
0010
1000
0000
0001
0000
1000
0010
0000
1000
0000
0001
0000
0010
0100
0000
0100
,  // measure 31
0000
0001
0000
0100
1000
0000
0010
0000
0100
0000
0000
0000
0002
0000
0000
0000
,  // measure 32
1003
0100
0010
0001
2000
0000
0000
0000
3001
0100
0010
1000
0002
0000
0203
0000
,  // measure 33
2300
0000
3020
0000
0032
0000
0000
0000
0003
1000
0010
0100
0002
0000
0000
0000
,  // measure 34
1003
0001
0010
0100
2000
0000
0000
0000
3001
0100
1000
0100
0101
0000
0011
0000
,  // measure 35
1010
0000
1100
0000
1001
0000
0000
0000
0000
0000
0000
0000
1000
0000
0010
0100
,  // measure 36
0010
1000
0001
0101
1000
1100
0010
0011
,  // measure 37
0100
0000
1000
0000
0010
0000
0100
0001
0100
0010
1000
0000
0001
0000
0100
0010
,  // measure 38
0100
0000
0001
0000
0101
0000
0000
1010
0000
0000
0110
0000
1001
0000
0000
1100
,  // measure 39
0000
0000
0011
0000
0110
0000
0000
0000
1001
0000
0000
0000
0001
0000
0010
0100
,  // measure 40
0010
0001
1000
1100
0001
0101
0010
1010
,  // measure 41
0100
0000
0001
0000
0010
0000
0100
1000
0100
0010
0001
0000
1000
0000
0100
0010
,  // measure 42
0100
0000
1000
0000
0001
0000
0100
0010
1000
0000
0100
0000
0011
0000
0001
0000
,  // measure 43
0101
0100
0110
0010
1010
0000
0000
0000
,  // measure 44
0000
0000
0000
0000
,  // measure 45
0000
0000
0000
0000
,  // measure 46
0000
0000
0000
0000
,  // measure 47
0000
0000
0000
0000
0000
0000
0000
0000
0000
0000
0000
0000
0001
0000
1000
0100
,  // measure 48
0010
0100
1010
0100
0011
0100
0110
1000
,  // measure 49
0001
0000
0011
0000
0000
0000
0100
0000
1000
0001
1000
0100
0010
0000
0100
0000
,  // measure 50
1000
0000
0001
0000
0100
0000
0010
1000
0010
0000
0100
0000
0101
0000
0010
0000
,  // measure 51
1100
0010
0110
0100
1001
0000
0001
0100
,  // measure 52
1000
0100
0000
0100
0000
0010
0000
0010
1000
0001
0010
0001
1000
0000
0100
0000
,  // measure 53
0001
0100
0000
0100
0000
0010
0000
0010
0001
0000
1000
0000
0001
0000
0100
0000
,  // measure 54
0001
0010
0000
0100
0000
0000
1000
0000
0001
0010
0000
0200
0000
0000
0000
0000
,  // measure 55
0000
0000
0300
0000
0000
0000
1000
0010
,  // measure 56
1000
0001
0000
0100
0000
0000
0100
0000
0010
0000
0010
0000
0100
0000
0000
0100
,  // measure 57
0000
0010
1000
0000
0001
0000
1000
0000
0010
0000
0000
0000
1000
0000
0001
0000
,  // measure 58
1000
0100
0000
1000
0100
0000
0010
0000
0001
0100
0001
0000
1000
0000
0000
1000
,  // measure 59
0000
0100
0010
0000
0002
0000
0000
0000
0003
0000
0000
0000
1000
0000
0010
0000
,  // measure 60
1000
0010
0000
0100
0000
0000
0001
0000
0100
0000
0100
0000
0001
0000
0000
0001
,  // measure 61
0000
1000
0100
0000
0010
0100
0010
0000
0001
0000
0100
0000
1000
0000
0100
0000
,  // measure 62
0001
0010
0000
0100
0000
0100
0000
1000
0010
0000
0100
0000
0001
0000
1000
0000
,  // measure 63
0001
0010
0000
0010
0100
0010
0100
1000
0100
1000
0100
0010
0001
0000
0100
0000
,  // measure 64
0010
0000
1000
0000
0000
0000
0100
0010
0001
0000
0100
0010
1000
0000
0001
0010
,  // measure 65
0100
1000
0001
0010
0100
1000
0001
0100
0010
1000
0001
0000
1000
0000
0010
0000
,  // measure 66
0010
0000
0010
0000
0000
0000
1000
0100
1000
0001
1000
0010
1000
0000
0000
1100
,  // measure 67
0000
0000
0011
0000
2002
0000
0000
0000
3003
0000
0000
0000
1000
0000
0100
1000
,  // measure 68
0001
0000
0100
0000
0010
1000
0000
0010
0100
0000
0001
0000
0010
0000
0000
0010
,  // measure 69
0000
0001
0100
0000
0010
1000
0010
1000
0001
0000
0000
0000
1000
0100
1000
0000
,  // measure 70
0100
0010
0100
0000
0010
0001
0010
0000
0001
1000
0001
0000
1000
0000
0010
0100
,  // measure 71
0010
0100
0010
0100
0001
0000
0010
0100
0010
0100
0010
0100
1000
0000
0000
1010
,  // measure 72
0000
0000
0100
0000
0002
0000
0000
0000
0013
0000
0000
0000
0001
0000
0000
0011
,  // measure 73
0000
0000
0100
0000
2000
0000
0000
0000
3010
0000
0000
0000
0100
0000
0000
0110
,  // measure 74
0000
0000
1000
0000
0010
0000
0000
0001
0000
0000
0010
0000
0100
0000
0000
0110
,  // measure 75
0000
0000
0001
0000
0100
0000
0000
0000
1001
0000
0000
0000
0001
0000
0000
0101
,  // measure 76
0000
0000
0010
0000
1000
0000
0000
0100
0000
0010
0100
0000
1000
0000
0000
1100
,  // measure 77
0000
0000
0010
0000
0001
1000
0100
1000
0001
0000
0100
0000
0010
0000
1000
0000
,  // measure 78
0001
0000
1000
0000
0001
0010
0001
0010
0100
1000
0100
1000
0001
0000
0100
0000
,  // measure 79
1000
0100
0001
0010
1000
0010
0002
0000
,  // measure 80
0000
0000
0000
0103
;

//---------------dance-single - NewbStepper-DSP----------------
#NOTES:
     dance-single:
     NewbStepper:
     Medium:
     12:
     0.466218,0.546342,0.175116,0.151237,0.155216,410,388,22,19,0,0,0.466218,0.546342,0.175116,0.151237,0.155216,410,388,22,19,0,0:
0000
0000
0000
0000
,
0000
0000
0000
0000
,
0000
0000
0000
0000
,
0000
0000
0000
0000
,
0000
0000
0000
0000
,
0010
0000
0000
0010
0000
0000
0001
0000
1000
0000
0000
0000
0000
0000
0000
0000
,
0010
0000
0000
0010
0000
0000
1000
0000
0001
0000
0000
0000
0000
0000
0000
0000
,
1100
0000
0000
1100
0000
0000
0000
0000
0011
0000
0000
0011
0000
0000
0000
0000
,
0200
0000
0000
0300
,
1000
0000
0001
0000
1000
0000
0000
0100
0000
0000
1000
0000
0010
0000
0010
0000
,
0100
0000
0000
0001
0000
0000
0010
0000
0200
0000
0000
0000
0300
0000
0000
0000
,
1000
0100
0001
0000
0001
0100
1000
0000
,
0010
0000
0000
0010
0000
0000
0100
0000
0002
0000
0000
0000
0003
0000
0000
0000
,
0010
0000
0001
0000
0100
0000
0000
0010
0000
0000
1000
0000
0100
0000
0100
0000
,
0010
0000
0000
0001
0000
0000
0100
0000
0020
0000
0000
0000
0030
0000
0000
0000
,
1000
0000
0100
0000
1000
0100
0000
0000
0001
0000
0100
0000
0001
0100
0000
0000
,
0010
0001
0010
0100
0010
1000
0010
0000
,
0001
0001
0100
0100
,
0010
0010
1000
1000
,
0001
0001
0010
0010
,
0100
0100
1000
1000
,
0001
0100
1000
0000
0001
0010
1000
0000
,
1000
0010
0001
0000
1000
0100
0001
0000
,
1000
0000
0100
0000
1000
0100
0000
0000
0001
0000
0100
0000
0001
0100
0000
0000
,
0020
0000
0000
0030
,
1001
0001
0100
0010
1000
0100
0001
0000
,
0100
1000
0010
0100
0001
0010
1000
0000
,
0010
0001
0100
1000
0001
0010
0100
0000
,
0010
1000
0100
0001
1000
0010
0100
0000
,
1000
0000
0100
0000
1000
0100
0000
0100
0000
0000
0000
0000
0001
0000
0100
0000
,
0001
0100
0000
0100
0000
0000
0000
0000
1000
0000
0010
0000
0100
0000
0000
0000
,
0001
0010
0100
0000
1001
0000
0200
0000
,
0000
0000
0302
0000
0000
0000
1003
0100
,
0010
0001
0020
0000
0030
0000
0200
0000
,
0000
0000
2300
0000
0000
0000
3001
0100
,
1000
0100
0001
0000
0000
0000
0010
0001
,
0100
1000
0100
0001
0010
0000
0100
1000
,
0010
0100
0000
1000
0100
0001
0010
0001
,
0100
0000
0010
0000
1000
0000
0000
0100
0000
0000
0010
0000
0001
0000
0000
0100
,
0000
0010
1000
0100
1001
0000
0010
1000
,
0100
0001
0100
1000
0010
0000
0100
0001
,
0010
0100
0000
1000
0100
0001
0100
1000
,
0001
0010
1000
0001
0100
1000
0010
0001
,
1000
0100
0001
0000
0010
0000
0000
0000
,
0000
0000
0000
0000
,
0000
0000
0000
0000
,
0000
0000
0000
0000
,
0000
0000
0000
0000
0000
0000
0001
1000
,
0100
0001
1000
0010
0001
0100
0010
1000
,
0001
0100
1000
0001
0010
1000
0100
0010
,
0001
0100
0010
0010
0100
0100
1000
0100
,
0001
0010
0100
1000
0001
0000
1000
0100
,
0001
0000
1000
0010
0001
0000
0001
0010
,
1000
0000
0001
0100
1000
0000
0001
0100
,
0001
0100
0000
0000
1000
0000
0100
0000
1000
0100
0000
0000
0020
0000
0000
0000
,
0000
0000
0030
0000
0000
0000
0001
1000
,
0001
0000
0000
0100
0000
0000
0001
0000
0010
0000
0010
0000
0100
0000
0000
1000
,
0000
0010
0200
0000
0300
0000
0001
0100
,
1000
0000
0000
0000
1000
0000
0100
0000
0001
0000
0000
0000
0010
0000
0000
0010
,
0000
0100
2000
0000
3000
0000
0010
1000
,
0100
0000
0000
0010
0000
0000
0001
0000
0100
0000
0100
0000
0010
0000
0000
1000
,
0000
0100
0020
0000
0030
0000
0001
0100
,
0001
0100
0000
0000
1000
0000
0100
0000
1000
0100
0000
0000
0010
0000
0001
0000
,
0010
0100
0010
1000
0010
0000
1000
0100
,
0001
0000
0100
0000
1000
0000
0010
0000
0001
0000
0010
0000
1000
0000
0000
0100
,
0000
0001
0200
0000
0000
0000
0310
0001
,
0001
0000
0001
0000
0000
0000
1000
0000
0100
0000
0010
0000
0001
0000
0000
0100
,
0000
0010
2020
0000
3030
0000
0001
0100
,
1000
0000
0100
0000
0001
0000
0010
0000
1000
0000
0010
0000
0001
0000
0000
0100
,
0000
1000
0200
0000
0000
0000
0310
1000
,
1100
0000
0010
0001
0101
0000
0010
0010
,
0010
0000
0100
0000
0010
0000
0010
0000
0010
0000
0000
0000
1100
0000
0000
1100
,
0000
0000
0000
0000
0000
0000
0000
0000
0000
0000
0000
0000
0101
0000
0000
0101
,
0000
0000
0000
0000
0000
0000
0000
0000
0000
0000
0000
0000
0110
0000
0000
0110
,
0000
0000
0000
0000
0000
0000
0000
0000
0000
0000
0000
0000
1001
0000
0000
1001
,
0000
0000
0000
0000
0000
0000
0000
0000
0000
0000
0000
0000
0010
0000
0000
0010
,
0000
0000
1000
0000
0001
0000
0000
0000
0000
0000
0000
0000
0010
0000
0000
0010
,
0000
0000
0001
0000
1000
0000
0000
0000
0000
0000
0000
0000
0101
0000
0000
0101
,
0000
0000
0000
0000
1010
0000
0000
1010
0000
0000
0000
0000
1000
0000
0100
0000
,
0010
0001
0100
0010
1000
0100
0020
0000
,
0000
0000
0000
0130
;

//---------------dance-single - NewbStepper-BSP----------------
#NOTES:
     dance-single:
     NewbStepper:
     Easy:
     6:
     0.262674,0.385653,0.087558,0.071638,0,231,220,11,9,0,0,0.262674,0.385653,0.087558,0.071638,0,231,220,11,9,0,0:
0000
0000
0000
0000
,
0000
0000
0000
0000
,
0000
0000
0000
0000
,
0000
0000
0000
0000
,
0000
0000
0000
0000
,
0001
0001
0000
0000
,
1000
1000
0000
0000
,
0100
0010
0100
0010
,
1001
0000
0000
0000
,
0010
0001
0100
0000
,
0010
1000
0100
0000
,
0010
0010
0001
0001
,
0100
0010
0100
0000
,
0010
1000
0100
0000
,
0010
0001
0100
0000
,
1000
0100
0001
0100
,
0010
0010
0010
0000
,
1000
0000
1000
0000
,
0001
0000
0001
0000
,
0100
0000
0100
0000
,
0010
0000
0010
0000
,
1000
1000
0100
0100
,
0010
0010
0001
0001
,
0101
0000
1100
0000
,
0220
0000
0000
0330
,
0001
0100
0001
1000
,
0001
0100
1000
0100
,
0001
0010
0001
1000
,
0010
1000
0001
0010
,
0100
1000
1001
0100
,
0001
1001
0010
0100
,
0010
0100
1001
0010
,
0000
0100
0000
0001
,
0010
0200
0300
0010
,
0000
0100
0000
1000
,
0010
0200
0300
0001
,
0010
1000
0001
0100
,
1000
0100
0001
1000
,
0010
0001
0100
0010
,
0010
0010
0000
1000
,
0010
0001
1000
0100
,
0001
0100
1000
0001
,
0010
1000
0100
0010
,
0010
0010
0000
0000
,
0000
0000
0000
0000
,
0000
0000
0000
0000
,
0000
0000
0000
0000
,
0000
0000
0000
0001
,
0100
0001
0100
1000
,
0100
1000
0100
0001
,
0010
1000
0010
0001
,
0000
1000
0000
0001
,
0001
0100
0100
0010
,
0010
1000
1000
1100
,
0000
0101
0000
0220
,
0000
0000
0330
0010
,
1000
0100
0000
0010
,
0001
0100
0000
0010
,
0010
1000
1000
0100
,
0010
0100
0000
0010
,
0010
1000
1000
0100
,
0010
0100
0000
0010
,
0001
0100
0000
0010
,
1000
0100
0000
0010
,
0010
0001
0001
0100
,
0100
1000
1000
0010
,
0010
0001
0001
0100
,
0100
0010
0000
1000
,
1000
0100
0100
0001
,
0001
0010
0010
1000
,
1000
0001
0001
2002
,
0000
0000
3003
0100
,
0000
0000
0000
0100
,
0000
0000
0000
0010
,
0000
0000
0000
0010
,
0000
0000
1000
1000
,
0000
0000
0001
0001
,
0000
0100
0010
0100
,
0010
1000
0100
1000
,
0100
0001
0100
0020
,
0000
0000
0000
0130
;

//---------------dance-single - NewbStepper-bSP----------------
#NOTES:
     dance-single:
     NewbStepper:
     Beginner:
     3:
     0.146688,0.224964,0.023879,0.023879,0,129,126,3,3,0,0,0.146688,0.224964,0.023879,0.023879,0,129,126,3,3,0,0:
0000
0000
0000
0000
,
0000
0000
0000
0000
,
0000
0000
0000
0000
,
0000
0000
0000
0000
,
0000
0000
0000
0000
,
0001
0000
0001
0000
,
0001
0000
0001
0000
,
1000
0000
1000
0000
,
1000
0000
1000
0000
,
0010
0000
0000
0000
,
0010
0010
0010
0000
,
0100
0000
0000
0000
,
0100
0100
0100
0000
,
0001
0000
0001
0000
,
0001
0001
0001
0000
,
1000
0000
1000
0000
,
1000
0000
0000
0000
,
0001
0000
0001
0000
,
0001
0000
0001
0000
,
0100
0000
0100
0000
,
0100
0000
0100
0000
,
0010
0000
0010
0000
,
0010
0000
0010
0000
,
1000
0000
0001
0000
,
1001
0000
0000
0000
,
1000
0000
0000
0000
,
1000
0000
0000
0000
,
1000
0000
0000
0000
,
1000
0000
0000
0000
,
0001
0000
0000
0000
,
0000
0000
0000
0000
,
0001
0000
0000
0010
,
0000
0010
0000
0100
,
0000
0100
0000
1000
,
0000
1000
0000
0001
,
0000
0001
0000
1000
,
0000
0000
0000
1000
,
1000
0000
0000
0001
,
0000
0000
0001
0001
,
0000
0100
0000
0001
,
0000
0000
0001
0001
,
0000
0000
0000
1000
,
0000
0000
1000
1000
,
0000
0000
0000
0100
,
0000
0000
0000
0000
,
0000
0000
0000
0000
,
0000
0000
0000
0000
,
0000
0000
0000
0001
,
0000
1000
0000
0001
,
0000
0000
0000
1000
,
0000
0001
0000
1000
,
0000
0000
0000
0010
,
0000
0010
0000
0010
,
0000
0010
0000
0001
,
0000
1000
0000
1001
,
0000
0000
0000
0010
,
0000
0000
0000
0010
,
0010
0010
0000
0100
,
0000
0000
0000
0100
,
0100
0100
0000
1000
,
0000
1000
0000
1000
,
1000
1000
0000
0001
,
0000
0001
0000
0001
,
0001
0001
0000
0100
,
0000
0010
0000
0100
,
0000
0000
0000
0001
,
0000
1000
0000
0001
,
0001
0001
0000
1000
,
0000
1000
0000
1000
,
1000
1000
0000
0010
,
0000
0100
0000
2002
,
0000
3003
0000
1000
,
0000
0000
0000
0001
,
0000
0000
0000
1000
,
0000
0000
0000
0001
,
0000
0000
0000
1000
,
0000
1000
0000
0001
,
0000
0001
0000
0100
,
0000
0100
0000
0020
,
0000
0000
0000
0030
,
0000
0000
0000
0100
;

//---------------dance-double - NewbStepper-EDP----------------
#NOTES:
     dance-double:
     NewbStepper:
     Hard:
     15:
     0.679996,0.803444,0.198995,0.151237,0.692504,598,573,25,19,0,0,0.679996,0.803444,0.198995,0.151237,0.692504,598,573,25,19,0,0:
00000000
00000000
00000000
00000000
,
00000000
00000000
00000000
00000000
,
00000000
00000000
00000000
00000000
,
00000000
00000000
00000000
00000000
,
00000000
00000000
00000000
00000000
,
00001000
00000000
00000000
00011000
00000000
00000000
00100000
00000000
10000000
00000000
00000000
01000000
00000000
00100000
01000000
00000000
,
00010000
00000000
00000000
00011000
00000000
00000000
00000010
00000000
00000001
00000100
00000000
00000100
00000010
00000000
00001000
00000000
,
00000001
00000000
00000100
00000000
00000010
00000000
00001000
00000000
00000100
00010000
00001000
00010000
00000100
00010000
00001000
00100000
,
00020000
00000000
00000000
00030000
,
10000000
00000000
00100000
00000000
10000000
00010000
00000000
01000000
00000000
00000000
01000000
00000000
00100000
00000000
00010000
00000000
,
00001000
00000000
00000000
00001000
00000000
00010000
00000100
00000000
00000010
00000000
00000001
00000000
00001000
00000000
00000000
00000000
,
00000001
00000000
00000100
00000000
00000010
00001000
00000000
00000010
00001000
00000000
00000100
00000000
00000010
00000100
00000010
00000000
,
00001000
00000000
00000000
00001000
00000000
00010000
00100000
00000000
02000000
00000000
00000000
00000000
03000000
00000000
00000000
00000000
,
00001000
00000000
00010000
00000000
00001000
00000010
00000000
00000100
00000000
00000000
00001000
00000000
00000001
00000000
00000001
00000000
,
00000100
00000000
00000000
00000100
00000000
00001000
00010000
00000000
00100000
01000000
00100000
00000000
10000000
00000000
01000000
00000000
,
00010000
00000000
01000000
00000000
10000000
00100000
00000000
01000000
00000000
01000000
00000000
00010000
00001000
00000000
00000010
00000000
,
00001000
00000000
00000001
00000000
00001000
00000010
00000000
00000010
00010000
00000010
00010000
00001000
00100000
00001000
00010000
00001000
,
00100000
00100000
01000000
01000000
,
00010000
00010000
00001000
00001000
,
00000010
00000010
00000100
00000100
,
00010000
00010000
01000000
01000000
,
10000000
00000000
01000000
00000000
00010000
00001000
00000000
00001000
00000000
00100000
00000000
00100000
00001000
00010000
00001000
00000000
,
00000010
00000000
00000001
00000000
00000100
00000010
00000000
00000010
00000000
00001000
00000000
00001000
00000001
00000000
00000010
00000000
,
00000001
00000000
00000100
00000000
00001000
00010000
00000000
00000010
00000000
00000000
00000100
00000000
00001000
00010000
00000000
00200000
,
00000000
00000000
00300000
00000000
,
00010000
00000000
00001000
00000000
00010000
00100000
00000000
00100000
00000000
10000000
00000000
00010000
00100000
01000000
00100000
00000000
,
00001000
00000000
00010000
00000000
00001000
00000010
00000000
00000010
00000000
00000001
00000100
00000001
00001000
00000000
00000100
00000000
,
00010000
00000000
00001000
00000000
00000010
00001000
00000000
00010000
00000000
00001000
00100000
00001000
00010000
00001000
00100000
00000000
,
00001000
00000000
00010000
00000000
00100000
00010000
00000000
00001000
00000000
00000000
00100000
01000000
10000000
00000000
00010000
00000000
,
01000000
00000000
00100000
00000000
10000000
01000000
00000000
00010000
00000000
00001000
00000010
00000000
00000100
00000000
00000010
00000000
,
00000001
00000100
00000000
00001000
00000000
00010000
00100000
00000000
01000000
00000000
00100000
00000000
10000000
00010000
00000000
00100000
,
00000000
00001000
00000000
00001000
00010000
00000000
00000010
00000000
00001000
00000000
00000000
00000000
00000002
00000000
00000000
00000000
,
00000103
00001000
00010000
01000000
20000000
00000000
00000000
00000000
31000000
00010000
00001000
00000100
00000002
00000000
00000023
00000000
,
00000230
00000000
00002300
00000000
00023000
00000000
00000000
00000000
00030000
10000000
01000000
00100000
00020000
00000000
00000000
00000000
,
00030000
00001000
00000100
00000010
00000002
00000000
00000000
00000000
00000003
00000100
00001000
00010000
01000000
00000000
10000000
00000000
,
00100000
00000000
00010000
00000000
00011000
00000000
00000000
00000000
00000000
00000000
00000000
00000000
00001000
00000000
00000010
00000100
,
00000010
00001000
00010000
00001000
00100000
00001000
00000010
00001000
,
00010000
00000000
00100000
00000000
10000000
00000000
01000000
00100000
01000000
00100000
00010000
00000000
00001000
00000000
00000100
00000010
,
00000100
00000000
00010000
00000000
00011000
00000000
00000000
00001010
00000000
00000000
00000011
00000000
00000101
00000000
00000000
00001010
,
00000000
00000000
00010000
00000000
00100000
00000000
00010000
00000000
00011000
00000000
00000000
00000000
00010000
00000000
00100000
01000000
,
00100000
00010000
00001000
00010000
00000010
00010000
00100000
00010000
,
00001000
00000000
00000010
00000000
00000001
00000000
00000100
00000010
00000100
00000010
00001000
00000000
00010000
00000000
01000000
00100000
,
01000000
00000000
00001000
00000000
00010000
00000000
00000100
00000010
00000100
00000000
00010000
00000000
00011000
00000000
00001000
00000000
,
01001000
01000000
01010000
00010000
10010000
00000000
00000000
00000000
,
00000000
00000000
00000000
00000000
,
00000000
00000000
00000000
00000000
,
00000000
00000000
00000000
00000000
,
00000000
00000000
00000000
00000000
00000000
00000000
00000000
00000000
00000000
00000000
00000000
00000000
10000000
00000000
00010000
01000000
,
00100000
01000000
10100000
01000000
00110000
00001000
00010000
00001000
,
00000010
00000000
00000001
00000000
00000000
00000000
00001000
00000010
00000100
00000010
00001000
00000000
00000001
00000000
00000100
00000010
,
00000100
00000000
00001000
00000000
00010000
00000000
01000000
00100000
01000000
00000000
10000000
00000000
10100000
00000000
00100000
00000000
,
01000000
00010000
00001000
00000010
00000100
00000000
00000001
00000100
,
00001000
00010000
00000000
00010000
00000000
00000010
00000000
00000010
00010000
00001000
00010000
00000000
00100000
00000000
10000000
00000000
,
01000000
00100000
00000000
00100000
00000000
00010000
00000000
00010000
10000000
00000000
00100000
00000000
10000000
00000000
01000000
00000000
,
00010000
00001000
00000000
00100000
00000000
00000000
01000000
00000000
00010000
00001000
00000000
00000020
00000000
00000000
00000000
00000000
,
00000000
00000000
00000030
00000000
00000000
00000000
00000001
00000010
,
00000001
00001000
00000000
00000100
00000000
00000000
00000100
00000000
00000010
00000000
00001000
00000000
00010000
00000000
00000000
00010000
,
00000000
00001000
01000000
00000000
00100000
00000000
10000000
00000000
00010000
00000000
00000000
00000000
10000000
00000000
01000000
00000000
,
00100000
00010000
00000000
00100000
00010000
00000000
01000000
00000000
00100000
01000000
00100000
00000000
00010000
00000000
00000000
00010000
,
00000000
00001000
00000010
00000000
00000200
00000000
00000000
00000000
00000300
00000000
00000000
00000000
00010000
00000000
00001000
00000000
,
00010000
00100000
00000000
01000000
00000000
00000000
00010000
00000000
10000000
00000000
10000000
00000000
01000000
00000000
00000000
01000000
,
00000000
00010000
00001000
00000000
00000010
00000100
00000010
00000000
00000001
00000000
00000100
00000000
00001000
00000000
00000100
00000000
,
00000001
00000010
00000000
00000100
00000000
00000100
00000000
00001000
00010000
00000000
00100000
00000000
00010000
00000000
10000000
00000000
,
00010000
00100000
00000000
00100000
00001000
00100000
00001000
00010000
00000010
00010000
00001000
00010000
00000010
00000000
00000100
00000000
,
00000001
00000000
00000010
00000000
00000000
00000000
00001000
00010000
00001000
00000000
00100000
00000000
00010000
00000000
01000000
00100000
,
10000000
00000000
01000000
00100000
00010000
00000000
00100000
00010000
00001000
00000000
00000100
00000000
00000001
00000000
00000100
00000000
,
00000010
00000001
00000100
00000000
00000001
00000000
00000010
00000000
00001000
00010000
00100000
00000000
01000000
00000000
00000000
01010000
,
00000000
00000000
10100000
00000000
20020000
00000000
00000000
00000000
30030000
00000000
00000000
00000000
10000000
00000000
01000000
00100000
,
00010000
00000000
10000000
00000000
00100000
01000000
00000000
00100000
01000000
00000000
00010000
00000000
00001000
00000000
00000000
00001000
,
00000000
00000010
00000100
00000000
00000001
00000010
00000000
00001000
00000010
00000000
00000001
00000000
00000100
00000010
00001000
00000000
,
00000100
00010000
00001000
00000000
00100000
00010000
01000000
00000000
00010000
10000000
00100000
00000000
10000000
00000000
01000000
00000000
,
00010000
00001000
00010000
00001000
00100000
00000000
00001000
00000000
00010000
00000010
00010000
00000010
00001000
00000000
00000000
00001010
,
00000000
00000000
00000100
00000000
00000002
00000000
00000000
00000000
00001003
00000000
00000000
00000000
00010000
00000000
00000000
00110000
,
00000000
00000000
01000000
00000000
20000000
00000000
00000000
00000000
30010000
00000000
00000000
00000000
00100000
00000000
00000000
01100000
,
00000000
00000000
00010000
00000000
00001000
00000000
00000000
00000010
00000000
00000000
00000001
00000000
00000010
00000000
00000000
00000110
,
00000000
00000000
00001000
00000000
00010000
00000000
01000000
00000000
10000000
00000000
01000000
00000000
00010000
00000000
00000000
00011000
,
00000000
00000000
00000010
00000000
00000001
00000000
00000000
00000100
00000000
00000010
00000100
00000000
00001000
00000000
00000000
00011000
,
00000000
00000000
00100000
00000000
10000000
01000000
00000000
01000000
00100000
00000000
00010000
00000000
10000000
00000000
01000000
00000000
,
00100000
00000000
00010000
00000000
01000000
00001000
00010000
00001000
01000000
00001000
00010000
00000010
00001000
00000000
00000100
00000000
,
00000010
00000001
00000100
00001000
00010000
00100000
20000000
00000000
,
00000000
00000000
00000000
31000000
;

//---------------dance-double - NewbStepper-DDP----------------
#NOTES:
     dance-double:
     NewbStepper:
     Medium:
     12:
     0.454847,0.546342,0.175116,0.143277,0.119397,400,378,22,18,0,0,0.454847,0.546342,0.175116,0.143277,0.119397,400,378,22,18,0,0:
00000000
00000000
00000000
00000000
,
00000000
00000000
00000000
00000000
,
00000000
00000000
00000000
00000000
,
00000000
00000000
00000000
00000000
,
00000000
00000000
00000000
00000000
,
00100000
00000000
00000000
00100000
00000000
00000000
00010000
00000000
00001000
00000000
00000000
00000000
00000000
00000000
00000000
00000000
,
00000010
00000000
00000000
00000010
00000000
00000000
00001000
00000000
00010000
00000000
00000000
00000000
00000000
00000000
00000000
00000000
,
10100000
00000000
00000000
10100000
00000000
00000000
00000000
00000000
01010000
00000000
00000000
01010000
00000000
00000000
00000000
00000000
,
00200000
00000000
00000000
00300000
,
00001000
00000000
00010000
00000000
00001000
00000000
00000000
00000100
00000000
00000000
00000001
00000000
00000010
00000000
00000010
00000000
,
00000100
00000000
00000000
00010000
00000000
00000000
00001000
00000000
00000200
00000000
00000000
00000000
00000300
00000000
00000000
00000000
,
00001000
00010000
01000000
00000000
01000000
00010000
00001000
00000000
,
00100000
00000000
00000000
00100000
00000000
00000000
00010000
00000000
20000000
00000000
00000000
00000000
30000000
00000000
00000000
00000000
,
00100000
00000000
10000000
00000000
01000000
00000000
00000000
00010000
00000000
00000000
00001000
00000000
00010000
00000000
00010000
00000000
,
00100000
00000000
00000000
00010000
00000000
00000000
00001000
00000000
00000020
00000000
00000000
00000000
00000030
00000000
00000000
00000000
,
00000001
00000100
00000001
00000100
00001000
00010000
00001000
00010000
,
00001000
00010000
01000000
10000000
,
00010000
00010000
00100000
00100000
,
00001000
00001000
00000010
00000010
,
00000001
00000001
00000100
00000100
,
00001000
00001000
00001000
00000000
,
00010000
01000000
10000000
00000000
10000000
00100000
00010000
00000000
,
00001000
00000100
00000001
00000000
00000001
00000010
00001000
00000000
,
00010000
00001000
00100000
00001000
00010000
00000010
00010000
00000000
,
00002000
00000000
00000000
00003000
,
00001001
00001000
00000100
00000010
00000001
00000100
00001000
00000000
,
00010000
01000000
00100000
00010000
10000000
00100000
00010000
00000000
,
00001000
00010000
00000100
00001000
00010000
00001000
00000100
00000000
,
00000010
00000001
00000100
00001000
00010000
01000000
10000000
00000000
,
00100000
00000000
10000000
00000000
00100000
01000000
00000000
01000000
00000000
00000000
00000000
00000000
00010000
00000000
00100000
00000000
,
00010000
00001000
00000000
00001000
00000000
00000000
00000000
00000000
00000100
00000000
00000010
00000000
00000001
00000000
00000000
00000000
,
00000100
00000010
00001000
00000000
00001001
00000000
00000200
00000000
,
00000000
00000000
00000302
00000000
00000000
00000000
00001003
00000100
,
00000010
00001000
00020000
00000000
00030000
00000000
02000000
00000000
,
00000000
00000000
23000000
00000000
00000000
00000000
30010000
01000000
,
10000000
01000000
00010000
00000000
00000000
00000000
00100000
00010000
,
01000000
00100000
00010000
00001000
00100000
00010000
00001000
00000100
,
00000001
00000100
00000000
00001000
00000010
00000100
00000001
00000010
,
00001000
00000000
00010000
00000000
00100000
00000000
00000000
00010000
00000000
00000000
00001000
00000000
00000010
00000000
00000000
00001000
,
00000000
00010000
00001000
00000000
00011000
00000000
00000010
00001000
,
00000100
00000010
00001000
00010000
00000010
00001000
00010000
01000000
,
10000000
01000000
00000000
00010000
00100000
01000000
10000000
00100000
,
00010000
00001000
00000010
00001000
00010000
00001000
00000100
00000001
,
00000010
00000100
00001000
00000010
00000100
00000000
00000010
00000000
,
00000000
00000000
00000000
00000000
,
00000000
00000000
00000000
00000000
,
00000000
00000000
00000000
00000000
,
00000000
00000000
00000000
00000000
00000000
00000000
00010000
00001000
,
00010000
01000000
10000000
01000000
00100000
00010000
01000000
00100000
,
00010000
00001000
00000000
00001000
00010000
00001000
00000010
00000001
,
00000100
00000010
00001000
00010000
01000000
00100000
10000000
01000000
,
00100000
01000000
00010000
00001000
00010000
00000000
00001000
00000100
,
00000001
00000000
00000001
00000010
00001000
00000000
00010000
01000000
,
10000000
00000000
10000000
00100000
00010000
00000000
00001000
00010000
,
00000010
00010000
00001000
00100000
00001000
00000000
00020000
00000000
,
00000000
00000000
00000000
00000000
00030000
00000000
00010000
00001000
,
00010000
00000000
00000000
01000000
00000000
00000000
10000000
00000000
00100000
00000000
00100000
00000000
01000000
00000000
00000000
00001000
,
00000000
00010000
02000000
00000000
03000000
00000000
00010000
00001000
,
00000100
00000000
00000000
00000000
00000100
00000000
00001000
00000000
00010000
00000000
00000000
00000000
00000010
00000000
00000000
00000010
,
00000000
00001000
00000002
00000000
00000003
00000000
00000010
00000001
,
00000100
00000000
00000000
00001000
00000000
00000000
00010000
00000000
00001000
00000000
00001000
00000000
00000010
00000000
00000000
00001000
,
00000000
00010000
00200000
00000000
00300000
00000000
10000000
01000000
,
10000000
01000000
00010000
00001000
00010000
00001000
00010000
00000000
,
00001000
00000000
00000100
00000000
00000001
00000000
00001000
00000100
,
00000010
00000000
00000001
00000100
00001000
00000000
00010000
00000100
,
00001000
00000100
00010000
00001000
00100000
00000000
00010000
10000000
,
10000000
00000000
10000000
00000000
00000000
00000000
00010000
00000000
00100000
00000000
01000000
00000000
00010000
00000000
00000000
00001000
,
00000000
00000100
00000220
00000000
00000330
00000000
00001000
00010000
,
00001000
00000000
00000000
00000000
00100000
00000000
00010000
00000000
00001000
00000000
00000000
00000000
00010000
00000000
00000000
01000000
,
00000000
00100000
20000000
00000000
00000000
00000000
30100000
00000000
,
00011000
00000000
00000010
00000000
00011000
00000000
00010000
00001000
,
00001000
00000000
00100000
00000000
00001000
00000000
00001000
00000000
00010000
00000000
00000000
00000000
00001100
00000000
00000000
00001100
,
00000000
00000000
00000000
00000000
00000000
00000000
00000000
00000000
00000000
00000000
00000000
00000000
01010000
00000000
00000000
01010000
,
00000000
00000000
00000000
00000000
00000000
00000000
00000000
00000000
00000000
00000000
00000000
00000000
01100000
00000000
00000000
01100000
,
00000000
00000000
00000000
00000000
00000000
00000000
00000000
00000000
00000000
00000000
00000000
00000000
00000110
00000000
00000000
00000110
,
00000000
00000000
00000000
00000000
00000000
00000000
00000000
00000000
00000000
00000000
00000000
00000000
00000010
00000000
00000000
00000010
,
00000000
00000000
00001000
00000000
00010000
00000000
00000000
00000000
00000000
00000000
00000000
00000000
00100000
00000000
00000000
00100000
,
00000000
00000000
00010000
00000000
00001000
00000000
00000000
00000000
00000000
00000000
00000000
00000000
00000011
00000000
00000000
00000011
,
00000000
00000000
00000000
00000000
00001100
00000000
00000000
00001100
00000000
00000000
00000000
00000000
00001000
00000000
00000100
00000000
,
00000010
00000001
00000100
00000010
00001000
00000100
00020000
00000000
,
00000000
00000000
00000000
00031000
;

//---------------dance-double - NewbStepper-BDP----------------
#NOTES:
     dance-double:
     NewbStepper:
     Easy:
     6:
     0.260400,0.385653,0.087558,0.071638,0,229,218,11,9,0,0,0.260400,0.385653,0.087558,0.071638,0,229,218,11,9,0,0:
00000000
00000000
00000000
00000000
,
00000000
00000000
00000000
00000000
,
00000000
00000000
00000000
00000000
,
00000000
00000000
00000000
00000000
,
00000000
00000000
00000000
00000000
,
00000001
00000001
00000000
00000000
,
00001000
00001000
00000000
00000000
,
00000100
00000010
00000100
00000010
,
00001001
00000000
00000000
00000000
,
00000010
00001000
00000100
00000000
,
00000010
00000001
00000100
00000000
,
00001000
00001000
00010000
00010000
,
01000000
00100000
01000000
00000000
,
00100000
00010000
01000000
00000000
,
00100000
10000000
01000000
00000000
,
00010000
00001000
00010000
00000100
,
00000010
00000010
00000010
00000000
,
00000001
00000000
00000001
00000000
,
00000010
00000000
00000010
00000000
,
00000100
00000000
00000100
00000000
,
00001000
00000000
00001000
00000000
,
00010000
00010000
01000000
01000000
,
00100000
00100000
10000000
10000000
,
11000000
00000000
01010000
00000000
,
02200000
00000000
00000000
03300000
,
10000000
01000000
10000000
00010000
,
10000000
01000000
00010000
00001000
,
00000100
00000001
00000010
00000001
,
00001000
00000010
00000100
00000001
,
00000100
00001000
00011000
00010000
,
00001000
00011000
00010000
00100000
,
10000000
01000000
10010000
00100000
,
00000000
01000000
00000000
00010000
,
00001000
00000200
00000300
00000010
,
00000000
00000100
00000000
00001000
,
00010000
02000000
03000000
10000000
,
00100000
00010000
00001000
00000100
,
00000001
00000100
00001000
00010000
,
00100000
10000000
01000000
00010000
,
00010000
00010000
00000000
00000001
,
00000010
00001000
00010000
01000000
,
10000000
01000000
00010000
00001000
,
00000010
00000001
00000100
00001000
,
00001000
00001000
00000000
00000000
,
00000000
00000000
00000000
00000000
,
00000000
00000000
00000000
00000000
,
00000000
00000000
00000000
00000000
,
00000000
00000000
00000000
00010000
,
00001000
00010000
00001000
00010000
,
01000000
00010000
01000000
10000000
,
00100000
00010000
00100000
10000000
,
00000000
00010000
00000000
00001000
,
00001000
00000100
00000100
00000010
,
00000010
00000001
00000001
00000101
,
00000000
00001100
00000000
00000220
,
00000000
00000000
00000330
00000010
,
00001000
00000100
00000000
00000010
,
00000001
00000100
00000000
00001000
,
00001000
00010000
00010000
01000000
,
00100000
01000000
00000000
00100000
,
00010000
01000000
00000000
00100000
,
10000000
01000000
00000000
00010000
,
00010000
00001000
00001000
00000100
,
00000010
00000100
00000000
00000001
,
00000001
00000100
00000100
00001000
,
00001000
00010000
00010000
01000000
,
01000000
10000000
10000000
00100000
,
00100000
01000000
00000000
00010000
,
00010000
00100000
00100000
01000000
,
01000000
00010000
00010000
00001000
,
00001000
00000010
00000010
00000220
,
00000000
00000000
00000330
00000100
,
00000000
00000000
00000000
01000000
,
00000000
00000000
00000000
00000010
,
00000000
00000000
00000000
00100000
,
00000000
00000000
00000000
00000001
,
00000001
00000000
00000000
00001000
,
00001000
00000000
00000000
00000100
,
00000010
00000100
00000010
00000001
,
00000100
00000001
00000100
00002000
,
00000000
00000000
00000000
00013000
;
