#TITLE:雪月夜;
#ARTIST:Ryu*;
#TITLETRANSLIT:Yukizukiyo;
#BANNER:Yukizukiyo.png;
#BACKGROUND:Yukizukiyo-bg.png;
#MUSIC:Yukizukiyo.ogg;
#OFFSET:0.093;
#SAMPLESTART:85.068;
#SAMPLELENGTH:15;
#BPMS:0=155;

//---------------dance-single - Talkion-bSP----------------
#NOTES:
     dance-single:
     Talkion:
     Beginner:
     5:
     0.234652,0.348598,0.196394,0.124978,0,184,162,22,14,0,0,0.234652,0.348598,0.196394,0.124978,0,184,162,22,14,0,0:
0000
0000
0000
0000
,
0000
0000
0000
0000
,
0000
0000
0000
0000
,
0000
0000
0000
0000
,
0000
0000
0000
0000
,
0000
0000
0000
0000
,
0001
0000
0001
0000
,
1000
0000
1000
0000
,
0001
0000
0001
0000
,
1000
0000
1000
0000
,
0220
0000
0000
0330
,
0000
0001
0000
0001
,
0000
1000
0000
1000
,
0000
0010
0000
0010
,
0200
0000
0010
0300
,
0000
0010
0000
0010
,
0000
1000
0000
1000
,
0000
0001
0000
0001
,
0020
0100
0100
0030
,
0100
1000
0000
1000
,
0001
1000
0000
1000
,
0001
0100
0000
0100
,
0002
0010
0000
0013
,
0010
0100
0000
0100
,
1000
0100
0000
0100
,
0010
0001
0000
0001
,
2000
0001
0000
3001
,
0002
0000
0000
0000
,
0010
0000
0010
0003
,
2000
0000
0000
0000
,
0010
0000
0010
3000
,
0001
0000
0001
0001
,
0001
0000
1000
1000
,
1000
0000
0010
0010
,
0000
0110
0000
0110
,
2002
0000
0000
0000
,
0000
0000
0000
3003
,
0002
0000
0103
0000
,
0200
0000
0310
0000
,
0020
0000
1030
0000
,
2000
0000
3001
0000
,
0001
0000
1001
0000
,
1000
0000
1001
0000
,
0010
0000
0110
0000
,
0100
0000
0110
0000
,
0001
0001
0001
0000
,
1000
1000
1000
0000
,
0001
0001
0001
0000
,
1000
1000
1000
0000
,
0001
0100
0001
0000
,
1000
0100
1000
0000
,
0001
1000
0001
1000
,
0010
0100
0010
0100
,
0000
0110
0000
0110
,
1001
0000
0000
1001
,
0001
0010
0010
0000
,
0001
1000
1000
0000
,
1000
0010
0010
0010
,
1000
0001
0001
0000
,
0001
0100
0100
0000
,
0001
1000
1000
0000
,
1001
0000
1001
0000
,
0110
1001
0110
0000
,
1000
0100
0100
0000
,
0100
0010
0010
0000
,
0010
0010
0001
0001
,
1000
0001
1000
0000
,
0001
0100
0100
0000
,
0100
0010
0010
0000
,
0110
0000
0000
0000
,
1001
0110
1001
0000
,
1001
0000
0000
0000
;

//---------------dance-single - Talkion-BSP----------------
#NOTES:
     dance-single:
     Talkion:
     Easy:
     8:
     0.332849,0.443671,0.196394,0.312444,0,261,239,22,35,0,0,0.332849,0.443671,0.196394,0.312444,0,261,239,22,35,0,0:
0000
0000
0000
0000
,
0000
0000
0000
0000
,
0000
0000
0000
0000
,
0000
0000
0000
0000
,
0000
0000
0000
0000
,
0000
0000
0000
0000
,
0001
0001
0001
0000
,
1000
1000
1000
0000
,
0010
0010
0010
0000
,
0100
0100
0100
0000
,
2002
0000
3003
1001
,
0001
0010
0001
0010
,
0100
0000
0100
1000
0100
0000
1000
0000
,
0010
0100
0010
0100
,
0002
1000
1000
1003
,
0001
0100
0001
0100
,
0010
0000
0010
1000
0010
0000
1000
0000
,
0100
0010
0100
0010
,
0001
0000
0001
1000
0001
0000
1001
0000
,
2000
0010
0010
0010
,
3002
0010
0010
0010
,
2003
0100
0100
0100
,
3002
0100
0000
0100
,
2003
0010
0010
0001
,
3200
0010
0010
1000
,
0320
0001
0001
0100
,
0032
1000
0000
1003
,
0002
0000
0023
0230
,
2300
3002
0103
0110
,
2000
0000
3200
0320
,
0032
0203
0310
0110
,
1000
0100
1000
0100
,
0010
0001
0010
0001
,
1000
0001
1000
0001
,
0000
0100
0000
0010
0000
0100
0000
0010
,
0200
0000
0000
0000
,
0000
0000
0000
0300
,
0002
0000
0010
0003
,
2000
0000
0010
3000
,
0002
0000
0100
0003
,
2000
0000
0100
3000
,
0001
0100
0001
0000
,
1000
0100
1000
0000
,
0001
0010
0001
0000
,
1000
0010
0100
0110
,
0001
0001
0001
0000
,
1000
1000
1000
1001
,
0001
0001
0010
0000
,
0100
0100
1000
1001
,
0001
0000
0100
0001
0100
0000
0001
0000
,
1000
0000
0100
1000
0100
0000
1000
0000
,
0010
0000
0100
0100
0010
0000
1000
0000
,
0001
0000
0010
0010
0100
0000
0010
0000
,
0000
0001
0000
1000
0000
0001
0000
1000
,
0002
0000
0103
0110
,
1000
0000
0100
0010
0001
0000
0010
0000
,
0100
1000
0001
0100
,
0010
0000
1000
0001
0100
0000
0001
0000
,
1000
0100
0220
0330
,
0001
0000
1000
0010
0100
0000
0010
0000
,
1000
0100
0010
0001
,
1000
1010
0001
0011
,
0110
1001
0220
0330
,
1000
0000
0010
1000
0100
0000
0010
0000
,
0100
1000
0001
0100
,
1000
0000
0100
0000
0001
1000
0100
0000
,
0010
0001
2002
3003
,
0001
0000
0100
0001
0010
0000
0100
0000
,
1000
0001
0100
0010
,
0100
0101
0010
1010
,
1001
0110
2002
3003
,
1001
0000
0000
0000
;

//---------------dance-single - Talkion-DSP----------------
#NOTES:
     dance-single:
     Talkion:
     Medium:
     11:
     0.510113,0.633815,0.339225,0.214247,0.049098,400,362,38,24,0,0,0.510113,0.633815,0.339225,0.214247,0.049098,400,362,38,24,0,0:
0000
0000
0000
0000
,
0000
0000
0000
0000
,
0000
0000
0000
0000
,
0000
0000
0000
0000
,
0000
0000
0000
0000
,
0000
0000
0000
0000
,
1000
1000
1000
1000
,
0010
0010
0010
0010
,
0001
0001
0001
0001
,
0100
0100
0100
0100
,
2002
0000
3003
1001
,
0001
0100
0001
0000
0100
0010
0100
0000
,
0010
1000
0001
1000
0100
0010
0110
0000
,
0100
1000
0100
0000
1000
0001
1000
0000
,
0010
0100
0001
0100
0020
0000
1030
0000
,
0001
0010
0100
0000
0100
1000
0100
0000
,
1000
0001
1000
0001
0100
0010
0110
0000
,
0100
0001
1000
0000
1000
0001
1000
0000
,
0001
0100
0010
0010
0100
0100
0010
0000
,
1000
0020
0000
0001
0000
0001
0000
0031
,
0100
2000
0000
0010
0000
0010
0000
3010
,
1000
0200
0000
0001
0000
0001
0000
0301
,
0010
2000
0000
0001
0000
3001
1000
0000
,
0001
0020
0000
1000
0000
1000
0000
1030
,
0100
0002
0000
0010
0000
0010
0000
0013
,
0001
0200
0000
1000
0000
1000
0000
1300
,
0010
0002
0000
0100
0000
0103
1001
0000
,
2000
0000
0000
0000
3100
0010
0001
0010
,
0100
1000
0001
0100
0020
0000
0130
0000
,
0002
0000
0000
0000
0013
0100
1000
0001
,
0100
0000
0010
0000
0100
0000
0001
0000
1000
0000
0000
0110
0000
0000
0001
0000
,
1000
0010
1000
0000
1000
0100
0010
0001
,
0010
0100
1000
0000
1000
0001
0100
0001
,
0010
0100
0010
0001
1000
0010
0100
0010
,
0000
0101
0000
0101
0000
1100
0000
1100
,
0020
0000
0000
0000
,
0000
0000
0000
0030
,
0002
0000
0000
0000
0103
0010
1000
0000
,
2000
0000
0000
0000
3100
0010
0001
0000
,
0002
0000
0000
0000
0103
1000
0100
0000
,
0200
0000
0000
0000
0310
1000
0010
0000
,
0010
0000
1010
0000
1000
0001
1000
0000
,
0100
0000
0110
0000
0010
0001
0010
0000
,
0001
0000
0101
0000
0100
0010
0100
0000
,
0010
0000
0000
0000
1001
0000
0000
0000
0001
0000
0000
0110
0000
0000
1000
0000
,
0200
0010
0010
0010
,
1300
0001
0100
0110
,
1001
0001
0001
0001
,
0010
0000
0000
0000
0100
0000
0000
0000
1000
0000
0000
1001
0000
0000
0001
0000
,
0100
0010
1000
0000
1000
0010
0100
0001
,
1000
0100
0010
0000
0010
0100
1000
0001
,
0100
0010
1000
0100
0010
0001
0100
0010
,
0100
0001
0010
0100
1000
0001
0100
0010
,
0000
1010
0000
1010
0000
0011
0000
0011
,
1000
0010
1000
0010
0100
0000
1001
0000
,
0001
0010
0001
0010
0100
1000
0001
0100
,
0010
0100
0001
1000
0100
0010
0001
0000
,
0001
0010
0100
1000
0001
0100
0001
1000
,
0100
0000
0000
0010
0000
0000
0001
0000
1002
0000
0000
0000
0103
0000
0000
0000
,
0010
1000
0010
1000
0100
0010
0001
0100
,
0010
0100
0001
1000
0100
0010
0001
0000
,
0011
0000
0000
0011
0000
0000
1100
0000
0000
1100
0000
0000
1001
0000
0001
0000
,
0100
0000
0000
0010
0000
0000
1000
0000
2001
0000
0000
0000
3100
0000
0000
0000
,
0010
0001
0010
0001
0100
0001
0100
0010
,
0100
1000
0100
0010
1000
0001
1000
0000
,
1000
0100
1000
0100
0010
0001
0100
0010
,
1000
0000
0000
0001
0000
0000
0010
0000
0210
0000
0000
0000
1300
0000
0000
0000
,
0010
1000
0010
1000
0010
0100
0010
0001
,
0010
0100
0001
1000
0001
0010
0100
0000
,
1100
0000
0000
1100
0000
0000
0101
0000
0000
0101
0000
0000
0001
0000
0010
0000
,
0110
0000
0000
1100
0000
0000
1002
0000
0000
0000
0100
0000
0103
0000
0010
0000
,
1000
0000
0000
0000
;

//---------------dance-single - Talkion-ESP----------------
#NOTES:
     dance-single:
     Talkion:
     Hard:
     15:
     0.711608,0.855651,0.410641,0.223174,0.584717,558,512,46,25,0,0,0.711608,0.855651,0.410641,0.223174,0.584717,558,512,46,25,0,0:
0000
0000
0000
0000
,
0000
0000
0000
0000
,
0000
0000
0000
0000
,
0000
0000
0000
0000
,
0000
0000
0000
0000
,
0000
0000
0000
0000
,
0001
0001
0001
0001
,
0100
0100
0100
0100
,
1000
1000
1000
1000
,
0010
0010
1100
0101
,
2002
0000
3003
1001
,
0001
0000
0010
0001
0010
0000
0100
0000
1000
0000
0001
1000
0001
0000
0100
0000
,
0010
0000
1000
0100
0000
1000
0100
0000
0010
0000
0100
0000
1001
0000
0000
0000
,
1000
0000
0010
1000
0010
0000
0100
0000
0001
0000
1000
0001
1000
0000
0100
0000
,
0010
0000
0001
0100
0000
0001
0200
0000
0000
0000
0010
0000
0310
0000
0000
0000
,
1000
0000
0100
1000
0100
0000
0010
0000
0001
0000
0100
0010
0100
0000
0001
0000
,
1000
0000
0100
0010
0000
0100
0010
0000
0001
0000
1000
0000
0110
0000
0000
0000
,
0100
0000
0001
1000
0001
0000
0010
0000
0100
0000
1000
0010
1000
0000
0100
0000
,
0010
0000
0001
0000
1000
0001
1000
0001
0100
0000
0010
0000
1001
0000
0000
0000
,
1000
0000
0001
0000
1000
0010
1000
0000
1000
0100
0010
0000
0010
0001
0010
0000
,
0001
0000
1000
0000
0001
0100
0001
0000
0001
0010
0100
0000
0100
1000
0100
0000
,
0010
0000
0001
0000
0100
0010
0100
0000
0100
1000
0100
0000
0100
0001
0010
0000
,
0200
0010
0000
0010
0000
0010
0310
0000
,
0100
0000
1000
0000
0001
0100
0001
0000
0001
0100
0010
0000
0010
1000
0100
0000
,
0010
0000
0001
0000
1000
0010
1000
0000
1000
0100
0010
0000
0010
0001
0100
0000
,
0010
0000
0100
0000
0010
1000
0010
0000
0010
0001
0010
0000
0010
1000
0100
0000
,
0020
0100
0000
0100
0000
0130
1001
0000
,
0021
0000
0000
0000
1030
0010
0100
1000
,
0001
0100
1000
0100
0010
1000
1001
0000
,
1200
0000
0000
0000
0301
0100
0010
0001
,
1000
0000
0010
0000
0100
0000
0010
0000
1010
0000
0000
1100
0000
0000
0101
0000
,
0001
0000
0100
0000
0010
0000
0100
0000
0010
1000
0010
1000
0001
1000
0001
1000
,
0100
0000
0010
0000
0100
0000
0010
0000
0001
1000
0001
1000
0001
0100
0001
0100
,
0010
0000
0100
0001
0010
0000
0010
0001
0100
0000
0100
0010
1000
0000
1000
0001
,
0000
1001
0000
0011
0000
1010
0000
0110
,
2002
0000
0000
0000
,
0000
0000
0000
3003
,
0002
0000
0023
0000
1030
0010
0001
0100
,
2000
0000
3200
0000
0301
1000
0100
0001
,
2000
0000
3020
0000
0031
0100
1000
0001
,
0020
0000
2030
0000
3001
0010
0100
1000
,
0010
0000
1001
0000
0100
0001
0100
0010
,
1000
0000
0110
0000
0001
0010
0001
1000
,
0010
0000
1001
0000
0100
1000
0100
0010
,
0001
0000
0000
0000
0110
0000
0000
0000
1100
0000
0000
1010
0000
0000
0110
0000
,
1002
0100
0100
0100
,
0013
0010
0010
0101
,
1100
1000
1000
1000
,
1001
0000
0000
0000
0001
0000
0000
0000
0101
0000
0000
1010
0000
0000
1001
0000
,
1000
0000
0100
0000
0010
0100
0000
0100
0001
0000
0100
0000
0010
0001
0000
0001
,
0100
0000
0010
0000
0100
1000
0000
1000
0100
0000
0010
0000
1000
0001
0000
0001
,
1000
0000
0100
0010
0001
0000
0001
1000
0010
0000
0010
0100
0001
0000
0001
1000
,
0100
0010
0100
0010
0100
0010
0001
1000
0010
0100
0002
0000
0013
0100
2000
0000
,
3000
1100
0000
0101
0000
0011
0000
1010
,
1000
0100
0001
0010
1000
0000
1001
0000
,
0101
0000
0100
0000
0010
0100
0000
1000
0100
0000
0010
0000
0100
0001
0100
0000
,
0001
0000
0001
0010
0000
0010
0100
0000
1000
0000
1000
0010
0000
0010
0100
0001
,
0010
0000
0100
0000
0010
0100
0000
0010
0001
0000
1000
0000
0001
0100
0010
1000
,
0200
0000
0000
0001
0000
0000
0320
0000
0000
0000
0031
0000
1000
0100
0010
0001
,
0100
0000
0010
0000
0100
0010
0000
0001
0010
0000
0100
0000
0010
1000
0010
0000
,
1000
0000
1000
0100
0000
0100
0010
0000
0001
0100
0000
0100
0000
0010
0001
0010
,
0100
0000
0010
1000
0000
1000
0100
0000
0100
0010
0000
0010
0001
0000
0001
0100
,
0010
0000
0010
1000
0000
1000
0200
0000
0000
0000
0310
0000
0100
1000
0001
0100
,
0010
0000
0100
0000
0010
0001
0000
0010
0100
0000
1000
0000
0100
0010
0100
0000
,
0001
0000
0001
0010
0000
0010
0100
0000
1000
0000
1000
0010
0000
0010
0100
0001
,
0010
0000
0100
0000
0010
1000
0000
0010
0100
0000
0010
0000
0001
0010
0100
1000
,
0020
0000
0000
0001
0000
0000
0230
0000
0000
0000
0301
0000
1000
0010
0100
0001
,
0010
0000
0100
0000
0010
1000
0000
0010
0100
0000
0001
0000
1000
0010
1000
0000
,
0010
0000
0010
0100
0000
0100
1000
0000
0010
0100
0000
0100
0000
0001
1000
0100
,
0010
0000
0000
0011
0000
0000
0101
0000
0000
1100
0000
0000
1010
0000
0010
0000
,
1001
0000
0000
0101
0000
0000
0110
0000
0100
0010
0100
0010
1000
0100
0010
0001
,
0100
0000
0000
0000
;

//---------------dance-double - Talkion-BDP----------------
#NOTES:
     dance-double:
     Talkion:
     Easy:
     8:
     0.329023,0.411980,0.169613,0.312444,0,258,239,19,35,0,0,0.329023,0.411980,0.169613,0.312444,0,258,239,19,35,0,0:
00000000
00000000
00000000
00000000
,
00000000
00000000
00000000
00000000
,
00000000
00000000
00000000
00000000
,
00000000
00000000
00000000
00000000
,
00000000
00000000
00000000
00000000
,
00000000
00000000
00000000
00000000
,
00010000
00010000
00010000
00000000
,
00001000
00001000
00001000
00000000
,
00100000
00100000
00100000
00000000
,
00010000
00010000
00010000
00000000
,
20020000
00000000
30030000
10010000
,
10000000
00100000
10000000
00100000
,
01000000
00000000
01000000
00010000
01000000
00000000
00010000
00000000
,
00100000
00001000
00100000
00001000
,
00020000
00000100
00000100
00030100
,
00001000
00000001
00001000
00000001
,
00000100
00000000
00000100
00000001
00000100
00000000
00000010
00000000
,
00001000
00000100
00001000
00000100
,
00010000
00000000
00010000
00001000
00010000
00000000
00011000
00000000
,
00002000
01000000
01000000
01000000
,
02003000
00100000
00100000
00100000
,
03200000
10000000
10000000
10000000
,
20300000
01000000
00000000
01000000
,
30020000
00100000
00100000
00100000
,
00230000
00001000
00001000
00001000
,
00302000
00010000
00010000
00010000
,
00023000
00000100
00000000
00030100
,
00002000
00000000
00003200
00000320
,
00000032
00000203
00000310
00000110
,
00000200
00000000
00000320
00002030
,
00003200
00020300
00031000
00011000
,
00010000
01000000
00010000
01000000
,
10000000
00010000
10000000
00010000
,
01000000
00001000
01000000
00001000
,
00000000
00010000
00000000
00000100
00000000
00010000
00000000
00000100
,
00002000
00000000
00000000
00000000
,
00000000
00000000
00000000
00003000
,
00000002
00000000
00000100
00000003
,
00000200
00000000
00001000
00000300
,
00002000
00000000
00010000
00003000
,
00020000
00000000
01000000
00030000
,
01000000
10000000
01000000
00000000
,
10000000
00010000
10000000
00000000
,
00010000
01000000
00010000
00000000
,
00001000
00010000
00001000
00000100
,
00000010
00000010
00000010
00000000
,
00000001
00000001
00000001
00000101
,
00000100
00000100
00000100
00000000
,
00000010
00000010
00000010
00001010
,
00001000
00000000
00001000
00000100
00010000
00000000
00001000
00000000
,
01000000
00000000
00001000
01000000
00010000
00000000
01000000
00000000
,
00100000
00000000
10000000
00010000
00100000
00000000
01000000
00000000
,
00100000
00000000
00010000
00001000
00010000
00000000
00100000
00000000
,
00000000
00001000
00000000
00010000
00000000
00001000
00000000
00010000
,
00000200
00000000
00001300
00001001
,
00000001
00000000
00000100
00000010
00001000
00000000
00000100
00000000
,
00010000
00001000
00100000
00010000
,
10000000
00000000
00100000
01000000
00010000
00000000
01000000
00000000
,
00100000
10000000
20020000
30030000
,
00010000
00000000
01000000
00001000
00010000
00000000
00001000
00000000
,
00010000
00000100
00001000
00000100
,
00000010
00000011
00000001
00001001
,
00001000
00001010
00000220
00000330
,
00000100
00000000
00000010
00001000
00000100
00000000
00010000
00000000
,
00001000
01000000
00010000
10000000
,
01000000
00000000
00100000
00010000
01000000
00000000
00100000
00000000
,
01000000
00010000
20020000
30030000
,
10000000
00000000
01000000
00100000
00010000
00000000
00100000
00000000
,
00001000
00000100
00001000
00010000
,
00000100
00001100
00001000
00001001
,
00000001
00000101
00000220
00000330
,
00001001
00000000
00000000
00000000
;

//---------------dance-double - Talkion-DDP----------------
#NOTES:
     dance-double:
     Talkion:
     Medium:
     12:
     0.498635,0.570434,0.276736,0.330298,0.049098,391,360,31,37,0,0,0.498635,0.570434,0.276736,0.330298,0.049098,391,360,31,37,0,0:
00000000
00000000
00000000
00000000
,
00000000
00000000
00000000
00000000
,
00000000
00000000
00000000
00000000
,
00000000
00000000
00000000
00000000
,
00000000
00000000
00000000
00000000
,
00000000
00000000
00000000
00000000
,
00000001
00000001
00000001
00000001
,
00000010
00000010
00000010
00000010
,
00000100
00000100
00000100
00000100
,
00001000
00001000
00001000
00001000
,
00020000
00000000
00030000
01010000
,
01000000
00100000
01000000
00000000
00100000
10000000
00100000
00000000
,
10000000
01000000
10000000
01000000
00100000
00010000
00100000
00000000
,
00001000
00010000
00001000
00000000
00010000
00000100
00010000
00000000
,
00000100
00001000
00000001
00001000
00000020
00000000
00000130
00000000
,
00000001
00000100
00000001
00000000
00000100
00000010
00000100
00000000
,
00000010
00001000
00000010
00001000
00000100
00010000
00000100
00000000
,
00010000
00001000
00010000
00000000
00001000
01000000
00001000
00000000
,
01000000
01000000
00100000
00100000
10000000
00000000
00110000
00000000
,
00010000
00002000
00000000
00000100
00000000
00000100
00000000
00003100
,
00000010
00000002
00000000
00000100
00000000
00000100
00000000
00000103
,
00001000
00020000
00000000
01000000
00000000
01000000
00000000
01030000
,
10000000
00200000
00000000
01000000
00000000
01300000
00100000
00000000
,
10000000
02000000
00000000
00010000
00000000
00010000
00000000
03010000
,
00001000
00000200
00000000
00000001
00000000
00000001
00000000
00000301
,
00000010
00002000
00000000
00010000
00000000
00010000
00000000
00013000
,
00001000
00200000
00000000
00010000
00000000
00310000
10000000
00000000
,
00200000
00000000
00000000
00000000
01300000
00010000
00100000
00001000
,
00010000
00000100
00001000
00000100
00000020
00000000
00000031
00000000
,
00000200
00000000
00000000
00000000
00000310
00001000
00000100
00010000
,
00001000
00000000
00100000
00000000
00010000
00000000
01000000
00000000
00100000
00000000
00000000
10010000
00000000
00000000
10000000
00000000
,
01000000
00100000
01000000
00000000
00100000
00010000
00100000
00001000
,
00010000
00000100
00010000
00000000
00000100
00001000
00000001
00000100
,
00000010
00000100
00000010
00001000
00000100
00010000
00001000
00100000
,
00000000
01100000
00000000
11000000
00000000
10010000
00000000
01010000
,
00020000
00000000
00000000
00000000
,
00000000
00000000
00000000
00030000
,
00002000
00003200
00000302
00000203
,
00002300
00023000
02030000
03020000
,
00032000
00023000
00230000
02300000
,
03200000
00320000
20030000
30200000
,
01300000
00000000
01100000
00000000
00100000
10000000
00010000
00000000
,
00100000
00000000
00101000
00000000
00001000
00010000
00000100
00000000
,
00001000
00000000
00001001
00000000
00000001
00000010
00000100
00000000
,
00001000
00000000
00000000
00000000
00011000
00000000
00000000
00000000
00010000
00000000
00000000
01100000
00000000
00000000
10000000
00000000
,
02000000
00100000
00100000
00100000
,
03010000
00001000
00010000
00010100
,
00000200
00000010
00000010
00000010
,
00000301
00000000
00000000
00000000
00000100
00000000
00000000
00000000
00001000
00000000
00000000
00011000
00000000
00000000
00010000
00000000
,
01000000
00100000
01000000
00000000
00100000
10000000
01000000
00100000
,
00010000
00100000
00001000
00000000
00010000
00000100
00001000
00000001
,
00000100
00000010
00000100
00000010
00001000
00000100
00010000
00001000
,
01000000
00010000
01000000
00100000
10000000
01000000
00100000
00010000
,
00000000
00011000
00000000
00001100
00000000
00000110
00000000
00000011
,
00000001
00001000
00000001
00001000
00000010
00000000
00000110
00000000
,
00000100
00001000
00010000
00001000
00010000
01000000
00100000
00010000
,
10000000
00100000
01000000
00100000
10000000
01000000
00100000
00000000
,
00100000
00010000
00001000
00010000
00001000
00000100
00000010
00000001
,
00001000
00000000
00000000
00001010
00000000
00000000
00000010
00000000
00000200
00000000
00000000
00000000
00000301
00000000
00000000
00000000
,
00000010
00000100
00000010
00000100
00001000
00010000
00001000
00010000
,
01000000
00001000
00010000
01000000
00010000
00001000
01000000
00000000
,
01100000
00000000
00000000
01100000
00000000
00000000
10100000
00000000
00000000
10100000
00000000
00000000
10000000
00000000
01000000
00000000
,
00100000
00000000
00000000
00010000
00000000
00000000
10000000
00000000
20020000
00000000
00000000
00000000
30030000
00000000
00000000
00000000
,
00010000
01000000
00010000
00001000
00010000
00001000
00000100
00000010
,
00000001
00001000
00000001
00001000
00000010
00000100
00001000
00000000
,
00001000
00010000
00001000
00010000
01000000
00100000
00010000
10000000
,
00100000
00000000
00000000
10100000
00000000
00000000
10000000
00000000
02000000
00000000
00000000
00000000
03100000
00000000
00000000
00000000
,
00010000
00100000
00010000
00001000
00010000
00001000
00000010
00000100
,
00001000
00010000
00001000
00000100
00000010
00001000
00000100
00000000
,
00000110
00000000
00000000
00000110
00000000
00000000
00000011
00000000
00000000
00000011
00000000
00000000
00000001
00000000
00000100
00000000
,
00000010
00000000
00000000
00001010
00000000
00000000
00002000
00000000
00000000
00000000
00010000
00000000
00013000
00000000
01000000
00000000
,
00010000
00000000
00000000
00000000
;

//---------------dance-double - Talkion-EDP----------------
#NOTES:
     dance-double:
     Talkion:
     Hard:
     15:
     0.668248,0.855651,0.437422,0.348152,0.486520,524,475,49,39,0,0,0.668248,0.855651,0.437422,0.348152,0.486520,524,475,49,39,0,0:
// measure 0
00000000
00000000
00000000
00000000
,  // measure 1
00000000
00000000
00000000
00000000
,  // measure 2
00000000
00000000
00000000
00000000
,  // measure 3
00000000
00000000
00000000
00000000
,  // measure 4
00000000
00000000
00000000
00000000
,  // measure 5
00000000
00000000
00000000
00000000
,  // measure 6
10000000
01000000
00100000
00010000
,  // measure 7
00001000
00000100
00000010
00000001
,  // measure 8
00000010
00000100
00001000
00010000
,  // measure 9
00100000
01000000
10000000
00010000
,  // measure 10
20020000
00000000
30030000
10010000
,  // measure 11
10000000
00000000
00100000
01000000
00100000
00000000
10000000
00000000
01000000
00000000
00010000
00001000
00010000
00000000
01000000
00000000
,  // measure 12
00100000
00000000
00001000
00010000
00000000
00010000
00001000
00000000
00000100
00000000
00000010
00000000
00000110
00000000
00000000
00000000
,  // measure 13
00000001
00000000
00000010
00000100
00000010
00000000
00000001
00000000
00000100
00000000
00001000
00010000
00001000
00000000
00000100
00000000
,  // measure 14
00000010
00000000
00010000
00001000
00000000
00001000
00020000
00000000
00000000
00000000
00001000
00000000
00031000
00000000
00000000
00000000
,  // measure 15
00100000
00000000
00010000
01000000
00010000
00000000
00100000
00000000
00001000
00000000
00010000
00100000
00010000
00000000
00001000
00000000
,  // measure 16
00000010
00000000
00000100
00001000
00000000
00001000
00000100
00000000
00010000
00000000
00001000
00000000
00011000
00000000
00000000
00000000
,  // measure 17
00000010
00000000
00001000
00000100
00001000
00000000
00000010
00000000
00001000
00000000
00010000
00100000
00010000
00000000
00001000
00000000
,  // measure 18
00000100
00000000
00000010
00000000
00000001
00001000
00000001
00001000
00000001
00000000
00000100
00000000
00000110
00000000
00000000
00000000
,  // measure 19
00000001
00000000
00001000
00000000
00000001
00000100
00002000
00000000
00000000
00000000
00013000
00000000
01000000
00000000
10000000
00000000
,  // measure 20
00010000
00000000
10000000
00000000
00100000
00010000
00002000
00000000
00000000
00000000
00103000
00000000
00010000
00000000
00001000
00000000
,  // measure 21
00000100
00000000
00000001
00000000
00001000
00000010
00000002
00000000
00000000
00000000
00001003
00000000
00000010
00000000
00000001
00000000
,  // measure 22
00000020
00002030
00000000
00023000
00000000
00130000
01100000
00000000
,  // measure 23
10000000
00000000
00010000
00000000
10000000
00100000
00020000
00000000
00000000
00000000
00031000
00000000
00000010
00000000
00000001
00000000
,  // measure 24
00001000
00000000
00000001
00000000
00000100
00001000
00020000
00000000
00000000
00000000
00030100
00000000
00001000
00000000
00010000
00000000
,  // measure 25
00100000
00000000
10000000
00000000
00010000
01000000
20000000
00000000
00000000
00000000
30010000
00000000
01000000
00000000
10000000
00000000
,  // measure 26
02000000
03020000
00000000
00032000
00000000
00003100
00000110
00000000
,  // measure 27
00001002
00000000
00000000
00000000
00000013
00001000
00100000
00001000
,  // measure 28
00000010
00000100
00001000
00010000
00100000
01000000
10000000
00000000
,  // measure 29
20010000
00000000
00000000
00000000
31000000
00010000
00000100
00010000
,  // measure 30
01000000
00000000
00100000
00000000
00010000
00000000
00001000
00000000
00000100
00000000
00000000
00000110
00000000
00000000
00000011
00000000
,  // measure 31
00000001
00000000
00001000
00000000
00000001
00000000
00001000
00000000
00000010
00001000
00000010
00001000
00000100
00010000
00000100
00010000
,  // measure 32
00001000
00000000
00010000
00000000
00001000
00000000
00010000
00000000
00001000
00100000
00001000
00100000
00010000
01000000
00010000
01000000
,  // measure 33
00100000
00000000
10000000
01000000
00100000
00000000
00100000
00001000
00010000
00000000
00010000
00000100
00001000
00000000
00001000
00000001
,  // measure 34
00000000
00001001
00000000
00001100
00000000
00110000
00000000
10010000
,  // measure 35
20020000
00000000
00000000
00000000
,  // measure 36
00000000
00000000
00000000
30030000
,  // measure 37
20000000
00000000
30020000
00000000
00031000
00000100
00000010
00000000
,  // measure 38
00000002
00000000
00002003
00000000
00013000
01000000
00100000
00000000
,  // measure 39
20000000
00000000
30020000
00000000
00031000
00000100
00000010
00000000
,  // measure 40
00000002
00000000
00002003
00000000
00013000
01000000
00100000
10000000
,  // measure 41
01000000
00000000
01100000
00000000
10000000
00100000
00001000
00000010
,  // measure 42
00000001
00000000
00000110
00000000
00000001
00000100
00010000
01000000
,  // measure 43
10000000
00000000
01100000
00000000
10000000
00100000
00001000
00000010
,  // measure 44
00020000
00000000
00000000
00000000
00031000
00000000
00000000
00000000
00011000
00000000
00000000
01100000
00000000
00000000
10010000
00000000
,  // measure 45
20010000
00100000
00100000
00100000
,  // measure 46
31000000
00100000
00010000
00101000
,  // measure 47
00010200
00000010
00000010
00000010
,  // measure 48
00001300
00000000
00000000
00000000
00000100
00000000
00000000
00000000
00011000
00000000
00000000
00101000
00000000
00000000
00110000
00000000
,  // measure 49
00010000
00000000
10000000
00000000
00010000
10000000
00000000
10000000
00100000
00000000
00010000
00000000
00001000
00010000
00000000
00010000
,  // measure 50
00001000
00000000
00000010
00000000
00000001
00001000
00000000
00001000
00000010
00000000
00000001
00000000
00000010
00000100
00000000
00000100
,  // measure 51
00000010
00000000
00001000
00000100
00000010
00000000
00000010
00001000
00010000
00000000
00010000
00001000
00100000
00000000
00100000
00010000
,  // measure 52
10000000
00100000
10000000
00100000
10000000
00100000
10000000
00100000
01000000
00010000
00200000
00000000
00301000
00010000
00002000
00000000
,  // measure 53
00003000
00000110
00000000
00011000
00000000
01100000
00000000
10010000
,  // measure 54
10000000
00010000
00001000
00000001
00000010
00000000
00000110
00000000
,  // measure 55
00000001
00000000
00000010
00000000
00001000
00010000
00000000
00001000
00010000
00000000
00100000
00000000
01000000
00100000
01000000
00000000
,  // measure 56
00010000
00000000
00010000
10000000
00000000
10000000
01000000
00000000
00010000
00000000
00010000
00001000
00000000
00001000
00100000
00010000
,  // measure 57
00100000
00000000
00010000
00000000
00001000
00000100
00000000
00001000
00000100
00000000
00000010
00000000
00000100
00000010
00000100
00000010
,  // measure 58
00002000
00000000
00000000
00023000
00000000
00000000
02030000
00000000
00000000
00000000
03100000
00000000
01100000
00000000
00000000
00000000
,  // measure 59
10000000
00000000
01000000
00000000
00010000
00001000
00000000
00010000
00001000
00000000
00000100
00000000
00000010
00000100
00000010
00000000
,  // measure 60
00001000
00000000
00001000
00000001
00000000
00000001
00000010
00000000
00001000
00010000
00000000
00010000
00000000
00000100
00001000
00000100
,  // measure 61
00000010
00000000
00000000
00000011
00000000
00000000
00001100
00000000
00000000
00110000
00000000
00000000
11000000
00000000
10000000
00000000
,  // measure 62
10010000
00000000
00000000
00101000
00000000
00000000
00010200
00000000
00000000
00000000
00001000
00000000
00001300
00000000
00000000
00000000
,  // measure 63
00000001
00000000
00000100
00000000
00001000
00010000
00000000
00001000
00010000
00000000
00001000
00000000
00000010
00000100
00000010
00000000
,  // measure 64
00001000
00000000
00001000
00010000
00000000
00010000
00100000
00000000
10000000
00000000
10000000
00100000
00000000
00100000
00010000
00001000
,  // measure 65
00010000
00000000
00001000
00000000
00010000
01000000
00000000
01000000
00100000
00000000
00010000
00000000
00100000
00001000
00100000
00001000
,  // measure 66
00020000
00000000
00000000
00030020
00000000
00000000
00000230
00000000
00000000
00000000
00001300
00000000
00011000
00000000
00000000
00000000
,  // measure 67
00010000
00000000
01000000
00000000
00100000
00010000
00000000
00010000
01000000
00000000
00100000
00000000
00010000
00001000
00010000
00000000
,  // measure 68
00001000
00000000
00001000
00000010
00000000
00000010
00000100
00000000
00001000
00010000
00000000
00010000
00000000
00001000
00000100
00000010
,  // measure 69
00000001
00000000
00000000
00000110
00000000
00000000
00011000
00000000
00000000
01100000
00000000
00000000
10010000
00000000
00010000
00000000
,  // measure 70
01010000
00000000
00000000
00101000
00000000
00000000
00011000
00000000
00010000
00000100
00010000
00000100
00010000
00000100
00001000
00000010
,  // measure 71
00000100
00000000
00000000
00000000
;
