#TITLE:Your Angel (2019 Remake for UltraGamers);
#ARTIST:DM Ashura feat. kors k;
#BANNER:Your Angel (2019 Remake for UltraGamers).png;
#BACKGROUND:Your Angel (2019 Remake for UltraGamers)-bg.png;
#MUSIC:Your Angel (2019 Remake for UltraGamers).ogg;
#OFFSET:-0.002571;
#SAMPLESTART:94.630424;
#SAMPLELENGTH:15;
#BPMS:0=175;
#STOPS:274=0.343;
#BGCHANGES:;

//---------------dance-single - NewbStepper-ESP----------------
#NOTES:
     dance-single:
     NewbStepper:
     Hard:
     16:
     0.634674,1.177712,0.156722,0.183978,0.456537,652,629,23,27,0,0,0.634674,1.177712,0.156722,0.183978,0.456537,652,629,23,27,0,0:
0000
0000
0000
0000
,
0000
0000
0000
0000
,
0000
0000
0000
0000
,
0000
0000
0000
0000
,
0000
0000
0000
0000
,
0000
0000
0000
0000
,
0000
0000
0000
0000
,
0000
0000
0000
0000
,
0000
0000
0000
0000
,
0000
0000
0000
0000
,
0000
0000
0000
0000
,
0000
0000
0000
0000
,
0000
0000
0000
0000
,
0000
0000
0000
0000
,
0000
0000
0000
0000
,
0000
0000
0000
0000
,
0000
0000
0000
0000
,
0020
0000
1000
2030
0000
0000
0000
0001
,
3002
0000
0000
1003
0000
0000
0000
0001
,
0010
0000
0100
1000
0000
1010
0000
0102
,
0000
1000
0010
0100
,
0023
0000
0000
0000
,
0000
0000
0000
0000
0000
0030
0010
0200
,
0000
0000
1000
2300
0000
0000
0001
3001
,
0000
1100
0000
0101
0000
0000
0000
0000
,
2000
0000
0010
3020
0000
0000
0000
0100
,
0230
0000
0001
0301
0000
0000
0000
0010
,
0001
0000
1000
0100
0000
0011
0000
2100
,
0000
0001
0010
0100
,
3020
0000
0000
0000
,
0000
0030
1000
0100
,
0020
0000
0000
0000
,
0000
0030
0010
0000
0001
0000
1000
0000
,
0010
1000
0100
0000
0010
0001
0100
1000
,
0000
0100
0001
0010
0000
1000
0010
0001
,
0100
0000
0010
1000
0001
0010
0001
2000
,
0000
0000
0000
0000
0000
3000
0001
0100
,
0010
0000
1000
0100
0000
1100
0000
0101
,
0000
0010
0001
1000
0000
0010
1000
0100
,
0010
0000
0001
0100
1000
0100
0001
0020
,
0000
0031
0100
0010
1000
0100
0100
0000
,
1001
0000
0000
0000
0010
0000
1000
0000
0100
0010
0100
0000
1000
0000
0001
0000
,
1001
0000
0000
0000
0010
0000
0001
0000
0100
0010
0100
0000
0001
0000
1000
0000
,
1001
0001
0100
0010
2000
0000
0000
0000
,
3000
0001
0100
1000
0001
0010
1000
0100
,
0010
0001
0100
0020
0000
1030
0001
1000
,
0010
1000
0100
0010
0001
0100
1000
0100
,
0002
0000
0000
0000
0000
1003
0010
1000
,
0001
0100
0010
2000
0000
0000
0000
0000
,
3001
0010
1000
0001
0100
1000
0010
0100
,
0001
0010
0100
1000
0010
0001
0010
1000
,
0001
0100
0001
0100
0001
0100
0001
0100
0010
1000
0010
1000
0010
1000
0010
1000
,
0001
0100
0010
1000
0001
0100
0010
1000
0001
0010
0100
1000
0001
0010
0100
1000
,
0001
0001
0100
0100
,
0010
0000
0010
0000
1000
0000
1000
0001
,
0100
0100
0010
0010
,
1000
0000
1000
0000
0001
0000
0001
0100
,
0010
0010
1000
1000
,
0001
0000
0001
0000
0100
0000
0100
0010
,
1000
1000
0001
0001
,
0100
0000
0100
0000
0010
0000
0010
1000
,
0001
0000
0100
0000
0010
1000
0010
0000
0100
0000
0010
1000
0010
0000
0000
0000
,
1000
0000
0100
0000
0010
0001
0010
0000
0100
0000
0010
0001
0010
0000
0000
0000
,
0001
0000
1000
0000
0010
0100
0010
0000
1000
0000
0001
0010
0001
0010
0001
0010
,
0001
0000
1000
0000
0010
0100
0010
0000
1000
0000
0001
0100
0001
0100
0001
0100
,
0001
0000
0100
0000
0010
1000
0010
0000
1000
0000
0100
0000
0010
0001
0010
0000
,
0001
0000
1000
0000
0010
0100
0010
0000
1000
0000
0001
0000
0010
0100
0010
0000
,
0001
0100
0010
0100
0001
0100
0010
0100
0001
0100
0010
1000
0010
0100
0010
1000
,
0010
0000
0100
0000
0010
0000
1000
0000
0100
0000
0010
0000
0001
0000
0100
0000
0020
0030
0000
0000
0000
0000
0000
0000
1000
0000
0000
0000
0001
0000
0000
0000
,
1000
0010
1000
0000
0001
0000
0010
0000
0100
0000
1000
0000
0010
0100
0010
0000
,
1000
0000
0001
0000
0100
0001
0100
0000
0010
1000
0010
1000
0001
0000
1000
0000
,
0001
0010
0001
0000
1000
0000
0010
0000
0100
0000
0001
0000
0010
0100
0010
0000
,
0001
0000
1000
0000
0100
1000
0100
0000
0010
0001
0010
0001
1000
0000
0001
0100
,
0001
0000
1000
0000
0001
0100
0001
0000
0010
0000
0001
0000
0100
0010
0100
0000
,
0001
0000
1000
0100
1000
0000
0001
0100
0010
0100
0001
0100
0010
0000
1000
0100
,
1000
0000
0001
0000
1000
0100
1000
0000
0010
0000
1000
0000
0100
0010
0100
0000
,
1000
0000
0001
0100
0001
0000
1000
0100
0010
0100
1000
0100
0010
0000
0001
0000
,
1001
1000
0010
1010
1000
0010
0110
0100
,
0001
0010
1000
0010
0001
0100
0110
1000
,
1001
0001
0010
0011
0001
0010
0110
0100
,
1000
0010
0001
0010
1000
0100
0110
0001
,
1001
1000
0100
1100
1000
0001
0101
0100
,
1000
0100
0001
0010
1000
0001
0100
1000
,
1001
0000
0001
0000
0100
0010
0100
0000
0001
0000
1000
0000
0100
0010
0100
0000
,
1000
0010
1000
0010
1000
0010
1000
0010
0100
0001
0100
0001
0100
0010
0100
0000
,
0001
0100
0001
0000
1000
0100
1000
0000
0001
0010
0001
0000
1000
0010
1000
0000
,
0100
0010
0100
0000
1000
0010
1000
0000
0001
0010
0001
0000
1000
0100
0010
0000
,
0100
0010
0001
0000
0100
0010
1000
0000
0001
0010
0100
0000
1000
0010
0100
0000
,
0001
1000
0100
0000
1000
0001
0100
0000
0001
1000
0100
0000
0010
0001
0010
0000
,
0100
1000
0100
0000
0010
0001
1000
0000
0010
1000
0001
0000
0010
0001
0100
0000
,
0010
1000
0100
0000
0010
0001
0010
0001
0010
0001
1000
0000
0010
1000
0010
1000
,
0010
1000
0001
0000
1000
0100
1000
0100
1000
0100
0010
0000
0001
0100
0001
0100
,
0001
0100
0010
1000
0001
0010
0100
1000
0001
0100
0020
0000
0000
0000
0000
0000
,
0000
0000
1000
0230
,
0000
0000
0001
0320
,
0000
0000
0001
2030
,
0000
0000
0100
0002
,
0000
0000
0000
0000
0000
0000
0000
0000
3003
0000
0000
0000
1000
0010
0100
0000
,
0001
0010
0100
0000
1000
0100
0010
0000
0001
0100
0010
0000
1000
0001
0010
0000
,
0001
1000
0010
0000
1000
0010
0100
0001
1000
0100
0010
0001
1000
0010
0100
0001
,
0010
0100
1000
0010
0100
0001
1000
0100
0010
0001
0100
0010
2000
0000
0000
0000
,
0002
0000
0000
0000
,
0000
0000
0000
0000
,
0000
0000
0000
0000
,
0000
0000
0000
3003
;

//---------------dance-single - NewbStepper-DSP----------------
#NOTES:
     dance-single:
     NewbStepper:
     Medium:
     12:
     0.422467,0.606700,0.068140,0.136280,0,434,424,10,20,0,0,0.422467,0.606700,0.068140,0.136280,0,434,424,10,20,0,0:
0000
0000
0000
0000
,
0000
0000
0000
0000
,
0000
0000
0000
0000
,
0000
0000
0000
0000
,
0000
0000
0000
0000
,
0000
0000
0000
0000
,
0000
0000
0000
0000
,
0000
0000
0000
0000
,
0000
0000
0000
0000
,
0000
0000
0000
0000
,
0000
0000
0000
0000
,
0000
0000
0000
0000
,
0000
0000
0000
0000
,
0000
0000
0000
0000
,
0000
0000
0000
0000
,
0000
0000
0000
0000
,
0000
0000
0000
0000
,
1000
0000
0000
0100
0000
0000
0000
0000
,
0001
0000
0000
0100
0000
0000
0000
0000
,
0010
0000
0000
1000
0000
0001
0000
1000
,
0000
0010
0100
0010
,
0200
0000
0000
0300
,
0000
0000
0000
0000
0000
0000
0000
0001
,
0000
0000
0000
1000
0000
0000
0000
0100
,
0000
0010
0000
0100
0000
0000
0000
0000
,
1000
0000
0000
1100
0000
0000
0000
0000
,
0001
0000
0000
0101
0000
0000
0000
0000
,
1000
0000
0000
0010
0000
0100
0000
0001
,
0000
1000
0010
0100
,
0020
0000
0000
0030
,
0000
0000
1000
0001
,
0100
0000
0000
0000
,
0000
0001
0010
0100
,
1000
0000
0010
0000
1000
0100
1000
0001
,
0000
0010
0000
0001
0000
0100
0010
1000
,
0002
0000
0000
0103
0000
0010
0000
2000
,
0000
0000
0000
0000
0000
3000
0010
0100
,
0001
0000
1000
0001
0000
0100
0000
0010
,
0000
1000
0010
0100
0000
1000
0100
0001
,
0020
0000
0030
0001
0100
0001
1000
0100
,
0000
0010
0001
0200
0000
0000
0300
0000
,
0010
1000
0010
0100
0001
0010
0100
1000
,
0001
0000
0010
0001
1000
0010
1000
0001
,
0000
1000
0010
0200
0000
0000
0000
0300
,
0000
0001
0010
0100
1000
0010
0100
0001
,
1000
0001
0100
1000
0000
1000
0100
0001
,
0010
0001
0100
0010
1000
0100
0001
0100
,
2000
0000
0000
0000
3000
0001
0100
0001
,
1000
0010
0100
0002
0000
0000
0000
0003
,
0000
0010
0100
1000
0010
0100
0001
0020
,
0000
0000
0000
0000
0000
0030
0000
0000
,
0001
0100
0001
0100
0010
1000
0010
1000
,
0100
0001
0100
1000
0010
0001
0010
1000
,
0001
0001
0001
0001
,
0001
0000
0001
0000
0001
0000
0001
1000
,
1000
1000
1000
1000
,
1000
0000
1000
0000
1000
0000
1000
0010
,
0010
0010
0010
0010
,
0010
0000
0010
0000
0010
0000
0010
0100
,
0100
0100
0100
0100
,
0100
0000
0100
0000
0100
0000
0100
0001
,
1001
0000
1000
0010
0000
0010
0100
0000
,
1001
0000
0001
0010
0000
0010
0100
0000
,
1001
0000
1000
0100
0000
0100
0010
0000
,
1001
0000
0001
0100
0000
0100
0010
0000
,
1001
0000
1000
0010
1010
0000
0001
0010
,
0011
0000
1000
0100
1100
0000
0001
0100
,
0001
1000
0100
0001
0100
1000
0010
0001
,
0010
0000
0000
0000
0000
0000
0000
0000
1000
0000
0000
0000
0000
0000
0000
0000
0100
0000
0000
0000
0000
0000
0000
0000
0010
0000
0000
0000
0000
0000
0000
0000
0002
0003
0000
0000
0000
0000
0000
0000
0000
0000
0000
0000
0000
0000
0000
0000
1000
0000
0000
0000
0000
0000
0000
0000
0000
0000
0000
0000
0000
0000
0000
0000
,
0010
1000
0000
0100
0010
0000
0001
0100
,
0010
1000
0100
0001
0100
1000
0001
0000
,
0010
0001
0000
0100
0010
0000
1000
0100
,
0010
0001
0100
1000
0100
0001
1000
0000
,
1000
0010
0000
0010
0100
0000
0100
1000
,
0000
0100
0001
0010
0100
1000
0001
0000
,
0001
0010
0000
0010
0100
0000
0100
0001
,
0000
0100
1000
0010
0100
0001
1000
0010
,
1000
0001
1000
0010
0100
1000
0100
0001
,
0010
0100
0001
1000
0010
0001
0100
0010
,
0100
0001
1000
0100
0010
0100
1000
0001
,
0100
1000
0001
0010
0100
0001
1000
0010
,
0100
1000
0001
0010
0100
0001
1000
0010
,
0100
0001
0010
1000
0010
0001
0100
0010
,
0001
1000
0100
0010
1000
0001
0100
1000
,
0100
0001
0010
0100
1000
0010
0200
0000
,
0001
1000
0001
0320
,
1000
0000
0001
0000
1030
0000
0001
0100
,
0010
0100
0001
0100
0010
1000
0010
0100
,
0010
1000
0100
0010
0001
0100
0010
1000
,
0100
0010
0001
0100
0010
1000
0001
0100
,
0010
0100
0001
0100
0010
1000
0010
0100
,
0010
1000
0100
0010
0001
0100
0010
1000
,
0001
0010
0100
1000
0001
0200
0000
0000
,
0000
0000
0000
0302
,
0000
0000
0000
2003
,
0000
0000
0000
3020
,
0000
0000
0000
0200
,
0000
0000
0000
0000
0330
0000
0001
0100
,
0001
1000
0001
0010
0100
1000
0010
0001
,
1000
0100
0001
0010
0100
1000
0010
0100
,
0001
0010
1000
0001
0100
1000
0002
0000
,
2000
0000
0000
0000
,
0000
0000
0000
0000
,
0000
0000
0000
0000
,
0000
0000
0000
3003
;

//---------------dance-single - NewbStepper-BSP----------------
#NOTES:
     dance-single:
     NewbStepper:
     Easy:
     8:
     0.222915,0.499635,0.061326,0.143094,0,229,220,9,21,0,0,0.222915,0.499635,0.061326,0.143094,0,229,220,9,21,0,0:
0000
0000
0000
0000
,
0000
0000
0000
0000
,
0000
0000
0000
0000
,
0000
0000
0000
0000
,
0000
0000
0000
0000
,
0000
0000
0000
0000
,
0000
0000
0000
0000
,
0000
0000
0000
0000
,
0000
0000
0000
0000
,
0000
0000
0000
0000
,
0000
0000
0000
0000
,
0000
0000
0000
0000
,
0000
0000
0000
0000
,
0000
0000
0000
0000
,
0000
0000
0000
0000
,
0000
0000
0000
0000
,
0000
0000
0000
0000
,
2000
0000
3000
0000
,
0002
0000
0003
0000
,
0010
0000
0010
0000
,
0100
0000
0100
0000
,
0020
0000
0000
0030
,
0000
0000
0000
0000
,
0001
0000
1000
0000
,
0001
0000
1000
0000
,
0200
0000
0300
0000
,
0020
0000
0030
0000
,
0001
0000
0001
0000
,
1000
0000
1000
0000
,
0020
0000
0000
0030
,
0000
0000
0000
0000
,
0200
0000
0000
0300
,
0000
0000
0000
0000
,
0001
0000
0010
0000
,
1000
0000
0010
0000
,
0001
0000
1000
0000
,
0100
0000
0001
0000
,
0100
0000
1000
0000
,
0010
0000
0100
0000
,
0001
0000
1000
0000
,
0010
1000
0100
0000
,
1000
0000
0001
0000
,
0010
0001
0100
0000
,
0001
0000
1000
0000
,
0010
0000
0000
0000
,
1000
0000
1000
1000
0000
0000
0000
0000
,
0001
0000
0001
0001
0000
0000
0000
0000
,
0010
0000
0000
0000
0000
0100
0100
0000
,
0010
0000
0000
0000
,
0002
0000
0003
0000
,
0000
0000
0000
0000
,
2000
0000
0000
0000
,
0000
0000
3000
0000
,
1000
0000
0000
0000
,
0001
0000
0000
0000
,
0100
0000
0000
0000
,
0010
0000
0000
0000
,
1000
1000
1000
0000
,
0001
0001
0001
0000
,
0100
0100
0100
0000
,
0010
0010
0010
0000
,
1000
0001
1000
1000
,
0010
0100
0100
0010
,
1000
0001
0001
1000
,
0100
0010
0010
0100
,
1001
0001
0011
0010
,
0110
0100
1100
1000
,
1001
0001
1001
1000
,
2002
0000
0000
3003
0000
0000
0000
0000
,
0001
0001
0000
1000
1000
0000
0010
0010
,
0000
0100
0100
0000
0000
0000
0010
0000
,
1000
1000
0000
0001
0001
0000
0010
0010
,
0000
0100
0100
0000
0000
0000
1000
0000
,
0001
0010
0000
0010
0100
0000
0100
1000
,
0000
1000
0010
0000
1000
0000
0001
0000
,
1000
0010
0000
0010
0100
0000
0100
0001
,
0000
0001
0010
0000
0100
0000
2000
0000
,
0001
0001
0000
0100
0100
0000
0001
0001
,
0000
0010
3010
0000
0110
0000
0002
0000
,
1000
1000
0000
0100
0100
0000
1000
1000
,
0000
0010
0013
0000
0110
0000
0001
0000
,
0001
1000
0000
1000
0010
0000
0010
0100
,
0000
0100
0001
0000
1000
0001
1000
0000
,
1000
0001
0000
0001
0010
0000
0010
0100
,
0000
0100
1000
0000
0001
0000
2000
0000
,
0001
0000
3001
0020
,
0100
0000
0130
0002
,
1000
0000
1003
0200
,
0010
0000
0310
1000
,
0001
1000
0001
0100
,
0010
0100
0010
1000
,
0100
0010
0001
0100
,
0010
1000
0001
0020
,
0000
0000
0000
0030
,
0000
0000
0000
0002
,
0000
0000
0000
0003
,
0000
0000
0000
2000
,
0000
0000
0000
3000
,
0000
0000
0000
0001
,
0100
0001
0100
0010
,
1000
0010
1000
0100
,
0020
0000
0000
0000
,
0000
0000
0000
0000
,
0000
0000
0000
0000
,
0000
0000
0000
0030
;

//---------------dance-single - NewbStepper-bSP----------------
#NOTES:
     dance-single:
     NewbStepper:
     Beginner:
     5:
     0.146987,0.356882,0.068140,0.074954,0,151,141,10,11,0,0,0.146987,0.356882,0.068140,0.074954,0,151,141,10,11,0,0:
0000
0000
0000
0000
,
0000
0000
0000
0000
,
0000
0000
0000
0000
,
0000
0000
0000
0000
,
0000
0000
0000
0000
,
0000
0000
0000
0000
,
0000
0000
0000
0000
,
0000
0000
0000
0000
,
0000
0000
0000
0000
,
0000
0000
0000
0000
,
0000
0000
0000
0000
,
0000
0000
0000
0000
,
0000
0000
0000
0000
,
0000
0000
0000
0000
,
0000
0000
0000
0000
,
0000
0000
0000
0000
,
0000
0000
0000
0000
,
1000
0000
0000
0000
,
0001
0000
0000
0000
,
0100
0000
0000
0000
,
0010
0000
0000
0000
,
0200
0000
0000
0300
,
0100
0000
0000
0000
,
0020
0000
0000
0030
,
0010
0000
0000
0000
,
1000
0000
0000
0000
,
0001
0000
0000
0000
,
1000
0000
0000
0000
,
0001
0000
0000
0000
,
0020
0000
0000
0030
,
0010
0000
0000
0000
,
0200
0000
0000
0300
,
0100
0000
0000
0000
,
1001
0000
0000
0000
,
0000
0000
0000
0000
,
1001
0000
0000
0000
,
0000
0000
0000
0000
,
1001
0000
0000
0000
,
0000
0000
0000
0000
,
1001
0000
0000
0000
,
0000
0000
0000
0000
,
1000
0000
1000
0000
,
0001
0001
0001
0000
,
1000
0000
0010
0000
,
0100
0000
0000
0000
,
0001
0000
0001
0000
,
1000
1000
1000
0000
,
0001
0000
0000
0100
,
0100
0000
0000
0000
,
0020
0000
0000
0030
,
0000
0000
0000
0000
,
2002
0000
0000
0000
,
0000
0000
3003
0000
,
1000
0000
0000
0000
,
0001
0000
0000
0000
,
1000
0000
0001
0000
,
0010
0000
0000
0000
,
0100
0000
0000
0000
,
0010
0000
0000
0000
,
0100
0000
0000
0000
,
1000
0000
0000
0000
,
1001
0000
0000
0000
,
0110
0000
0000
0000
,
1001
0000
0000
0000
,
0110
0000
0000
0000
,
0001
1000
0001
1000
,
0001
1000
0001
1000
,
0100
0100
0100
0100
,
0220
0000
0330
0000
,
1000
0000
0001
0100
,
0100
0000
1000
0100
,
0100
0000
0001
0010
,
0010
0000
1000
0010
,
0010
0000
0001
0100
,
0100
0000
1000
0100
,
0100
0000
0001
1000
,
1000
0000
1000
0001
,
0001
0000
0001
0100
,
0100
0000
0100
0010
,
0010
0000
0010
1000
,
1000
0000
1000
0100
,
0100
0000
0100
0010
,
0010
0000
0010
0001
,
0001
0000
0001
1000
,
1000
0000
0001
0000
,
1000
0000
0010
0000
,
0100
0000
0001
0000
,
0010
0000
1000
0000
,
0010
0000
0001
0000
,
0100
0000
0010
0000
,
1000
0000
0001
0000
,
0100
0000
0010
0000
,
1000
0000
0100
0000
,
0020
0000
0000
0000
,
0000
0000
0000
0000
,
0000
0000
0000
0030
,
0000
0000
0000
0001
,
0000
1000
0000
0001
,
0000
1000
0000
0100
,
0100
0010
0010
0100
,
0100
0010
0010
0002
,
0000
0000
0000
0000
,
0000
0000
0000
0000
,
0000
0000
0000
0000
,
0000
0000
0000
0003
;

//---------------dance-double - NewbStepper-EDP----------------
#NOTES:
     dance-double:
     NewbStepper:
     Hard:
     16:
     0.615205,1.166469,0.061326,0.122652,0.429281,632,623,9,18,0,0,0.615205,1.166469,0.061326,0.122652,0.429281,632,623,9,18,0,0:
// measure 0
00000000
00000000
00000000
00000000
,  // measure 1
00000000
00000000
00000000
00000000
,  // measure 2
00000000
00000000
00000000
00000000
,  // measure 3
00000000
00000000
00000000
00000000
,  // measure 4
00000000
00000000
00000000
00000000
,  // measure 5
00000000
00000000
00000000
00000000
,  // measure 6
00000000
00000000
00000000
00000000
,  // measure 7
00000000
00000000
00000000
00000000
,  // measure 8
00000000
00000000
00000000
00000000
,  // measure 9
00000000
00000000
00000000
00000000
,  // measure 10
00000000
00000000
00000000
00000000
,  // measure 11
00000000
00000000
00000000
00000000
,  // measure 12
00000000
00000000
00000000
00000000
,  // measure 13
00000000
00000000
00000000
00000000
,  // measure 14
00000000
00000000
00000000
00000000
,  // measure 15
00000000
00000000
00000000
00000000
,  // measure 16
00000000
00000000
00000000
00000000
,  // measure 17
00000100
00000000
00000010
00000100
00000000
00000000
00000000
00000010
,  // measure 18
00010000
00000000
00000000
00001000
00000000
00000000
00000000
00100000
,  // measure 19
00001000
00000000
01000000
00100000
00000000
10000000
00000000
02000000
,  // measure 20
00000000
00010000
10000000
03010000
,  // measure 21
00002000
00000000
00000000
00000000
,  // measure 22
00000000
00000000
00000000
00000000
00000000
00000000
00013000
00000010
,  // measure 23
00000000
00000000
00000100
00000001
00000000
00000000
00000010
00000100
,  // measure 24
00000000
00001000
00000000
00000100
00000000
00000000
00000000
00000000
,  // measure 25
00000100
00000000
00010000
00001000
00000000
00000000
00000000
00100000
,  // measure 26
01000000
00000000
10000000
00100000
00000000
00000000
00000000
00010000
,  // measure 27
00001000
00000000
00010000
00000010
00000000
00001000
00000000
00000200
,  // measure 28
00000000
00000010
00010000
00000310
,  // measure 29
00000002
00000000
00000000
00000000
,  // measure 30
00000000
00000000
00000103
00001000
,  // measure 31
00020000
00000000
00000000
00030000
,  // measure 32
00000000
00000100
00000010
00000001
,  // measure 33
00001000
00000001
00000100
00000000
00000001
00000100
00001000
00010000
,  // measure 34
00000000
01000000
00100000
00010000
00000000
10000000
00010000
00100000
,  // measure 35
00001000
00000000
00010000
00001000
00100000
00001000
00010000
00000020
,  // measure 36
00000000
00000000
00000000
00000000
00000000
00000030
00001000
00000100
,  // measure 37
00000010
00000000
00000001
00000100
00000000
00000101
00000000
00001100
,  // measure 38
00000000
00000001
00000100
00001000
00000000
00010000
01000000
10000000
,  // measure 39
00100000
00000000
10000000
00010000
01000000
10000000
01000000
00020000
,  // measure 40
00000000
00130000
00001000
00010000
00000000
00000000
00000010
00000000
,  // measure 41
00001001
00000000
00001000
00000001
00000100
00000010
00001000
00010000
,  // measure 42
01000000
00000000
00100000
10000000
01000000
00100000
00010000
00001000
,  // measure 43
00000100
00000001
00000100
00001000
00000020
00000000
00000000
00000000
,  // measure 44
00000030
00010000
00001000
00000100
00000010
00001000
00000001
00000100
,  // measure 45
00001000
00010000
01000000
20000000
00000000
30010000
01000000
00010000
,  // measure 46
10000000
00100000
00010000
00001000
00100000
00010000
00001000
00000100
,  // measure 47
00000020
00000000
00000000
00000000
00000030
00000001
00000100
00000001
,  // measure 48
00000010
00001000
00010000
00000200
00000000
00000000
00000000
00000000
,  // measure 49
00010300
00001000
00000010
00001000
00010000
00100000
10000000
00010000
,  // measure 50
00100000
00001000
00010000
00000010
00010000
00001000
00000100
00000001
,  // measure 51
00001000
00000100
00001000
00000100
00001000
00000100
00001000
00000100
00010000
00001000
00010000
00001000
00010000
00001000
00010000
00001000
,  // measure 52
00100000
00010000
10000000
00100000
01000000
00010000
10000000
01000000
00100000
00010000
00100000
00001000
00010000
00001000
00010000
00000010
,  // measure 53
00001000
00001000
00000100
00000100
,  // measure 54
00000010
00000000
00000010
00000000
00000001
00000000
00000001
00000100
,  // measure 55
00001000
00001000
00010000
00010000
,  // measure 56
00100000
00000000
00100000
00000000
10000000
00000000
10000000
01000000
,  // measure 57
00100000
00100000
00001000
00001000
,  // measure 58
00010000
00000000
00010000
00000000
00000010
00000000
00000010
00001000
,  // measure 59
00000001
00000001
00000100
00000100
,  // measure 60
00001000
00000000
00001000
00000000
00010000
00000000
00010000
00100000
,  // measure 61
10000000
00000000
01000000
00000000
00100000
00010000
00100000
00000000
00001000
00000000
01000000
00010000
01000000
00000000
00000000
00000000
,  // measure 62
00001000
00000000
00010000
00000000
00000100
00010000
00000100
00000000
00001000
00000000
00000010
00001000
00000010
00000000
00000000
00000000
,  // measure 63
00000100
00000000
00000001
00000000
00001000
00000010
00001000
00000000
00000001
00000000
00000010
00000100
00000010
00000000
00000000
00000000
,  // measure 64
00000100
00000000
00010000
00000000
00001000
00010000
00001000
00000000
01000000
00000000
00010000
00100000
00010000
00000000
00000000
00000000
,  // measure 65
00100000
00000000
00001000
00000000
00010000
00001000
00010000
00000000
00000010
00000000
00010000
00000000
00001000
00010000
00001000
00000000
,  // measure 66
01000000
00000000
00001000
00000000
00010000
00001000
00010000
00000000
00000100
00000000
00010000
00000000
00001000
00010000
00001000
00000000
,  // measure 67
00100000
00001000
00010000
00001000
00100000
00001000
00010000
00001000
00100000
00001000
00010000
00000010
00001000
00000010
00010000
00000010
,  // measure 68
00001000
00000000
00000000
00000000
00000010
00000000
00000000
00000000
00000100
00000000
00000000
00000000
00000001
00000000
00000000
00000000
00001000
00000000
00000000
00000000
00000100
00000000
00000000
00000000
00000010
00000000
00000000
00000000
00000001
00000000
00000000
00000000
00000200
00000300
00000000
00000000
00000000
00000000
00000000
00000000
00000000
00000000
00000000
00000000
00000000
00000000
00000000
00000000
00000010
00000000
00000000
00000000
00000000
00000000
00000000
00000000
00010000
00000000
00000000
00000000
00000000
00000000
00000000
00000000
,  // measure 69
00001000
00010000
00001000
00000000
00100000
00000000
00010000
00000000
10000000
00000000
00100000
00000000
01000000
00010000
01000000
00000000
,  // measure 70
00100000
00000000
00010000
00000000
00001000
00010000
00000100
00000000
00010000
00001000
00010000
00001000
00100000
00000000
00001000
00000000
,  // measure 71
00010000
00001000
00010000
00000000
00000010
00000000
00001000
00000000
00000001
00000000
00000010
00000000
00000100
00001000
00000100
00000000
,  // measure 72
00000010
00000000
00001000
00000000
00010000
00001000
01000000
00000000
00001000
00010000
00001000
00010000
00000100
00000000
00001000
00000001
,  // measure 73
00001000
00000000
00000100
00000000
00001000
00000010
00001000
00000000
00000100
00000000
00000010
00000000
00001000
00010000
00001000
00000000
,  // measure 74
00100000
00000000
00010000
01000000
00010000
00000000
10000000
01000000
10000000
00010000
10000000
00100000
01000000
00000000
00010000
10000000
,  // measure 75
00010000
00000000
01000000
00000000
00010000
00100000
00010000
00000000
01000000
00000000
00100000
00000000
00010000
00001000
00010000
00000000
,  // measure 76
00000010
00000000
00001000
00000100
00001000
00000000
00000001
00000100
00000001
00001000
00000001
00000010
00000100
00000000
00001000
00000000
,  // measure 77
00001001
00000001
00000100
00001000
01000000
10000000
01000000
00010000
,  // measure 78
00100000
00001000
00000010
00001000
00100000
01000000
01100000
00010000
,  // measure 79
10010000
10000000
01000000
00010000
00000100
00000001
00000100
00001000
,  // measure 80
00000010
00010000
00100000
00010000
00000010
00000100
00000110
00001000
,  // measure 81
00001001
00000001
00000010
00001000
00100000
00010000
00001000
00010000
,  // measure 82
00100000
00001000
00010000
01000000
00010000
00001000
00100000
00010000
,  // measure 83
10010000
00000000
10000000
00000000
01000000
00100000
01000000
00000000
10000000
00000000
00100000
00000000
00010000
00001000
00010000
00000000
,  // measure 84
00000100
00001000
00000100
00001000
00000100
00001000
00000100
00001000
00000001
00000100
00000001
00000100
00000010
00001000
00000010
00000000
,  // measure 85
00010000
00001000
00010000
00000000
00001000
00100000
00001000
00000000
00010000
00001000
00010000
00000000
00001000
00100000
00001000
00000000
,  // measure 86
01000000
00010000
10000000
00000000
01000000
10000000
00010000
00000000
00100000
00001000
00010000
00000000
00000010
00010000
00001000
00000000
,  // measure 87
00000100
00000010
00001000
00000000
00000100
00000010
00000001
00000000
00000100
00001000
00010000
00000000
00001000
00100000
00010000
00000000
,  // measure 88
10000000
00100000
01000000
00000000
00010000
00100000
01000000
00000000
00010000
00001000
00100000
00000000
00001000
00010000
00000010
00000000
,  // measure 89
00001000
00000100
00000010
00000000
00000100
00001000
00000001
00000000
00000010
00000001
00000100
00000000
00000010
00001000
00000100
00000000
,  // measure 90
00010000
00001000
00010000
00000000
00001000
00010000
00100000
00000000
00010000
00100000
01000000
00000000
00100000
10000000
01000000
00000000
,  // measure 91
10000000
01000000
10000000
00000000
01000000
00010000
01000000
00000000
00010000
00001000
00010000
00000000
00001000
00000010
00001000
00000000
,  // measure 92
00000010
00000001
00000010
00000000
00000001
00000100
00000001
00000000
00000100
00001000
00000100
00000000
00001000
00010000
00001000
00000000
,  // measure 93
00010000
00100000
00010000
00000000
00100000
10000000
00100000
00000000
10000000
00010000
02000000
00000000
00000000
00000000
00000000
00000000
,  // measure 94
00000000
00000000
00100000
03002000
,  // measure 95
00000000
00000000
00100000
00023000
,  // measure 96
00000000
00000000
00000010
00002000
,  // measure 97
00000000
00000000
00000000
00000000
00000000
00000000
00000000
00000000
00033000
00000000
00000000
00000000
00001000
00010000
00001000
00000000
,  // measure 98
00010000
00000100
00010000
00000000
00001000
00010000
00001000
00000000
00010000
00000100
00010000
00000000
00000010
00001000
00000001
00000000
,  // measure 99
00001000
00000100
00000010
00000000
00000001
00000100
00000001
00000100
00000010
00001000
00000010
00001000
00000100
00010000
00000100
00010000
,  // measure 100
00001000
00100000
00001000
00100000
00010000
01000000
00010000
01000000
00100000
10000000
00100000
10000000
02000000
00000000
00000000
00000000
,  // measure 101
00200000
00000000
00000000
00000000
,  // measure 102
00000000
00000000
00000000
00000000
,  // measure 103
00000000
00000000
00000000
03300000
;

//---------------dance-double - NewbStepper-DDP----------------
#NOTES:
     dance-double:
     NewbStepper:
     Medium:
     12:
     0.420520,0.606700,0.081768,0.149908,0,432,420,12,22,0,0,0.420520,0.606700,0.081768,0.149908,0,432,420,12,22,0,0:
00000000
00000000
00000000
00000000
,
00000000
00000000
00000000
00000000
,
00000000
00000000
00000000
00000000
,
00000000
00000000
00000000
00000000
,
00000000
00000000
00000000
00000000
,
00000000
00000000
00000000
00000000
,
00000000
00000000
00000000
00000000
,
00000000
00000000
00000000
00000000
,
00000000
00000000
00000000
00000000
,
00000000
00000000
00000000
00000000
,
00000000
00000000
00000000
00000000
,
00000000
00000000
00000000
00000000
,
00000000
00000000
00000000
00000000
,
00000000
00000000
00000000
00000000
,
00000000
00000000
00000000
00000000
,
00000000
00000000
00000000
00000000
,
00000000
00000000
00000000
00000000
,
00000100
00000000
00000000
00010000
00000000
00000000
00000000
00000000
,
00001000
00000000
00000000
01000000
00000000
00000000
00000000
00000000
,
00100000
00000000
00000000
10000000
00000000
10000000
00000000
10000000
,
00000000
01000000
00100000
00001000
,
00020000
00000000
00000000
00030000
,
00000000
00000000
00000000
00000000
00000000
00000000
00000000
00000100
,
00000000
00000000
00000000
00000010
00000000
00000000
00000000
00001001
,
00000000
00001001
00000000
00001001
00000000
00000000
00000000
00000000
,
00000001
00000000
00000001
00000100
00000000
00000000
00000000
00000000
,
00000100
00000000
00000100
00001000
00000000
00000000
00000000
00000000
,
00010000
00000000
00000000
00001000
00000000
00001000
00000000
00001000
,
00000000
00010000
01000000
10000000
,
00200000
00000000
00000000
00300000
,
00000000
00000000
10000000
00010000
,
00200000
00000000
00000000
00300000
,
00000000
00001000
00010000
00000010
,
00000100
00000000
00000001
00000000
00001000
00000100
00001000
00000010
,
00000000
00000100
00000000
00001000
00000000
00010000
01000000
00100000
,
00020000
00000000
00000000
01030000
00000000
00100000
00000000
20000000
,
00000000
00000000
00000000
00000000
00000000
30000000
00100000
01000000
,
00010000
00000000
10000000
00010000
00000000
01000000
00000000
00100000
,
00000000
00010000
00001000
00000010
00000000
00000001
00000100
00000010
,
00020000
00000000
00030000
00001000
00100000
00001000
00010000
01000000
,
00000000
00100000
00010000
20000000
00000000
00000000
30000000
00000000
,
00100000
10000000
00010000
01000000
00001000
00010000
00001000
00000100
,
00000001
00000000
00000010
00000001
00001000
00000100
00001000
00000010
,
00000000
00010000
00001000
02000000
00000000
00000000
00000000
03000000
,
00000000
00010000
00100000
01000000
10000000
00100000
00010000
00001000
,
00000010
00000001
00000100
00000001
00000000
00001000
00000100
00001000
,
00000001
00000100
00001000
00010000
01000000
10000000
00100000
01000000
,
00020000
00000000
00000000
00000000
00030000
10000000
01000000
00100000
,
00010000
01000000
00100000
20000000
00000000
00000000
00000000
30000000
,
00000000
01000000
00010000
00001000
00000100
00000001
00001000
00000020
,
00000000
00000000
00000000
00000000
00000000
00000030
00000000
00000000
,
00010000
00001000
00100000
00001000
00010000
00000010
00001000
00000001
,
00000100
00001000
00010000
00100000
10000000
01000000
00100000
00010000
,
10000000
10000000
10000000
10000000
,
10000000
00000000
10000000
00000000
10000000
00000000
10000000
00010000
,
00010000
00010000
00010000
00010000
,
00010000
00000000
00010000
00000000
00010000
00000000
00010000
00001000
,
00001000
00001000
00001000
00001000
,
00001000
00000000
00001000
00000000
00001000
00000000
00001000
00000001
,
00000001
00000001
00000001
00000001
,
00000001
00000000
00000001
00000000
00000001
00000000
00000001
00001000
,
00001001
00000000
00000001
00000100
00000000
00000100
00001000
00000000
,
00011000
00000000
00010000
00100000
00000000
00100000
10000000
00000000
,
10010000
00000000
10000000
01000000
00000000
01000000
00010000
00000000
,
00011000
00000000
00001000
00000010
00000000
00000010
00000001
00000000
,
00001001
00000000
00000001
00000100
00001000
00000000
00010000
01000000
,
10000000
00000000
10000000
00100000
00010000
00000000
00001000
00000010
,
00000001
00000101
00001010
00000110
,
00002002
00000000
00000000
00000000
00000000
00000000
00000000
00000000
00000000
00000000
00000000
00000000
00000000
00000000
00000000
00000000
00000000
00000000
00000000
00000000
00000000
00000000
00000000
00000000
00000000
00000000
00000000
00000000
00000000
00000000
00000000
00000000
00000000
00003003
00000000
00000000
00000000
00000000
00000000
00000000
00000000
00000000
00000000
00000000
00000000
00000000
00000000
00000000
00000001
00000000
00000000
00000000
00000000
00000000
00000000
00000000
00000000
00000000
00000000
00000000
00000000
00000000
00000000
00000000
,
00001000
00000100
00000000
00000010
00001000
00000000
00010000
00000100
,
00001000
00000001
00000100
00001000
00010000
00100000
10000000
00000000
,
00010000
01000000
00000000
00100000
00010000
00000000
00001000
01000000
,
00010000
10000000
01000000
00010000
00001000
00000010
00000001
00000000
,
00000100
00000010
00000000
00001000
00000001
00000000
00000100
00001000
,
00010000
00000100
00010000
00001000
00010000
00100000
10000000
00000000
,
01000000
00100000
00000000
00010000
10000000
00000000
01000000
00010000
,
00001000
01000000
00001000
00010000
00001000
00000010
00000001
00000100
,
00000010
00001000
00000100
00010000
00001000
00000100
00001000
00010000
,
01000000
00010000
00001000
01000000
00010000
01000000
00001000
00010000
,
00100000
10000000
00010000
01000000
00100000
00010000
00001000
00000010
,
00000100
00000010
00001000
00010000
00000010
00010000
00001000
00000100
,
00000001
00000100
00000010
00010000
00001000
00000010
00000100
00010000
,
00001000
00100000
01000000
00010000
01000000
10000000
00100000
00010000
,
00001000
00100000
00010000
01000000
00100000
00010000
00001000
00000100
,
00000010
00001000
00000001
00000100
00000010
00001000
00000200
00000000
,
00010000
00000010
00001000
00020300
,
00000010
00000000
00001000
00000000
00030010
00000000
00010000
00001000
,
01000000
00001000
00010000
00000100
00010000
00001000
01000000
00001000
,
00010000
00001000
00100000
00010000
01000000
00100000
10000000
01000000
,
00010000
00001000
00100000
00001000
00010000
00000010
00010000
00001000
,
00000010
00000001
00000100
00000001
00001000
00000001
00000010
00000100
,
00001000
00000001
00000100
00001000
00010000
00000010
00010000
00001000
,
00010000
00100000
10000000
01000000
00100000
00020000
00000000
00000000
,
00000000
00000000
00000000
20030000
,
00000000
00000000
00000000
32000000
,
00000000
00000000
00000000
03020000
,
00000000
00000000
00000000
00002000
,
00000000
00000000
00000000
00000000
00033000
00000000
00010000
00001000
,
00010000
00000010
00010000
00001000
00000100
00000001
00001000
00000100
,
00000010
00001000
00010000
00001000
00100000
00001000
00010000
00100000
,
10000000
01000000
00100000
00010000
01000000
00100000
00020000
00000000
,
00002000
00000000
00000000
00000000
,
00000000
00000000
00000000
00000000
,
00000000
00000000
00000000
00000000
,
00000000
00000000
00000000
00033000
;

//---------------dance-double - NewbStepper-BDP----------------
#NOTES:
     dance-double:
     NewbStepper:
     Easy:
     8:
     0.215127,0.463947,0.020442,0.115838,0,221,218,3,17,0,0,0.215127,0.463947,0.020442,0.115838,0,221,218,3,17,0,0:
00000000
00000000
00000000
00000000
,
00000000
00000000
00000000
00000000
,
00000000
00000000
00000000
00000000
,
00000000
00000000
00000000
00000000
,
00000000
00000000
00000000
00000000
,
00000000
00000000
00000000
00000000
,
00000000
00000000
00000000
00000000
,
00000000
00000000
00000000
00000000
,
00000000
00000000
00000000
00000000
,
00000000
00000000
00000000
00000000
,
00000000
00000000
00000000
00000000
,
00000000
00000000
00000000
00000000
,
00000000
00000000
00000000
00000000
,
00000000
00000000
00000000
00000000
,
00000000
00000000
00000000
00000000
,
00000000
00000000
00000000
00000000
,
00000000
00000000
00000000
00000000
,
00000200
00000000
00000300
00000000
,
00000020
00000000
00000030
00000000
,
00000001
00000000
00000001
00000000
,
00001000
00000000
00001000
00000000
,
00000020
00000000
00000000
00000030
,
00000000
00000000
00000000
00000000
,
00010000
00000000
00001000
00000000
,
00010000
00000000
00001000
00000000
,
00200000
00000000
00300000
00000000
,
02000000
00000000
03000000
00000000
,
10000000
00000000
10000000
00000000
,
00010000
00000000
00010000
00000000
,
02000000
00000000
00000000
03000000
,
00000000
00000000
00000000
00000000
,
00200000
00000000
00000000
00300000
,
00000000
00000000
00000000
00000000
,
10000000
00000000
00100000
00000000
,
00010000
00000000
00001000
00000000
,
00000010
00000000
00000001
00000000
,
00000100
00000000
00000001
00000000
,
00001000
00000000
00000100
00000000
,
00010000
00000000
00001000
00000000
,
00100000
00000000
00010000
00000000
,
10000000
01000000
00010000
00000000
,
00001000
00000000
00000010
00000000
,
00000001
00000100
00001000
00000000
,
00010000
00000000
00100000
00000000
,
10000000
00000000
00000000
00000000
,
00010000
00000000
00010000
00010000
00000000
00000000
00000000
00000000
,
01000000
00000000
01000000
01000000
00000000
00000000
00000000
00000000
,
00001000
00000000
00000000
00000000
00000000
00010000
00010000
00000000
,
00000010
00000000
00000000
00000000
,
00002000
00000000
00003000
00000000
,
00000000
00000000
00000000
00000000
,
00000002
00000000
00000000
00000000
,
00000000
00000000
00000003
00000000
,
00001000
00000000
00000000
00000000
,
00000001
00000000
00000000
00000000
,
00000100
00000000
00000000
00000000
,
00001000
00000000
00000000
00000000
,
00100000
00100000
00100000
00000000
,
00000000
00000000
00000000
00000000
,
00010000
00010000
00010000
00000000
,
10000000
10000000
10000000
00000000
,
01000000
01000000
01000000
00000000
,
00010000
00001000
00100000
00100000
,
00001000
00010000
00000010
00000010
,
00010000
00001000
01000000
01000000
,
00001000
00010000
00000100
00000100
,
00000010
00001000
00010000
00100000
,
00010000
00001000
00000100
00001000
,
00010000
01000000
01100000
00000000
,
00010000
00010000
00000000
10000000
10000000
00000000
01000000
01000000
,
00000000
00010000
00010000
00000000
00000000
00000000
00000010
00000000
,
00001000
00001000
00000000
00000001
00000001
00000000
00000100
00000100
,
00000000
00001000
00001000
00000000
00000000
00000000
00100000
00000000
,
00010000
10000000
00000000
10000000
01000000
00000000
01000000
00010000
,
00000000
00010000
00001000
00000000
00000010
00000000
00000001
00000000
,
00001000
00000001
00000000
00000001
00000100
00000000
00000100
00001000
,
00000000
00001000
00010000
00000000
00100000
00000000
10000000
00000000
,
00010000
01000000
00000000
00001000
00010000
00000000
00000100
00001000
,
00000000
00000001
00000100
00000000
00000110
00000000
00000001
00000000
,
00001000
00000100
00000000
00010000
00001000
00000000
01000000
00010000
,
00000000
10000000
01000000
00000000
01100000
00000000
00010000
00000000
,
00010000
10000000
00000000
10000000
00100000
00000000
00100000
00010000
,
00000000
00010000
00001000
00000000
00000100
00000010
00001000
00000000
,
00001000
00000001
00000000
00000001
00000100
00000000
00000100
00001000
,
00000000
00001000
00010000
00000000
00100000
00000000
20000000
00000000
,
00010000
00000000
30010000
00200000
,
00001000
00000000
00301000
00020000
,
00000100
00000000
00030100
00002000
,
00000010
00000000
00003010
00000100
,
00000001
00000100
00000001
00001000
,
00000100
00000010
00001000
00010000
,
00000100
00001000
00100000
00010000
,
00001000
00100000
00010000
20000000
,
00000000
00000000
00000000
30000000
,
00000000
00000000
00000000
00020000
,
00000000
00000000
00000000
00030000
,
00000000
00000000
00000000
00002000
,
00000000
00000000
00000000
00003000
,
00000000
00000000
00000000
00000001
,
00000100
00000010
00001000
00000100
,
00010000
00001000
00100000
00010000
,
20000000
00000000
00000000
00000000
,
00000000
00000000
00000000
00000000
,
00000000
00000000
00000000
00000000
,
00000000
00000000
00000000
30000000
;
