#VERSION:0.83;
#TITLE:ワールズエンド・ダンスホール;
#ARTIST:wowaka;
#TITLETRANSLIT:World's End Dancehall;
#BANNER:World's End Dancehall.png;
#BACKGROUND:World's End Dancehall-bg.png;
#JACKET:World's End Dancehall-jacket.png;
#MUSIC:World's End Dancehall.ogg;
#OFFSET:-3.46;
#SAMPLESTART:84.86351;
#SAMPLELENGTH:15;
#BPMS:0=171;
#BGCHANGES:-8.25=World's End Dancehall.avi=1=0=0=0=StretchNoLoop====,99999=-nosongbg-=1=0=0=0 // don't automatically add -songbackground-;

//---------------dance-single - Kekkle-CSP----------------
#NOTEDATA:;
#CHARTNAME:Kekkle-CSP;
#STEPSTYPE:dance-single;
#DESCRIPTION:Kekkle-CSP;
#DIFFICULTY:Challenge;
#METER:16;
#RADARVALUES:0.814649,1.047306,0.528166,0.709723,0.495156,691,627,64,86,0,0,0,0,0,0.814649,1.047306,0.528166,0.709723,0.495156,691,627,64,86,0,0,0,0,0;
#CREDIT:Kekkle;
#NOTES:
0000
0000
0000
0000
,
0000
0000
0000
0000
,
1001
0000
0000
0101
0000
0000
0220
0000
0330
0000
0010
0000
1000
0000
0001
0000
,
0011
0000
0000
1100
0000
0000
0101
0000
0000
0000
0001
0000
2002
0000
3003
0000
,
1010
0000
0000
0110
0000
0000
0202
0000
0303
0000
0001
0000
1000
0000
0100
0000
,
0110
0000
0000
0011
0000
0000
1010
0000
0000
0000
1000
0000
2002
0000
3003
0000
,
0101
0000
0000
0110
0000
0000
2020
0000
3030
0000
1000
0000
0001
0000
0010
0000
,
0110
0000
0000
1100
0000
0000
0202
0000
0303
0000
0100
0000
0220
0000
0330
0000
,
1010
0000
0000
0110
0000
0000
0202
0000
0303
0000
0001
0000
1000
0000
0100
0000
,
0110
0000
0000
0011
0000
0000
2020
0000
3030
0000
1000
0001
1000
0001
1000
0100
,
0010
0000
0000
0010
0001
0000
1000
0000
0010
0000
0001
0000
0010
0000
1000
0000
,
0100
0000
0000
1000
0001
0000
0100
0000
1000
0000
0100
0000
0010
0000
1000
0000
,
0010
0000
0000
0100
0001
0000
0010
0000
1000
0000
0010
0000
0001
0000
0100
0000
,
0010
0000
0000
1000
0010
0000
0100
0000
0001
0000
1000
0000
0100
0000
0100
0000
,
0010
0000
0000
0001
1000
0000
0010
0000
0100
0000
1000
0000
0100
0000
0010
0000
,
1000
0000
0000
0100
0010
0000
0001
0000
1000
0000
0010
0000
0100
0000
0001
0000
,
0010
0000
0000
0100
1000
0000
0100
0000
0010
0000
1000
0000
0010
0000
0001
0000
,
0100
0000
0000
0010
1000
0000
0010
0000
0100
0000
0110
0000
1001
0000
0000
0000
,
0002
0000
0000
0100
0000
0000
0023
0000
1030
0000
0010
0000
0001
0000
0100
0000
,
2000
0000
0000
0100
0000
0000
3002
0000
0000
0000
0013
0000
0110
0000
0000
0000
,
2000
0000
0000
0001
0000
0000
3200
0000
0301
0000
1000
0000
0010
0000
0001
0000
,
0200
0000
0000
1000
0000
0000
0320
0000
0000
0000
1030
0000
1001
0000
0000
0000
,
0002
0000
0000
0010
0000
0000
2003
0000
3100
0000
0001
0000
1000
0000
0010
0000
,
0200
0000
0000
0001
0000
0000
0320
0000
0000
0000
0031
0000
1001
0000
0000
0000
,
2000
0000
0000
0001
0000
0000
3020
0000
0130
0000
0001
0000
1000
0000
0100
0000
,
0110
0011
1010
1001
,
0002
0000
0000
0100
0000
0000
0023
0000
1030
0000
0010
0000
0001
0000
0100
0000
,
0020
0000
0000
0130
1000
0000
0100
0000
0001
0000
1000
0000
1100
0000
0000
0000
,
0200
0000
0000
0001
0000
0000
0320
0000
0031
0000
1000
0000
0010
0000
0100
0000
,
0101
1100
0110
1001
,
0002
0000
0000
1000
0000
0000
0023
0000
1030
0000
0010
0000
0100
0000
1000
0000
,
0002
0000
0000
0103
0010
0000
0001
0000
0010
0000
1000
0000
1010
0000
0000
0000
,
0020
0000
0000
0001
0000
0000
0230
0000
0301
0000
1000
0000
0100
0000
0010
0000
,
0011
1010
1100
0101
,
0002
0000
0000
1003
0100
0000
0001
0000
0100
0000
1000
0000
0010
0000
0100
0000
,
2000
0000
0000
3100
0001
0000
1000
0000
0100
0000
0010
0001
0010
0100
0010
0001
,
0020
0000
0000
0130
1000
0000
0001
0000
0100
0000
1000
0000
0100
0000
0010
0000
,
2000
0000
0000
3001
0010
0000
0100
0000
1000
0000
0010
0100
0010
0100
0010
0100
,
0002
0000
0000
1003
0100
0000
0001
0000
0100
0000
1000
0000
0010
0000
0100
0000
,
0020
0000
0000
0130
0001
0000
1000
0000
0100
0000
0010
0001
1000
0001
0010
0001
,
2000
0000
0000
3010
0100
0000
0010
0000
0001
0000
0010
0000
1000
0000
0001
0000
,
0020
0000
0000
0130
1000
0000
0001
0000
0100
0000
0010
1000
0010
1000
0010
1000
,
0001
0000
0001
0010
0000
0010
0100
0000
1000
0000
0010
0000
0100
0000
0001
0000
,
1000
0000
1000
0100
0000
0000
0200
0000
0000
0000
1300
0000
1010
0000
0000
0000
,
0010
0000
0010
0100
0000
0100
0001
0000
1000
0000
0100
0000
0001
0000
0100
0000
,
1000
0000
1000
0010
0000
0000
0020
0000
0000
0000
0130
0000
0101
0000
0000
0000
,
0001
0000
0001
0010
0000
0010
1000
0000
0010
0000
0001
0000
0100
0000
0010
0000
,
1000
0000
1000
0001
0000
0000
0002
0000
0000
0000
0013
0000
0110
0000
0000
0000
,
0100
0000
0100
1000
0000
1000
0010
0000
0100
0000
0001
0000
1000
0000
0100
0000
,
0120
0032
2003
3010
,
0100
0001
0100
0001
1000
0100
1000
0100
0010
0001
0010
0100
0010
0001
0010
0000
,
0100
1000
0100
1000
0010
0100
0010
0100
0001
1000
0100
1000
0001
1000
0100
0000
,
0010
0001
0010
0100
1000
0000
0010
0100
0001
1000
0010
0000
0100
0001
1000
0100
,
0020
0032
2003
3020
,
0130
0001
0100
0010
0100
0001
0100
0010
1000
0000
1010
0000
2002
0000
3003
0000
,
0001
0010
0100
1000
0100
0010
0001
1000
0001
0000
0101
0000
2002
0000
3003
0000
,
1000
0010
1000
1000
0001
0010
0001
0001
,
0100
0100
0010
0010
2002
0000
3003
0000
,
0001
0000
0001
0010
0001
0000
0100
0000
0010
0000
0010
1000
0010
0000
0100
0000
,
0001
1000
0100
0001
1000
0010
0001
0100
,
0020
0000
1030
0001
1000
0000
0100
0000
0020
0000
0031
1000
0001
0000
0100
0000
,
0020
1000
0230
0001
0320
1030
1001
0000
,
0001
0000
0001
1000
0001
0000
0010
0000
0100
0000
0100
1000
0100
0000
0010
0000
,
0001
1000
0010
0001
1000
0100
0010
1000
,
0002
0000
0013
0100
0010
0000
0001
0000
2000
0000
3010
0100
0010
0000
1000
0000
,
0002
0000
0010
0000
2003
0000
0010
0000
3002
0000
0103
0010
0100
0010
0100
0010
,
1000
0000
1000
0100
1000
0000
0010
0000
0100
0000
0100
0001
0100
0000
0010
0000
,
1000
0100
0001
1000
0010
0100
1000
0010
,
0200
0000
0301
1000
0001
0000
0010
0000
0002
0000
1003
0010
1000
0000
0010
0000
,
2000
0100
3002
0100
2003
3010
0110
0000
,
1000
0001
0011
0000
0001
1000
1010
0000
,
0010
0001
0100
1000
0020
0000
1030
0000
,
0200
0000
0310
0001
0010
0000
0100
0000
2000
0000
3010
0100
0010
0000
1000
0000
,
0001
0010
0100
1000
0020
0000
0200
0330
,
0010
0000
0000
0010
1000
0000
0001
0000
0010
0100
0010
0000
0100
0000
1000
0000
,
0001
0000
0000
0001
0100
0000
0010
0000
1000
0000
0001
0000
0011
0000
0000
0000
,
0010
0000
0000
0010
0100
0000
1000
0000
0001
0100
0001
0000
0100
0000
0010
0000
,
1000
0000
0000
1000
0001
0000
0010
0000
0100
0000
1000
0000
1001
0000
0000
0000
,
0001
0000
0000
0001
1000
0000
0100
0000
0010
0100
0010
0000
0001
0000
1000
0000
,
0010
0000
0000
0010
0100
0000
0001
0000
1000
0000
0100
0000
0110
0000
0000
0000
,
0010
0000
0000
0010
0001
0000
1000
0000
0001
0100
0001
0000
0010
0000
0100
0000
,
1000
0000
0000
1000
0001
0000
0100
0000
0010
0000
1000
0000
1001
0000
1001
0000
;

//---------------dance-double - Kekkle-CDP----------------
#NOTEDATA:;
#CHARTNAME:Kekkle-CDP;
#STEPSTYPE:dance-double;
#DESCRIPTION:Kekkle-CDP;
#DIFFICULTY:Challenge;
#METER:17;
#RADARVALUES:0.807575,1.047306,0.495156,0.709723,0.478651,685,625,60,86,0,0,0,0,0,0.807575,1.047306,0.495156,0.709723,0.478651,685,625,60,86,0,0,0,0,0;
#CREDIT:Kekkle;
#NOTES:
// measure 0
00000000
00000000
00000000
00000000
,  // measure 1
00000000
00000000
00000000
00000000
,  // measure 2
10100000
00000000
00000000
01010000
00000000
00000000
00021000
00000000
00000000
00000000
00030010
00000000
00001000
00000000
00000001
00000000
,  // measure 3
00000011
00000000
00000000
00001100
00000000
00000000
00012000
00000000
00000000
00000000
01003000
00000000
02200000
00000000
03300000
00000000
,  // measure 4
10100000
00000000
00000000
01010000
00000000
00000000
00021000
00000000
00000000
00000000
00030010
00000000
00001000
00000000
00000001
00000000
,  // measure 5
00000011
00000000
00000000
00001100
00000000
00000000
00012000
00000000
00000000
00000000
01003000
00000000
02200000
00000000
03300000
00000000
,  // measure 6
10010000
00000000
00000000
01001000
00000000
00000000
00021000
00000000
00000000
00000000
00030100
00000000
00000010
00000000
00000001
00000000
,  // measure 7
00001001
00000000
00000000
00010100
00000000
00000000
00012000
00000000
00000000
00000000
00103000
00000000
02200000
00000000
03300000
00000000
,  // measure 8
11000000
00000000
00000000
00101000
00000000
00000000
00021000
00000000
00000000
00000000
00030100
00000000
00000010
00000000
00000001
00000000
,  // measure 9
00000101
00000000
00000000
00010010
00000000
00000000
00012000
00000000
00000000
00000000
00103000
00010000
00100000
00010000
10000000
00100000
,  // measure 10
10000000
00000000
00000000
00100000
00010000
00000000
00001000
00000000
00000100
00000000
00000010
00000000
00001000
00000000
00000001
00000000
,  // measure 11
00000010
00000000
00000000
00001000
00000010
00000000
00001000
00000000
00010000
00000000
01000000
00000000
10000000
00000000
00100000
00000000
,  // measure 12
00010000
00000000
00000000
00100000
01000000
00000000
00001000
00000000
00010000
00000000
00001000
00000000
00000100
00000000
00000010
00000000
,  // measure 13
00001000
00000000
00000000
00000001
00000010
00000000
00001000
00000000
00010000
00000000
00001000
00000000
00000100
00000000
00000010
00000000
,  // measure 14
00010000
00000000
00000000
00001000
00010000
00000000
01000000
00000000
10000000
00000000
00100000
00000000
00010000
00000000
00001000
00000000
,  // measure 15
00010000
00000000
00000000
00100000
01000000
00000000
00001000
00000000
00010000
00000000
01000000
00000000
00010000
00000000
00001000
00000000
,  // measure 16
00000010
00000000
00000000
00000001
00001000
00000000
00000010
00000000
00000100
00000000
00001000
00000000
00010000
00000000
00000100
00000000
,  // measure 17
00001000
00000000
00000000
00010000
00100000
00000000
01000000
00000000
10000000
00000000
00010000
00000000
10010000
00000000
00000000
00000000
,  // measure 18
20000000
00000000
00000000
30200000
00000000
00000000
00320000
00000000
00031000
00000000
00000100
00000000
00010000
00000000
00001000
00000000
,  // measure 19
00000020
00000000
00000000
00002030
00000000
00000000
00003200
00000000
00000000
00000000
00000310
00000000
00000110
00000000
00000000
00000000
,  // measure 20
00000200
00000000
00000000
00020300
00000000
00000000
00032000
00000000
00003100
00000000
00001000
00000000
00010000
00000000
00100000
00000000
,  // measure 21
20000000
00000000
00000000
30020000
00000000
00000000
00230000
00000000
00000000
00000000
01300000
00000000
01100000
00000000
00000000
00000000
,  // measure 22
00200000
00000000
00000000
00302000
00000000
00000000
00023000
00000000
00130000
00000000
10000000
00000000
00100000
00000000
01000000
00000000
,  // measure 23
00002000
00000000
00000000
00023000
00000000
00000000
00030200
00000000
00000000
00000000
00000310
00000000
00000011
00000000
00000000
00000000
,  // measure 24
00000002
00000000
00000000
00002003
00000000
00000000
00003200
00000000
00000310
00000000
00001000
00000000
00010000
00000000
01000000
00000000
,  // measure 25
01100000
00101000
00011000
00010010
,  // measure 26
00000020
00000000
00000000
00000230
00000000
00000000
00002300
00000000
00013000
00000000
00001000
00000000
00000100
00000000
00000010
00000000
,  // measure 27
00020000
00000000
00000000
00030100
00001000
00000000
00010000
00000000
00100000
00000000
01000000
00000000
11000000
00000000
00000000
00000000
,  // measure 28
20000000
00000000
00000000
30020000
00000000
00000000
02030000
00000000
03100000
00000000
00010000
00000000
00001000
00000000
00010000
00000000
,  // measure 29
00010010
00000110
00001001
00001100
,  // measure 30
00000200
00000000
00000000
00002300
00000000
00000000
00023000
00000000
00130000
00000000
01000000
00000000
00100000
00000000
00001000
00000000
,  // measure 31
00020000
00000000
00000000
00130000
10000000
00000000
00100000
00000000
01000000
00000000
00001000
00000000
00011000
00000000
00000000
00000000
,  // measure 32
00020000
00000000
00000000
00030200
00000000
00000000
00000320
00000000
00000031
00000000
00000100
00000000
00001000
00000000
00000100
00000000
,  // measure 33
00000110
00010010
00011000
00101000
,  // measure 34
00200000
00000000
00000000
01300000
10000000
00000000
01000000
00000000
00010000
00000000
00001000
00000000
00000100
00000000
00000000
00000000
,  // measure 35
00000002
00000000
00000000
00000103
00001000
00000000
00000100
00000000
00000010
00000000
00010000
00000100
00010000
00001000
00010000
00000100
,  // measure 36
00020000
00000000
00000000
00031000
00100000
00000000
01000000
00000000
00010000
00000000
01000000
00000000
10000000
00000000
00100000
00000000
,  // measure 37
02000000
00000000
00000000
03100000
00010000
00000000
00001000
00000000
00000100
00000000
00000010
00001000
00000001
00001000
00000010
00001000
,  // measure 38
00000002
00000000
00000000
00001003
00000100
00000000
00001000
00000000
00010000
00000000
00100000
00000000
00001000
00000000
00010000
00000000
,  // measure 39
00200000
00000000
00000000
01300000
10000000
00000000
01000000
00000000
00010000
00000000
00100000
00001000
00010000
00001000
00100000
00001000
,  // measure 40
00020000
00000000
00000000
00031000
00000100
00000000
00000010
00000000
00001000
00000000
00000100
00000000
00000010
00000000
00000001
00000000
,  // measure 41
00000200
00000000
00000000
00001300
00010000
00000000
00100000
00000000
10000000
00000000
00010000
00100000
01000000
00100000
00010000
00100000
,  // measure 42
02000000
00000000
00000000
13000000
00010000
00000000
01000000
00000000
00100000
00000000
00010000
00000000
00001000
00000000
00010000
00000000
,  // measure 43
00200000
00000000
00000000
01300000
00001000
00000000
00010000
00000000
00000100
00000000
00000010
00000000
00000011
00000000
00000000
00000000
,  // measure 44
00000002
00000000
00000000
00001003
00000010
00000000
00000100
00000000
00001000
00000000
00010000
00000000
00001000
00000000
00000100
00000000
,  // measure 45
00000020
00000000
00000000
00010030
00001000
00000000
00100000
00000000
00010000
00000000
00100000
00000000
01100000
00000000
00000000
00000000
,  // measure 46
02000000
00000000
00000000
03100000
00010000
00000000
10000000
00000000
00100000
00000000
00010000
00000000
00001000
00000000
00100000
00000000
,  // measure 47
00020000
00000000
00000000
00031000
00000100
00000000
00000010
00000000
00000001
00000000
00001000
00000000
00001010
00000000
00000000
00000000
,  // measure 48
00000020
00000000
00000000
00000130
00001000
00000000
00010000
00000000
00001000
00000000
00000100
00000000
00000001
00000000
00001000
00000000
,  // measure 49
00000200
00020300
00032000
02003000
,  // measure 50
03100000
10000000
00010000
01000000
00100000
10000000
00010000
01000000
00100000
01000000
00001000
00010000
00000100
00010000
00001000
00000000
,  // measure 51
00010000
00000010
00001000
00000100
00010000
00000010
00001000
00000100
00000010
00000001
00000010
00000100
00001000
00000100
00000010
00000000
,  // measure 52
00000001
00001000
00000010
00001000
00000100
00000000
00010000
00000100
00010000
00001000
00100000
00000000
01000000
00100000
00010000
10000000
,  // measure 53
00200000
02300000
03002000
00023000
,  // measure 54
00030100
00000010
00000001
00000010
00000100
00010000
00001000
00010000
00000100
00000000
00010000
00000000
00001000
00000000
00000000
00000000
,  // measure 55
01000000
00100000
10000000
00100000
01000000
00001000
00010000
00000010
00001000
00000000
00000001
00000000
00000010
00000000
00000000
00000000
,  // measure 56
00000100
00010000
00001000
00010000
01000000
10000000
00100000
00010000
,  // measure 57
00001000
00000100
00000001
00001000
00002002
00000000
00003003
00000000
,  // measure 58
00000001
00000000
00001000
00000100
00000010
00000000
00001000
00000000
00010000
00000000
01000000
00100000
00010000
00000000
10000000
00000000
,  // measure 59
00100000
00010000
00001000
00010000
00100000
01000000
00001000
00010000
,  // measure 60
00000100
00000000
00000010
00000001
00000100
00000000
00001000
00000000
00010000
00000000
00100000
10000000
01000000
00000000
00010000
00000000
,  // measure 61
00001000
00000010
00001000
00010000
01000000
00010000
00011000
00000000
,  // measure 62
00001000
00000000
00000100
00000010
00001000
00000000
00000001
00000000
00000010
00000000
00000100
00010000
00001000
00000000
00010000
00000000
,  // measure 63
01000000
10000000
00010000
10000000
00100000
00010000
00001000
00100000
,  // measure 64
00010000
00000000
00001000
00000100
00000010
00000000
00000001
00000000
00000100
00000000
00001000
00010000
00100000
00000000
10000000
00000000
,  // measure 65
01000000
00000000
00010000
00000000
00001000
00000000
00000010
00000000
00001000
00000000
00010000
01000000
00100000
01000000
10000000
00010000
,  // measure 66
01000000
00000000
00100000
00010000
00001000
00000000
00010000
00000000
00000100
00000000
00001000
00000000
00000100
00000000
00000001
00000000
,  // measure 67
00000100
00000000
00000010
00000001
00001000
00000000
00000010
00000000
00000100
00000000
00001000
00000000
00010000
00000000
00001000
00000000
,  // measure 68
00000100
00000000
00000010
00010000
00001000
00000000
00010000
00000000
01000000
00000000
10000000
00010000
01000000
00000000
00100000
00000000
,  // measure 69
00010000
00001000
00000100
00001000
00010000
00100000
01100000
00000000
,  // measure 70
01000000
00001000
00011000
00000000
00000100
00010000
00011000
00000000
,  // measure 71
00001000
00010000
10000000
00010000
00002000
00000000
00023000
00000000
,  // measure 72
00030100
00000000
00000010
00000001
00000100
00000000
00001000
00000000
00010000
00000000
00100000
10000000
01000000
00000000
00010000
00000000
,  // measure 73
00001000
00000010
00001000
00010000
00011000
00000000
00022000
00033000
,  // measure 74
00002000
00000000
00000000
01003000
00100000
00000000
10000000
00000000
00010000
00100000
01000000
00000000
00010000
00000000
00001000
00000000
,  // measure 75
00000020
00000000
00000000
00000031
00001000
00000000
00000010
00000000
00000100
00000000
00001000
00000000
00011000
00000000
00000000
00000000
,  // measure 76
00020000
00000000
00000000
01030000
00100000
00000000
00001000
00000000
00010000
00001000
01000000
00000000
00100000
00000000
10000000
00000000
,  // measure 77
00020000
00000000
00000000
00130000
00001000
00000000
00010000
00000000
00000100
00000000
00000010
00000000
00000011
00000000
00000000
00000000
,  // measure 78
00000002
00000000
00000000
00000103
00001000
00000000
00010000
00000000
00001000
00100000
01000000
00000000
00100000
00000000
00010000
00000000
,  // measure 79
20000000
00000000
00000000
30100000
00010000
00000000
00001000
00000000
00000100
00000000
00000001
00000000
00001001
00000000
00000000
00000000
,  // measure 80
00002000
00000000
00000000
00003100
00010000
00000000
00001000
00000000
00010000
01000000
00100000
00000000
00010000
00000000
10000000
00000000
,  // measure 81
00200000
00000000
00000000
01300000
00001000
00000000
00010000
00000000
00000100
00000000
00000010
00000000
00000110
00000000
00000110
00000000
;

//---------------dance-single - Kekkle-ESP----------------
#NOTEDATA:;
#CHARTNAME:Kekkle-ESP;
#STEPSTYPE:dance-single;
#DESCRIPTION:Kekkle-ESP;
#DIFFICULTY:Hard;
#METER:14;
#RADARVALUES:0.699113,0.810818,0.363114,0.346609,0.350735,593,549,44,42,0,0,0,0,0,0.699113,0.810818,0.363114,0.346609,0.350735,593,549,44,42,0,0,0,0,0;
#CREDIT:Kekkle;
#NOTES:
0000
0000
0000
0000
,
0000
0000
0000
0000
,
0001
0000
0000
0001
0000
0000
0001
0000
1000
0000
0100
0000
0010
0000
0100
0000
,
1000
0000
0000
1000
0000
0000
1000
0000
0001
0000
0100
0000
0110
0000
0000
0000
,
0010
0000
0000
0010
0000
0000
0010
0000
1000
0000
0001
0000
0010
0000
0100
0000
,
0010
0000
0000
0010
0000
0000
0010
0000
0001
0000
1000
0000
1010
0000
0000
0000
,
0010
0000
0000
0010
0000
0000
0010
0000
0100
0000
1000
0000
0100
0000
0001
0000
,
0010
0000
0000
0010
0000
0000
0010
0000
0100
0000
1000
0000
1100
0000
0000
0000
,
0100
0000
0000
0100
0000
0000
0100
0000
0001
0000
0100
0000
0010
0000
0001
0000
,
1000
0000
0000
1000
0000
0000
1000
0000
0010
0000
0100
0000
0001
1000
0001
1000
,
0001
0000
0000
0010
0001
0000
0010
0000
0100
0000
1000
0000
0001
0000
0000
0000
,
0100
0000
0000
0010
1000
0000
0010
0000
0100
0000
0001
0000
1000
0000
0000
0000
,
0100
0000
0000
0010
0100
0000
1000
0000
0001
0000
0100
0000
0010
0000
0000
0000
,
1000
0000
0000
0001
0010
0000
0100
0000
0001
0000
0100
0000
1000
0000
0000
0000
,
0001
0000
0000
0100
0010
0000
1000
0000
0001
0000
0010
0000
1000
0000
0010
0000
,
0100
0000
0000
1000
0100
0000
0010
0000
0001
0000
0010
0000
0100
0000
1000
0000
,
0001
0000
0000
0100
0001
0000
0100
0000
0010
0000
1000
0000
0010
0000
0001
0000
,
0010
0000
0000
0100
0001
0000
1000
0000
0100
0000
0010
0000
0110
0000
0000
0000
,
0100
0000
1001
0000
1000
0001
0100
0010
,
1000
0000
0000
1000
0000
0000
2000
0000
0000
0000
3001
0000
0011
0000
0000
0000
,
1000
0000
0101
0000
0100
0010
1000
0001
,
0100
0000
0000
0100
0000
0000
0200
0000
0000
0000
0000
0000
0310
0000
0000
0000
,
1000
0000
0101
0000
0001
1000
0100
0001
,
0100
0000
0000
0100
0000
0000
0200
0000
0000
0000
0310
0000
0011
0000
0000
0000
,
0001
0000
0101
0000
0100
1000
0100
0010
,
2000
3002
0023
2030
,
3010
0000
0010
0100
0000
0000
2000
0000
0000
0000
3001
0000
0100
0000
0010
0000
,
0100
0000
0000
0100
0000
0000
0200
0000
0000
0000
0301
0000
1001
0000
0000
0000
,
1000
0000
1000
0001
0000
0000
0020
0000
0000
0000
0031
0000
0100
0000
0010
0000
,
1010
0101
0011
1100
,
1000
0000
1000
0100
0000
0000
0020
0000
0000
0000
0130
0000
0001
0000
0100
0000
,
1000
0000
0000
1000
0000
0000
2000
0000
0000
0000
3010
0000
0110
0000
0000
0000
,
0100
0000
0100
0001
0000
0000
2000
0000
0000
0000
3100
0000
0010
0000
0001
0000
,
0011
1100
1010
0101
,
0001
0000
0000
0001
0000
0000
0001
0000
1000
0000
0100
0000
1100
0000
0000
0000
,
1000
0000
0000
1000
0000
0000
2000
0000
0000
0000
3001
0100
0001
0100
0010
0000
,
1000
0000
0000
1000
0000
0000
1000
0000
0001
0000
0010
0000
0011
0000
0000
0000
,
0001
0000
0000
0001
0000
0000
0002
0000
0000
0000
1003
0010
1000
0010
0100
0000
,
0001
0000
0000
0001
0000
0000
0001
0000
0100
0000
0010
0000
1010
0000
0000
0000
,
1000
0000
0000
1000
0000
0000
2000
0000
0000
0000
3001
0010
0001
0010
0100
0000
,
1000
0000
0000
1000
0000
0000
1000
0000
0001
0000
0100
0000
0101
0000
0000
0000
,
0001
0000
0000
0001
0000
0000
0002
0000
0000
0000
1003
0100
1000
0100
0010
0000
,
0001
0000
0100
0001
0000
0000
2000
0000
0000
0000
3100
0000
0001
0000
0100
0000
,
1000
0000
0001
0100
0000
0000
0020
0000
0000
0000
1030
0000
1001
0000
0000
0000
,
0001
0000
0010
0001
0000
0000
0020
0000
0000
0000
0130
0000
1000
0000
0001
0000
,
0100
0000
0010
1000
0000
0000
0002
0000
0000
0000
0013
0000
0110
0000
0000
0000
,
0100
0000
1000
0001
0000
0000
0200
0000
0000
0000
0310
0000
0001
0000
0010
0000
,
1000
0000
0001
0010
0000
0000
0200
0000
0000
0000
0310
0000
0011
0000
0000
0000
,
0001
0000
1000
0010
0000
0000
0200
0000
0000
0000
0301
0000
1000
0000
0100
0000
,
0110
0011
1100
1001
,
0001
0000
0100
0000
0010
0000
1000
0000
0001
0010
0001
0000
1000
0010
1000
0000
,
0001
0000
0010
0000
0100
0000
0010
0000
0001
0100
0001
0000
1000
0100
1000
0000
,
0001
0100
0001
0100
0001
0000
1000
0100
1000
0100
1000
0000
0001
0100
0010
0000
,
2000
3002
0023
0230
,
1300
0001
1000
0000
0001
0010
0001
0010
0001
0000
1000
0000
1001
0000
0000
0000
,
0001
0100
0001
0000
1000
0010
1000
0010
1000
0000
0001
0000
1001
0000
0000
0000
,
0001
0010
0100
0100
0010
0001
0100
0100
,
0010
1000
0001
1000
2002
0000
3003
0000
,
0001
0100
0020
0000
1030
0001
0020
0000
,
1030
0010
0001
0100
0010
0000
1010
0000
,
1000
0000
0001
0100
0001
0000
0000
0000
0100
0000
0010
1000
0010
0000
0000
0000
,
1000
0100
0001
0100
1000
0001
1001
0000
,
1000
0010
0200
0000
0310
1000
0002
0000
,
0013
1000
0010
0001
0100
0000
0110
0000
,
0010
0000
1000
0001
1000
0000
0000
0000
0100
0000
0010
0001
0010
0000
0000
0000
,
0100
0000
1000
0000
0100
0000
0001
0000
0100
0000
1000
0001
1000
0001
0100
0000
,
0001
0100
2000
0000
3100
0001
2000
0000
,
3100
0001
0100
1000
0001
0000
1001
0000
,
1000
0000
0001
0010
0100
0000
0000
0000
0010
0000
0001
1000
0010
0000
0000
0000
,
0100
1000
0100
0001
2000
0000
3002
0000
,
0013
0100
1100
0000
1000
0001
0101
0000
,
0100
1000
0100
0001
0200
0000
0320
0000
,
1030
0000
0100
0010
0001
0000
0000
0000
0100
0000
0010
1000
0100
0000
0000
0000
,
0010
0001
0100
0010
0220
0000
0330
0000
,
0010
0000
0000
1000
0010
0000
0100
0000
1000
0000
0100
0000
0001
0000
0010
0000
,
0100
0000
0000
0010
0001
0000
0010
0000
0100
0000
1000
0000
1001
0000
0000
0000
,
0001
0000
0000
1000
0100
0000
0001
0000
0100
0000
0010
0000
0001
0000
1000
0000
,
0010
0000
0000
0100
0001
0000
0100
0000
0010
0000
1000
0000
1001
0000
0000
0000
,
0001
0000
0000
0010
0001
0000
0010
0000
0100
1000
0100
0000
1000
0000
0001
0000
,
0100
0000
0000
0010
1000
0000
0010
0000
0001
0000
0010
0000
0110
0000
0000
0000
,
0100
0000
0000
0001
1000
0000
0100
0000
0010
0001
0010
0000
0100
0000
1000
0000
,
0001
0000
0000
0100
0010
0000
1000
0000
0001
0000
0010
0000
0100
0000
0100
0000
;

//---------------dance-double - Kekkle-EDP----------------
#NOTEDATA:;
#CHARTNAME:Kekkle-EDP;
#STEPSTYPE:dance-double;
#DESCRIPTION:Kekkle-EDP;
#DIFFICULTY:Hard;
#METER:14;
#RADARVALUES:0.684965,0.844602,0.247578,0.346609,0.354862,581,551,30,42,0,0,0,0,0,0.684965,0.844602,0.247578,0.346609,0.354862,581,551,30,42,0,0,0,0,0;
#CREDIT:Kekkle;
#NOTES:
00000000
00000000
00000000
00000000
,
00000000
00000000
00000000
00000000
,
10000000
00000000
00000000
10000000
00000000
00000000
10000000
00000000
00010000
00000000
00100000
00000000
01000000
00000000
00100000
00000000
,
00001000
00000000
00000000
00001000
00000000
00000000
00001000
00000000
00010000
00000000
00000010
00000000
00001010
00000000
00000000
00000000
,
00001000
00000000
00000000
00001000
00000000
00000000
00001000
00000000
00000001
00000000
00000010
00000000
00000100
00000000
00001000
00000000
,
00000100
00000000
00000000
00000100
00000000
00000000
00000100
00000000
00010000
00000000
00001000
00000000
00011000
00000000
00000000
00000000
,
00010000
00000000
00000000
00010000
00000000
00000000
00010000
00000000
01000000
00000000
00100000
00000000
01000000
00000000
10000000
00000000
,
00010000
00000000
00000000
00010000
00000000
00000000
00010000
00000000
01000000
00000000
00100000
00000000
01100000
00000000
00000000
00000000
,
01000000
00000000
00000000
01000000
00000000
00000000
01000000
00000000
00100000
00000000
00010000
00000000
00001000
00000000
00010000
00000000
,
00000100
00000000
00000000
00000100
00000000
00000000
00000100
00000000
00001000
00000000
00000001
00000000
00001000
00000001
00001000
00000001
,
00001000
00000000
00000000
00000100
00010000
00000000
00001000
00000000
00100000
00000000
00010000
00000000
10000000
00000000
00000000
00000000
,
00100000
00000000
00000000
10000000
00010000
00000000
01000000
00000000
00001000
00000000
00010000
00000000
00001000
00000000
00000000
00000000
,
00000100
00000000
00000000
00000010
00001000
00000000
00000001
00000000
00000010
00000000
00000100
00000000
00010000
00000000
00000000
00000000
,
00000100
00000000
00000000
00010000
00001000
00000000
00100000
00000000
00010000
00000000
00100000
00000000
01000000
00000000
00000000
00000000
,
10000000
00000000
00000000
00010000
01000000
00000000
00001000
00000000
00100000
00000000
00010000
00000000
00001000
00000000
00000100
00000000
,
00000010
00000000
00000000
00000001
00000100
00000000
00000010
00000000
00001000
00000000
00000100
00000000
00010000
00000000
00001000
00000000
,
00100000
00000000
00000000
01000000
10000000
00000000
01000000
00000000
00100000
00000000
00001000
00000000
00010000
00000000
00000010
00000000
,
00001000
00000000
00000000
00000001
00001000
00000000
00000001
00000000
00000010
00000000
00000100
00000000
00000110
00000000
00000000
00000000
,
00000010
00000000
00001001
00000000
00000001
00000100
00001000
00010000
,
00001000
00000000
00000000
00001000
00000000
00000000
00002000
00000000
00000000
00000000
00013000
00000000
00011000
00000000
00000000
00000000
,
00010000
00000000
00101000
00000000
00001000
00100000
01000000
10000000
,
00010000
00000000
00000000
00010000
00000000
00000000
00020000
00000000
00000000
00000000
00000000
00000000
10030000
00000000
00000000
00000000
,
00100000
00000000
00011000
00000000
00010000
00001000
00000100
00000010
,
00001000
00000000
00000000
00001000
00000000
00000000
00002000
00000000
00000000
00000000
00003001
00000000
00001001
00000000
00000000
00000000
,
00001000
00000000
00001100
00000000
00000100
00000010
00000001
00001000
,
00000020
00020030
00030200
00002300
,
00013000
00000000
00000000
00010000
00000000
00000000
00010000
00000000
00100000
00000000
10000000
00000000
00100000
00000000
01000000
00000000
,
10000000
00000000
00000000
10000000
00000000
00000000
20000000
00000000
00000000
00000000
30010000
00000000
10010000
00000000
00000000
00000000
,
10000000
00000000
00000000
10000000
00000000
00000000
10000000
00000000
00100000
00000000
00010000
00000000
00001000
00000000
00100000
00000000
,
00002000
00023000
00030200
00000320
,
00000031
00000000
00000000
00000001
00000000
00000000
00000001
00000000
00000100
00000000
00001000
00000000
00010000
00000000
00000010
00000000
,
00001000
00000000
00000000
00001000
00000000
00000000
00002000
00000000
00000000
00000000
00003100
00000000
00010100
00000000
00000000
00000000
,
00010000
00000000
00000000
00010000
00000000
00000000
00010000
00000000
00001000
00000000
00100000
00000000
01000000
00000000
10000000
00000000
,
00020000
02030000
03200000
00320000
,
00031000
00000000
00000000
00001000
00000000
00000000
00001000
00000000
00000100
00000000
00000001
00000000
00001000
00000000
00000000
00000000
,
00000100
00000000
00000000
00000100
00000000
00000000
00000200
00000000
00000000
00000000
00010300
00001000
00010000
00001000
01000000
00000000
,
00010000
00000000
00000000
00010000
00000000
00000000
00010000
00000000
10000000
00000000
01000000
00000000
00100000
00000000
00000000
00000000
,
00010000
00000000
00000000
00010000
00000000
00000000
00020000
00000000
00000000
00000000
01030000
00001000
01000000
00001000
00010000
00000000
,
00000100
00000000
00000000
00000100
00000000
00000000
00000100
00000000
00000010
00000000
00000001
00000000
00000100
00000000
00000000
00000000
,
00001000
00000000
00000000
00001000
00000000
00000000
00002000
00000000
00000000
00000000
01003000
00010000
01000000
00010000
00100000
00000000
,
01000000
00000000
00000000
01000000
00000000
00000000
01000000
00000000
10000000
00000000
00100000
00000000
00010000
00000000
00000000
00000000
,
00001000
00000000
00000000
00001000
00000000
00000000
00002000
00000000
00000000
00000000
00013000
00000100
00010000
00000100
00001000
00000000
,
00000001
00000000
00000010
00000001
00000000
00000000
00000020
00000000
00000000
00000000
00001030
00000000
00000010
00000000
00000100
00000000
,
00010000
00000000
00000100
00010000
00000000
00000000
00002000
00000000
00000000
00000000
01003000
00000000
01010000
00000000
00000000
00000000
,
00010000
00000000
01000000
00010000
00000000
00000000
00200000
00000000
00000000
00000000
10300000
00000000
00100000
00000000
01000000
00000000
,
10000000
00000000
00010000
10000000
00000000
00000000
00200000
00000000
00000000
00000000
01300000
00000000
01001000
00000000
00000000
00000000
,
00001000
00000000
00010000
00000100
00000000
00000000
00000020
00000000
00000000
00000000
00000031
00000000
00001000
00000000
00000010
00000000
,
00000100
00000000
00001000
00010000
00000000
00000000
00000200
00000000
00000000
00000000
00010300
00000000
00011000
00000000
00000000
00000000
,
00001000
00000000
00100000
00010000
00000000
00000000
00200000
00000000
00000000
00000000
01300000
00000000
10000000
00000000
00010000
00000000
,
01010000
01001000
00011000
00010100
,
00000100
00000000
00000010
00000000
00000001
00000000
00001000
00000000
00000010
00010000
00000010
00000000
00001000
00000100
00001000
00000000
,
00000100
00000000
00010000
00000000
00001000
00000000
00100000
00000000
00001000
01000000
00001000
00000000
00100000
00010000
00100000
00000000
,
00010000
10000000
00010000
10000000
00010000
00000000
01000000
00001000
01000000
00001000
01000000
00000000
00001000
00010000
00001000
00010000
,
00000200
00000320
00000032
00000203
,
00000310
00001000
00000010
00000000
00010000
00000100
00010000
00000100
00010000
00000000
00001000
00000000
00011000
00000000
00000000
00000000
,
00100000
00001000
00100000
00000000
00001000
01000000
00001000
01000000
00001000
00000000
00010000
00000000
00011000
00000000
00000000
00000000
,
00001000
01000000
00010000
01000000
00001000
00010000
00000100
00010000
,
00001000
00001000
00010000
00010000
00022000
00000000
00033000
00000000
,
00001000
01000000
00200000
00000000
10300000
00010000
00200000
00000000
,
01300000
10000000
01000000
00010000
00001000
00000000
00011000
00000000
,
00010000
00000000
00000010
00001000
00000010
00000000
00000000
00000000
00000100
00000000
00000001
00001000
00000001
00000000
00000000
00000000
,
00000010
00001000
00010000
00000010
00001000
00010000
01000000
00000000
,
00010000
10000000
02000000
00000000
03010000
00001000
02000000
00000000
,
03100000
00010000
00001000
00000100
00000010
00000000
00001001
00000000
,
00000001
00000000
00001000
00000100
00001000
00000000
00000000
00000000
00000100
00000000
00010000
00001000
00010000
00000000
00000000
00000000
,
00001000
00000000
01000000
00000000
00100000
00000000
10000000
00000000
00010000
00000000
00100000
01000000
00100000
01000000
10000000
00000000
,
00010000
01000000
00200000
00000000
00310000
00001000
00000200
00000000
,
00000310
00001000
00000001
00000010
00000100
00000000
00010100
00000000
,
00010000
00000000
00001000
00100000
00010000
00000000
00000000
00000000
10000000
00000000
01000000
00100000
00010000
00000000
00000000
00000000
,
01000000
00100000
00010000
00001000
00010000
00000010
00000100
00000000
,
00000001
00000100
00001000
00000000
00010000
00100000
10000000
00000000
,
00010000
00100000
00010000
00001000
00000100
00000000
00000110
00000000
,
00000010
00000000
00000001
00001000
00000010
00000000
00000000
00000000
00001000
00000000
00000100
00010000
00001000
00000000
00000000
00000000
,
00010000
01000000
10000000
00010000
20020000
00000000
30030000
00000000
,
10000000
00000000
00000000
00010000
01000000
00000000
00001000
00000000
00010000
00000000
00000100
00000000
00001000
00000000
00000100
00000000
,
00000010
00000000
00000000
00000001
00000100
00000000
00001000
00000000
00000100
00000000
00000010
00000000
00000110
00000000
00000000
00000000
,
00000100
00000000
00000000
00000001
00001000
00000000
00000100
00000000
00010000
00000000
00001000
00000000
00100000
00000000
01000000
00000000
,
10000000
00000000
00000000
00010000
01000000
00000000
00100000
00000000
00010000
00000000
00001000
00000000
00011000
00000000
00000000
00000000
,
00010000
00000000
00000000
00000100
00000010
00000000
00000001
00000000
00001000
00000010
00001000
00000000
00000010
00000000
00010000
00000000
,
00000100
00000000
00000000
00010000
00001000
00000000
00100000
00000000
01000000
00000000
00100000
00000000
00110000
00000000
00000000
00000000
,
00010000
00000000
00000000
10000000
00100000
00000000
01000000
00000000
00001000
01000000
00001000
00000000
00100000
00000000
00001000
00000000
,
00010000
00000000
00000000
00000100
00001000
00000000
00000100
00000000
00000010
00000000
00000001
00000000
00001000
00000000
00001000
00000000
;

//---------------dance-single - Kekkle-DSP----------------
#NOTEDATA:;
#CHARTNAME:Kekkle-DSP;
#STEPSTYPE:dance-single;
#DESCRIPTION:Kekkle-DSP;
#DIFFICULTY:Medium;
#METER:11;
#RADARVALUES:0.516377,0.540545,0.198062,0.610692,0.132042,438,414,24,74,0,0,0,0,0,0.516377,0.540545,0.198062,0.610692,0.132042,438,414,24,74,0,0,0,0,0;
#CREDIT:Kekkle;
#NOTES:
0000
0000
0000
0000
,
0000
0000
0000
0000
,
1000
0000
1001
0000
0001
0100
0010
0000
,
1000
1001
0001
0001
,
1000
0000
1100
0000
0100
0010
0001
0000
,
0100
0101
0001
0001
,
0100
0000
0110
0000
0010
1000
0001
0000
,
0010
0110
0100
0100
,
1000
0000
1001
0000
0001
0100
0010
0000
,
1000
0000
1010
0000
0010
0100
0010
0100
,
0002
0000
1003
0000
0100
1000
0100
0000
,
0020
0000
0031
0000
0100
0001
0100
0000
,
0020
0000
1030
0000
0001
1000
0001
0000
,
0020
0000
0130
0000
1000
0001
1000
0000
,
0002
0000
0103
0000
0010
1000
0001
0000
,
2000
0000
3100
0000
0010
0001
1000
0000
,
0002
0000
0103
0000
0010
1000
0100
0000
,
0020
0000
0031
0000
0100
0010
0010
0000
,
1000
0000
1001
0000
0001
0100
0010
0000
,
1000
0000
0000
1000
0000
0000
2000
0000
0000
0000
0000
0000
3001
0000
0000
0000
,
0010
0000
0011
0000
0001
1000
0100
0000
,
0010
0000
0000
0010
0000
0000
0020
0000
0000
0000
0000
0000
0031
0000
0000
0000
,
1000
0000
1001
0000
0001
1000
0010
0000
,
0100
0000
0000
0100
0000
0000
0200
0000
0000
0000
0000
0000
0310
0000
0000
0000
,
1000
0000
1010
0000
0010
0100
0001
0100
,
0020
2030
3002
0203
,
0310
0000
0000
0010
0000
0000
0020
0000
0000
0000
0000
0000
1030
0000
0000
0000
,
0001
0000
0000
0001
0000
0000
0002
0000
0000
0000
0000
0000
0013
0000
0000
0000
,
0100
0000
0000
0100
0000
0000
0200
0000
0000
0000
0000
0000
1300
0000
0000
0000
,
0002
2003
3002
0023
,
0130
0000
0000
0100
0000
0000
0200
0000
0000
0000
0000
0000
1300
0000
0000
0000
,
0001
0000
0000
0001
0000
0000
0002
0000
0000
0000
0000
0000
0103
0000
0000
0000
,
0010
0000
0000
0010
0000
0000
0020
0000
0000
0000
0000
0000
1030
0000
0000
0000
,
0002
0023
0230
2300
,
3001
0000
0000
0100
0000
0000
0010
0000
0000
0000
0000
0000
1010
0000
0000
0000
,
1000
0000
0000
0001
0000
0000
0020
0000
0000
0000
0031
0000
1000
0000
0100
0000
,
0010
0000
0000
0001
0000
0000
1000
0000
0000
0000
0000
0000
1010
0000
0000
0000
,
0010
0000
0000
1000
0000
0000
0002
0000
0000
0000
1003
0000
0001
0000
0100
0000
,
0010
0000
0000
1000
0000
0000
0001
0000
0000
0000
0000
0000
1001
0000
0000
0000
,
1000
0000
0000
0010
0000
0000
0200
0000
0000
0000
0310
0000
1000
0000
0001
0000
,
0010
0000
0000
0100
0000
0000
1000
0000
0000
0000
0000
0000
1100
0000
0000
0000
,
0100
0000
0000
0010
0000
0000
0002
0000
0000
0000
0103
0000
0010
0000
1000
0000
,
0001
0000
0000
0001
0000
0000
0002
0000
0000
0000
0000
0000
0103
0000
0000
0000
,
0010
0000
0000
0010
0000
0000
0020
0000
0000
0000
1030
0000
0001
0000
0000
0000
,
0010
0000
0000
0010
0000
0000
0020
0000
0000
0000
0000
0000
0130
0000
0000
0000
,
1000
0000
0000
1000
0000
0000
2000
0000
0000
0000
3001
0000
0010
0000
0000
0000
,
0001
0000
0000
0001
0000
0000
0002
0000
0000
0000
0000
0000
0103
0000
0000
0000
,
0010
0000
0000
0010
0000
0000
0020
0000
0000
0000
0000
0000
0130
0000
0000
0000
,
0001
0000
0000
0001
0000
0000
0002
0000
0000
0000
1003
0000
0100
0000
0010
0000
,
0200
2300
3002
0203
,
0310
1000
0001
0100
0001
0010
0100
0000
,
1000
0100
0010
0001
0100
0001
0010
0000
,
0001
0100
0001
1000
0100
1000
0001
0100
,
0020
2030
3002
0023
,
0130
1000
0100
0010
0001
0000
0101
0000
,
0100
0010
1000
0001
0100
0000
1010
0000
,
1000
0001
0010
0000
0001
1000
0010
0000
,
0100
0010
0100
0010
0200
0000
0310
0000
,
2000
0000
3001
0010
0200
0000
0310
0001
,
1000
0010
0100
0001
0100
0000
1001
0000
,
0002
0000
1003
0100
0020
0000
0031
0100
,
0010
0100
0001
0100
0010
0000
0110
0000
,
0200
0000
0301
1000
0200
0000
0310
0001
,
0010
0100
1000
0010
0100
0000
0101
0000
,
0002
0000
1003
0010
0200
0000
0310
1000
,
0001
0100
0001
0010
0100
1000
0001
0100
,
0002
0000
1003
0100
0020
0000
0130
1000
,
0100
0010
0001
0100
0001
0000
1001
0000
,
2000
0000
3001
0100
0020
0000
1030
0001
,
0100
0001
0010
0100
1000
0000
1001
0000
,
0002
0103
2000
3100
,
0001
0100
1000
0100
0001
0000
1001
0000
,
2000
0000
3001
0010
0200
0000
1300
0001
,
0100
0010
1000
0010
0200
0000
0301
0000
,
1000
0000
0000
1000
0000
0000
2000
0000
0000
0000
3001
0000
0010
0000
0100
0000
,
0010
0000
0000
0010
0000
0000
0020
0000
0000
0000
0031
0000
1000
0000
0000
0000
,
0010
0000
0000
0010
0000
0000
0020
0000
0000
0000
1030
0000
0001
0000
0010
0000
,
0100
0000
0000
0100
0000
0000
0200
0000
0000
0000
1300
0000
0001
0000
0000
0000
,
1000
0000
0000
1000
0000
0000
2000
0000
0000
0000
3010
0000
0100
0000
0001
0000
,
0100
0000
0000
0100
0000
0000
0200
0000
0000
0000
0310
0000
1000
0000
0000
0000
,
0100
0000
0000
0100
0000
0000
0200
0000
0000
0000
0310
0000
0001
0000
1000
0000
,
0001
0000
0000
0001
0000
0000
0002
0000
0000
0000
0103
0000
0010
0000
0010
0000
;

//---------------dance-double - Kekkle-DDP----------------
#NOTEDATA:;
#CHARTNAME:Kekkle-DDP;
#STEPSTYPE:dance-double;
#DESCRIPTION:Kekkle-DDP;
#DIFFICULTY:Medium;
#METER:11;
#RADARVALUES:0.509303,0.540545,0.156799,0.610692,0.132042,432,413,19,74,0,0,0,0,0,0.509303,0.540545,0.156799,0.610692,0.132042,432,413,19,74,0,0,0,0,0;
#CREDIT:Kekkle;
#NOTES:
00000000
00000000
00000000
00000000
,
00000000
00000000
00000000
00000000
,
10000000
00000000
10010000
00000000
00010000
01000000
00001000
00000000
,
00010000
00000010
00001000
00001000
,
00000001
00000000
00000011
00000000
00000010
00000100
00001000
00000000
,
00000100
00010000
00001000
00001000
,
00100000
00000000
00110000
00000000
00010000
01000000
00100000
00000000
,
10000000
00010000
01000000
01000000
,
00001000
00000000
00101000
00000000
00100000
00001000
00010000
00000000
,
00000010
00000000
00001000
00000000
00000010
00000100
00000001
00000100
,
00000020
00000000
00001030
00000000
00000100
00010000
00000100
00000000
,
00020000
00000000
00031000
00000000
00100000
00010000
00100000
00000000
,
02000000
00000000
13000000
00000000
00010000
01000000
00010000
00000000
,
00200000
00000000
00301000
00000000
00010000
00000100
00010000
00000000
,
00000020
00000000
00001030
00000000
00000001
00000010
00000100
00000000
,
00020000
00000000
00030100
00000000
00001000
00000100
00010000
00000000
,
00002000
00000000
01003000
00000000
00100000
01000000
00010000
00000000
,
20000000
00000000
31000000
00000000
00100000
00010000
00010000
00000000
,
10000000
00000000
10100000
00000000
00100000
01000000
00001000
00000000
,
00010000
00000000
00000000
00010000
00000000
00000000
00020000
00000000
00000000
00000000
00000000
00000000
00031000
00000000
00000000
00000000
,
00000010
00000000
00000110
00000000
00000100
00001000
00000001
00000000
,
00000100
00000000
00000000
00000100
00000000
00000000
00000200
00000000
00000000
00000000
00000000
00000000
00000310
00000000
00000000
00000000
,
00010000
00000000
00010100
00000000
00000100
00010000
00001000
00000000
,
01000000
00000000
00000000
01000000
00000000
00000000
02000000
00000000
00000000
00000000
00000000
00000000
03010000
00000000
00000000
00000000
,
10000000
00000000
11000000
00000000
01000000
10000000
00010000
00000000
,
02000000
03002000
00023000
00030200
,
00000310
00000000
00000000
00000010
00000000
00000000
00000020
00000000
00000000
00000000
00000000
00000000
00000031
00000000
00000000
00000000
,
00001000
00000000
00000000
00001000
00000000
00000000
00002000
00000000
00000000
00000000
00000000
00000000
00003010
00000000
00000000
00000000
,
00010000
00000000
00000000
00010000
00000000
00000000
00020000
00000000
00000000
00000000
00000000
00000000
00030100
00000000
00000000
00000000
,
00002000
00023000
00230000
02300000
,
13000000
00000000
00000000
10000000
00000000
00000000
20000000
00000000
00000000
00000000
00000000
00000000
30010000
00000000
00000000
00000000
,
01000000
00000000
00000000
01000000
00000000
00000000
02000000
00000000
00000000
00000000
00000000
00000000
03100000
00000000
00000000
00000000
,
00010000
00000000
00000000
00010000
00000000
00000000
00020000
00000000
00000000
00000000
00000000
00000000
00031000
00000000
00000000
00000000
,
00000200
00000320
00002030
00003002
,
00000013
00000000
00000000
00000100
00000000
00000000
00001000
00000000
00000000
00000000
00000000
00000000
00010100
00000000
00000000
00000000
,
00010000
00000000
00000000
00001000
00000000
00000000
02000000
00000000
00000000
00000000
03100000
00000000
10000000
00000000
00010000
00000000
,
10000000
00000000
00000000
01000000
00000000
00000000
00200000
00000000
00000000
00000000
00000000
00000000
00301000
00000000
00000000
00000000
,
00010000
00000000
00000000
00000010
00000000
00000000
00000200
00000000
00000000
00000000
00000310
00000000
00010000
00000000
00000100
00000000
,
00001000
00000000
00000000
00000100
00000000
00000000
00010000
00000000
00000000
00000000
00000000
00000000
01001000
00000000
00000000
00000000
,
01000000
00000000
00000000
00010000
00000000
00000000
00200000
00000000
00000000
00000000
01300000
00000000
10000000
00000000
00010000
00000000
,
01000000
00000000
00000000
00001000
00000000
00000000
00010000
00000000
00000000
00000000
00000000
00000000
00001010
00000000
00000000
00000000
,
00000010
00000000
00000000
00000100
00000000
00000000
00000002
00000000
00000000
00000000
00001003
00000000
00000100
00000000
00010000
00000000
,
00001000
00000000
00000000
00001000
00000000
00000000
00002000
00000000
00000000
00000000
00000000
00000000
01003000
00000000
00000000
00000000
,
00010000
00000000
00000000
00010000
00000000
00000000
00020000
00000000
00000000
00000000
00130000
00000000
01000000
00000000
00000000
00000000
,
10000000
00000000
00000000
10000000
00000000
00000000
20000000
00000000
00000000
00000000
00000000
00000000
30010000
00000000
00000000
00000000
,
01000000
00000000
00000000
01000000
00000000
00000000
02000000
00000000
00000000
00000000
03100000
00000000
10000000
00000000
00000000
00000000
,
00010000
00000000
00000000
00010000
00000000
00000000
00020000
00000000
00000000
00000000
00000000
00000000
00130000
00000000
00000000
00000000
,
00001000
00000000
00000000
00001000
00000000
00000000
00002000
00000000
00000000
00000000
00000000
00000000
00013000
00000000
00000000
00000000
,
00000010
00000000
00000000
00000010
00000000
00000000
00000020
00000000
00000000
00000000
00000130
00000000
00000001
00000000
00001000
00000000
,
00000002
00000023
00000230
00020300
,
00031000
01000000
00010000
00100000
00001000
01000000
00010000
00000000
,
00100000
00001000
00010000
00000100
00010000
00001000
00100000
00000000
,
00001000
00010000
00000010
00001000
00000010
00000100
00000001
00001000
,
00000002
00000023
00000230
00002300
,
00003100
00010000
00001000
00100000
00010000
00100000
01000000
00000000
,
10000000
00010000
01000000
00010000
00100000
00001000
00010000
00000000
,
00000010
00001000
00000001
00000000
00000010
00000001
00001000
00000000
,
00000010
00010000
00000010
00010000
00002000
00000000
00013000
00000000
,
00002000
00000000
00103000
00010000
20000000
00000000
31000000
00100000
,
00010000
00100000
01000000
10000000
00010000
00000000
10010000
00000000
,
20000000
00000000
30100000
01000000
00002000
00000000
00013000
00000100
,
00000010
00000100
00001000
00000001
00001000
00000000
00001001
00000000
,
00000002
00000000
00000103
00000010
00020000
00000000
00030100
00001000
,
00000100
00000010
00000100
00010000
00001000
00000000
00011000
00000000
,
00020000
00000000
00031000
00100000
02000000
00000000
03100000
00010000
,
10000000
00100000
01000000
00001000
00100000
00000000
00110000
00000000
,
00020000
00000000
01030000
00001000
00020000
00000000
00030010
00001000
,
00000010
00000100
00000001
00001000
00000100
00000000
00010100
00000000
,
00020000
00000000
00031000
01000000
00020000
00000000
01030000
00100000
,
10000000
00100000
01000000
00001000
00010000
00000000
00011000
00000000
,
00002000
01000000
00023000
00000100
,
00031000
00100000
01000000
00100000
00001000
00000000
00011000
00000000
,
00020000
00000000
00030010
00001000
00000200
00000000
00000310
00000001
,
00000010
00000100
00010000
00001000
01000000
00000000
01010000
00000000
,
00010000
00000000
00000000
00010000
00000000
00000000
00020000
00000000
00000000
00000000
10030000
00000000
01000000
00000000
00100000
00000000
,
00010000
00000000
00000000
00010000
00000000
00000000
00020000
00000000
00000000
00000000
01030000
00000000
00001000
00000000
00000000
00000000
,
00010000
00000000
00000000
00010000
00000000
00000000
00020000
00000000
00000000
00000000
00030010
00000000
00001000
00000000
00000001
00000000
,
00000100
00000000
00000000
00000100
00000000
00000000
00000200
00000000
00000000
00000000
00000310
00000000
00001000
00000000
00000000
00000000
,
00000001
00000000
00000000
00000001
00000000
00000000
00000002
00000000
00000000
00000000
00000013
00000000
00000100
00000000
00001000
00000000
,
00000100
00000000
00000000
00000100
00000000
00000000
00000200
00000000
00000000
00000000
00010300
00000000
00001000
00000000
00000000
00000000
,
01000000
00000000
00000000
01000000
00000000
00000000
02000000
00000000
00000000
00000000
03010000
00000000
10000000
00000000
00010000
00000000
,
00100000
00000000
00000000
00100000
00000000
00000000
00200000
00000000
00000000
00000000
01300000
00000000
10000000
00000000
10000000
00000000
;

//---------------dance-single - Kekkle-BSP----------------
#NOTEDATA:;
#CHARTNAME:Kekkle-BSP;
#STEPSTYPE:dance-single;
#DESCRIPTION:Kekkle-BSP;
#DIFFICULTY:Easy;
#METER:8;
#RADARVALUES:0.393767,0.404790,0.074273,0.115536,0,334,325,9,14,0,0,0,0,0,0.393767,0.404790,0.074273,0.115536,0,334,325,9,14,0,0,0,0,0;
#CREDIT:Kekkle;
#NOTES:
0000
0000
0000
0000
,
0000
0000
0000
0000
,
0001
0100
0010
0010
,
1000
0001
1000
1001
,
0001
0010
0100
0100
,
0010
0001
1000
1001
,
0001
0100
0010
0010
,
1000
0010
0100
0110
,
0010
1000
0001
0001
,
0010
0100
0010
0110
,
0100
1000
0100
0100
,
0010
0001
0010
0010
,
0001
0100
0001
0001
,
1000
0010
1000
1000
,
0010
0100
0001
0001
,
0010
0100
1000
1000
,
0001
0100
0010
0010
,
1000
0001
1000
1001
,
0001
1000
0010
0000
,
0100
0100
0100
0001
,
1000
0100
0010
0000
,
0001
0001
0002
0003
,
1000
0010
0100
0000
,
0010
0010
0010
1000
,
0001
0010
0100
0010
,
0001
0001
1000
1000
,
0010
0100
0001
0000
,
1000
1000
1000
0010
,
0100
0001
0100
0000
,
0010
0010
0100
0100
,
0010
1000
0100
0000
,
0010
0010
0010
0001
,
0010
0100
1000
0000
,
0001
0001
1000
1000
,
0010
0100
0001
0001
,
1000
0000
0100
0000
0010
0001
0010
0000
,
0001
1000
0010
0010
,
0100
0000
0010
0000
1000
0001
1000
0000
,
0001
0010
0100
0100
,
1000
0000
0001
0000
0100
0001
0100
0000
,
0010
1000
0010
0010
,
0100
0000
0001
0000
1000
0100
1000
0000
,
0100
1000
0001
0100
,
0010
0010
0010
1000
,
0001
0010
0100
0010
,
0001
0001
0001
1000
,
0010
0100
0010
1000
,
0100
0100
0100
0010
,
0001
1000
0010
0100
,
0010
0010
1000
1000
,
0001
0000
0010
0000
0001
0010
0001
0000
,
1000
0000
0010
0000
1000
0010
1000
0000
,
0001
0010
0000
0001
1000
0000
0001
0100
,
0001
0100
0010
0010
,
1000
0000
0001
0000
0010
0001
0010
0000
,
0001
0000
1000
0000
0010
1000
0010
0000
,
0100
0001
1000
0010
,
0100
0001
0100
0000
0020
0000
0030
0000
,
2000
3001
2000
3010
,
0100
0001
0100
0100
,
0002
0103
0002
1003
,
0001
0010
0100
0100
,
2000
3010
2000
3001
,
0010
0001
0100
0100
,
0002
0013
0002
1003
,
0010
0100
0001
1001
,
2000
3100
0002
0103
,
1000
0010
0100
0000
0010
0000
0010
0000
,
2000
3010
0002
0013
,
0100
0001
1000
1000
,
0001
0100
1000
0010
,
0001
1000
0001
0000
1001
0000
0000
0000
,
1000
0100
0010
0001
,
0100
0100
1001
0000
,
0001
0100
0001
0001
,
1000
0000
0100
0000
0010
0001
0010
0000
,
0001
0100
0010
0010
,
1000
0000
0001
0000
0100
0001
0100
0000
,
0001
0010
0001
0001
,
1000
0000
0100
0000
0010
0100
0010
0000
,
0100
1000
0001
0001
,
0100
0010
1000
1001
;

//---------------dance-double - Kekkle-BDP----------------
#NOTEDATA:;
#CHARTNAME:Kekkle-BDP;
#STEPSTYPE:dance-double;
#DESCRIPTION:Kekkle-BDP;
#DIFFICULTY:Easy;
#METER:8;
#RADARVALUES:0.387872,0.404790,0.066021,0.140294,0,329,321,8,17,0,0,0,0,0,0.387872,0.404790,0.066021,0.140294,0,329,321,8,17,0,0,0,0,0;
#CREDIT:Kekkle;
#NOTES:
00000000
00000000
00000000
00000000
,
00000000
00000000
00000000
00000000
,
00001000
01000000
00010000
00010000
,
01000000
00100000
10000000
10010000
,
00010000
00100000
00001000
00001000
,
00010000
00000010
00001000
00001001
,
00000001
00000010
00000100
00000100
,
00000010
00000100
00010000
00011000
,
00001000
01000000
00100000
00100000
,
01000000
00010000
10000000
10000000
,
01000000
00100000
00001000
00001000
,
00100000
00001000
00010000
00010000
,
00000010
00001000
00000010
00000010
,
00000100
00000001
00001000
00001000
,
00000100
00001000
00010000
00010000
,
00100000
00001000
00010000
00010000
,
00100000
01000000
00001000
00001000
,
00100000
00001000
00010000
00011000
,
00001000
01000000
00100000
00000000
,
10000000
00010000
00100000
00100000
,
00010000
00001000
00000100
00000000
,
00000010
00000001
00002000
00003000
,
00000001
00000100
00000010
00000000
,
00010000
00000010
00001000
00001000
,
00000100
00010000
00001000
00000000
,
01000000
01000000
00010000
00010000
,
10000000
01000000
00100000
00000000
,
00001000
01000000
00010000
00010000
,
00100000
00001000
00010000
00000000
,
00000010
00000010
00001000
00001000
,
00000001
00000010
00000100
00000000
,
00010000
00000100
00001000
00001000
,
00000100
00010000
00001000
00000000
,
01000000
01000000
00010000
00010000
,
10000000
01000000
00100000
00100000
,
00001000
00000000
01000000
00000000
00010000
01000000
00010000
00000000
,
00100000
00001000
00010000
00010000
,
00000010
00000000
00001000
00000000
00000010
00000100
00000010
00000000
,
00001000
00000001
00000010
00000010
,
00000100
00000000
00010000
00000000
00000100
00001000
00000100
00000000
,
00010000
00001000
00100000
00100000
,
01000000
00000000
00100000
00000000
00001000
00010000
00001000
00000000
,
01000000
00001000
00010000
00000010
,
00001000
00001000
00001000
00000001
,
00000010
00000100
00001000
00000100
,
00000010
00000010
00000010
00000100
,
00010000
00001000
00000100
00001000
,
00010000
00010000
00010000
00100000
,
01000000
00010000
10000000
01000000
,
00100000
00100000
00001000
00001000
,
00010000
00000000
00000010
00000000
00001000
00000010
00001000
00000000
,
00000010
00000000
00010000
00000000
00001000
00010000
00001000
00000000
,
00100000
00010000
00000000
10000000
00010000
00000000
01000000
00010000
,
01000000
00001000
00010000
00010000
,
00000100
00000000
00000010
00000000
00000100
00000010
00000100
00000000
,
00010000
00000000
00000100
00000000
00010000
00000100
00010000
00000000
,
00001000
01000000
00010000
00100000
,
01000000
00100000
10010000
00000000
,
20000000
30100000
20000000
30010000
,
00100000
00001000
00010000
00010000
,
00000020
00001030
00000020
00000130
,
00000001
00001000
00000100
00000100
,
00020000
00031000
00020000
00030100
,
00010000
00001000
00100000
00100000
,
00020000
01030000
00020000
10030000
,
01000000
00100000
00010000
00010000
,
02000000
13000000
02000000
03010000
,
00100000
00001000
00010000
00010000
,
00000200
00001300
00000200
00000301
,
00000100
00000010
00000100
00000100
,
00020000
00000100
00032000
01000000
,
00013000
00001000
00011000
00000000
,
00020000
00030010
00002000
00003010
,
00000100
00000001
00001001
00000000
,
00001000
00000100
00010000
00010000
,
00001000
00000000
01000000
00000000
00010000
01000000
00010000
00000000
,
10000000
01000000
00100000
00100000
,
00001000
00000000
01000000
00000000
00010000
01000000
00010000
00000000
,
01000000
00001000
00010000
00010000
,
00000100
00000000
00001000
00000000
00000100
00000010
00000100
00000000
,
00000010
00000001
00001000
00001000
,
00000010
00010000
00001000
00011000
;

//---------------dance-single - Kekkle-bSP----------------
#NOTEDATA:;
#CHARTNAME:Kekkle-bSP;
#STEPSTYPE:dance-single;
#DESCRIPTION:Kekkle-bSP;
#DIFFICULTY:Beginner;
#METER:4;
#RADARVALUES:0.225178,0.269035,0.041263,0.115536,0,191,186,5,14,0,0,0,0,0,0.225178,0.269035,0.041263,0.115536,0,191,186,5,14,0,0,0,0,0;
#CREDIT:Kekkle;
#NOTES:
0000
0000
0000
0000
,
0000
0000
0000
0000
,
0001
0000
1000
0000
,
0010
0100
0010
0000
,
1000
0000
0001
0000
,
0010
0100
0010
0000
,
0001
0000
1000
0000
,
0010
1000
0010
0000
,
1000
0000
0001
0000
,
0010
0001
0010
0000
,
0001
0000
0100
0000
,
1000
0000
0010
0000
,
0001
0000
0010
0000
,
1000
0000
0100
0000
,
0001
0000
0100
0000
,
1000
0000
0100
0000
,
0001
0000
0010
0000
,
1000
0000
0010
0000
,
0001
0000
0100
0000
,
0010
1000
0010
0000
,
0100
0000
0001
0000
,
1000
1000
1000
0000
,
0001
0000
0010
0000
,
0100
0010
0100
0000
,
1000
0000
0001
0000
,
0100
0000
0110
0000
,
0010
0000
1000
0000
,
0001
0010
0001
0000
,
1000
0000
0100
0000
,
1000
1000
1000
0000
,
0010
0000
0100
0000
,
0001
0100
0001
0000
,
0010
0000
0100
0000
,
1000
0000
1001
0000
,
0002
0000
0103
0000
,
0002
0000
1003
0000
,
2000
0000
3100
0000
,
2000
0000
3001
0000
,
0002
0000
0013
0000
,
0002
0000
1003
0000
,
2000
0000
3010
0000
,
2000
0000
3001
0000
,
0010
0000
0001
0000
,
1000
0010
1000
0000
,
0010
0000
0100
0000
,
0001
0001
0001
0000
,
1000
0000
0100
0000
,
0010
0001
0010
0000
,
0100
0000
1000
0000
,
0001
0000
1001
0000
,
1000
0010
1000
0000
,
0001
0010
0001
0000
,
1000
0000
0001
0000
,
0100
0000
0110
0000
,
0010
1000
0010
0000
,
0100
0001
0100
0000
,
0001
0000
1000
0000
,
0001
0000
1001
0000
,
2000
0000
3100
0000
,
0002
0000
0103
0000
,
1000
0000
0010
0000
,
1000
0001
1000
0000
,
0002
0000
0013
0000
,
2000
0000
3010
0000
,
0001
0000
0100
0000
,
0010
1000
0010
0000
,
2000
0000
3010
0000
,
0002
0000
0013
0000
,
1000
0000
0001
0000
,
0010
0001
0010
0000
,
0001
0000
1000
0000
,
0001
1000
0010
0000
,
1000
0000
0001
0000
,
0010
0010
0100
0000
,
1000
0000
0001
0000
,
0100
0001
1000
0000
,
0001
0000
0010
0000
,
0100
1000
0001
0000
,
0100
0000
0010
0000
,
1000
0001
0100
0000
,
0010
0000
1000
0000
,
0001
0010
0100
0000
;
