#TITLE:Wicked;
#ARTIST:Hommarju;
#BANNER:Wicked.png;
#BACKGROUND:Wicked-bg.png;
#MUSIC:Wicked.ogg;
#OFFSET:1.769;
#SAMPLESTART:65.731;
#SAMPLELENGTH:15;
#BPMS:0=128;
#STOPS:32=1.406,141=1.406;

//---------------dance-single - NewbStepper-ESP----------------
#NOTES:
     dance-single:
     NewbStepper:
     Hard:
     14:
     0.613622,0.677176,0.331161,0.058440,0.827903,441,407,34,6,0,0,0.613622,0.677176,0.331161,0.058440,0.827903,441,407,34,6,0,0:
// measure 0
0000
0000
0000
0000
,  // measure 1
0000
0000
0000
0000
,  // measure 2
0000
0000
0000
0000
,  // measure 3
0000
0000
0000
0000
,  // measure 4
0000
0000
0000
0000
,  // measure 5
1100
1000
1010
0010
0110
0100
0101
0001
,  // measure 6
0011
0010
0110
0100
1100
1000
1010
0010
,  // measure 7
0100
0001
0100
0000
0010
1000
0010
0000
0100
0010
0100
0000
0001
0100
0001
0000
,  // measure 8
0000
0000
0000
0000
1000
0000
0100
0000
1000
0001
0000
0010
0000
0010
0001
0000
,  // measure 9
1000
0010
1000
0100
0000
0000
0010
0000
0001
1000
0000
0100
0000
0100
1000
0000
,  // measure 10
0010
0100
0010
1000
0000
0000
0100
0000
0100
0010
0000
0010
0000
0010
1000
0000
,  // measure 11
0010
0001
0010
0100
0000
0000
1000
0000
0001
0100
0000
0100
0000
0100
0010
0000
,  // measure 12
2000
0000
3002
0000
0003
0000
0100
0000
0001
1000
0000
0010
0000
0010
1000
0000
,  // measure 13
0001
0010
0001
0100
0000
0000
0010
0000
1000
0001
0000
0100
0000
0100
0001
0000
,  // measure 14
0010
0100
0010
0001
0000
0000
0100
0000
0100
0010
0000
0010
0000
0010
0001
0000
,  // measure 15
0010
0100
0010
1000
0001
0000
0100
0000
1000
0100
0000
0001
0000
0001
0010
0000
,  // measure 16
0110
0000
0000
0000
1000
0100
1000
0000
0001
0100
0000
0110
0000
0100
1000
0000
,  // measure 17
0001
0010
1000
0010
0000
0100
0001
0000
1000
0010
0000
0110
0000
0010
0100
0000
,  // measure 18
0001
0010
0100
1000
0000
1000
0001
0000
1000
0100
0000
0110
0000
0100
0001
0000
,  // measure 19
1000
0010
0001
0010
0000
0100
1000
0000
0001
0010
0000
0110
0000
0010
0100
0000
,  // measure 20
1100
0110
0011
0100
1010
0100
0010
1000
,  // measure 21
0010
0100
0010
0000
1010
0000
0100
0000
0011
0000
0100
0000
0010
0000
0001
0000
,  // measure 22
0100
0010
0100
0000
0101
0000
0010
0000
1100
0000
0010
0000
0100
0000
1000
0000
,  // measure 23
0010
0100
0010
0000
1000
0000
0001
0000
0000
0010
0000
0100
0000
1000
0100
0010
,  // measure 24
0001
0100
0010
0000
1000
0000
0000
0000
2000
0000
0000
0000
0000
0000
0000
0000
,  // measure 25
0000
0000
0000
0000
,  // measure 26
3000
0001
0002
0000
,  // measure 27
0000
0000
0000
0000
,  // measure 28
0003
0000
0000
0000
1100
0000
0000
0000
0001
0000
0010
0000
0001
0100
0000
0100
,  // measure 29
0000
0010
0000
0000
1000
0000
1000
0000
1000
0000
1000
0000
0010
0100
0000
0100
,  // measure 30
0000
0000
0001
0000
0101
0000
0000
0000
1000
0000
0010
0000
1000
0100
0000
0100
,  // measure 31
0000
0010
0000
0000
0001
0000
0001
0000
0001
0000
0001
0000
0100
1000
0000
0100
,  // measure 32
0000
0001
0010
0011
0000
0101
0000
1100
,  // measure 33
0000
1010
0000
0011
0000
0110
0000
1100
,  // measure 34
0000
0000
1000
0100
1000
0000
0100
0010
0100
0000
0010
0001
0010
0000
0001
0100
,  // measure 35
0001
0100
0010
1000
0000
0000
0000
0000
0001
0000
0100
0000
0001
1000
0000
0010
,  // measure 36
0000
0010
1000
0000
0001
0010
0001
0100
0000
0000
0010
0000
1000
0001
0000
0100
,  // measure 37
0000
0100
0001
0000
0010
0100
0010
0001
0000
0000
0100
0000
0100
0010
0000
0010
,  // measure 38
0000
0010
0001
0000
0010
1000
0010
0100
0000
0000
0001
0000
1000
0100
0000
0100
,  // measure 39
0000
0100
0010
0000
0002
0000
2003
0000
3000
0000
0100
0000
1000
0001
0000
0010
,  // measure 40
0000
0010
0001
0000
1000
0010
1000
0100
0000
0000
0010
0000
0001
1000
0000
0100
,  // measure 41
0000
0100
1000
0000
0010
0100
0010
1000
0000
0000
0100
0000
0100
0010
0000
0010
,  // measure 42
0000
0010
1000
0000
0010
0100
0010
0001
1000
0000
0100
0000
0001
0100
0000
1000
,  // measure 43
0000
1000
0010
0000
0110
0000
0000
0000
0101
0000
0001
0000
0010
0001
0000
1000
,  // measure 44
0000
0100
1000
0001
0000
0100
0010
0100
1000
0000
0100
0000
0010
1000
0000
0001
,  // measure 45
0000
0100
0001
1000
0000
0100
0010
0100
0001
0000
0100
0000
1000
0010
0000
0100
,  // measure 46
0000
1000
0100
0001
0000
1000
0100
0010
0001
0000
0100
0000
0010
1000
0000
0001
,  // measure 47
0000
0100
1000
0100
0000
0001
0010
0100
1000
0000
0100
0000
0010
0001
0000
1000
,  // measure 48
0000
0100
0001
0100
0000
1000
0010
0100
0001
0000
1000
0000
0010
0001
0000
0010
,  // measure 49
0000
1000
0100
1000
0000
0001
0100
0010
1000
0000
0001
0000
0010
1000
0000
0010
,  // measure 50
0000
0001
0100
0001
0000
1000
0100
0010
0001
0000
0101
0000
0000
0110
0000
0010
,  // measure 51
0000
1000
0100
0001
0000
1000
0010
0001
1000
0000
0000
0000
0000
0000
0000
0000
;

//---------------dance-single - NewbStepper-DSP----------------
#NOTES:
     dance-single:
     NewbStepper:
     Medium:
     11:
     0.422996,0.426370,0.077920,0.019480,0.121750,304,296,8,2,0,0,0.422996,0.426370,0.077920,0.019480,0.121750,304,296,8,2,0,0:
// measure 0
0000
0000
0000
0000
,  // measure 1
0000
0000
0000
0000
,  // measure 2
0000
0000
0000
0000
,  // measure 3
0000
0000
0000
0000
,  // measure 4
0000
0000
0000
0000
,  // measure 5
0001
0010
0001
0010
0001
0010
0001
0010
,  // measure 6
0100
1000
0100
1000
0100
1000
0100
1000
,  // measure 7
0001
0100
0001
0100
0010
1000
0010
1000
,  // measure 8
0000
0000
0000
0000
1000
0000
0001
0000
0000
1000
0000
0100
0000
0000
1000
0000
,  // measure 9
0010
0000
0100
0000
0001
0000
1000
0000
0000
0001
0000
0100
0000
0000
0001
0000
,  // measure 10
0010
0000
0100
0000
1000
0000
0001
0000
0000
0100
0000
0010
0000
0000
1000
0000
,  // measure 11
0100
0000
0010
0000
0001
0000
1000
0000
0000
0100
0000
0010
0000
0000
0001
0000
,  // measure 12
0100
1000
0100
0001
0010
0001
0100
0010
,  // measure 13
1000
0000
0100
1000
0010
1000
0100
0010
,  // measure 14
0001
0000
1000
0100
0010
0100
1000
0001
,  // measure 15
0100
0000
0010
0000
0010
0000
0010
0100
,  // measure 16
0110
0000
0001
0100
1000
0100
0001
0010
,  // measure 17
0100
0000
1000
0100
0001
0100
1000
0010
,  // measure 18
0100
0000
0001
0010
1000
0010
0001
0010
,  // measure 19
0100
0000
1000
0010
0001
0010
1000
0010
,  // measure 20
0100
0000
0001
0100
1000
0001
0010
1000
,  // measure 21
0001
0010
1000
0001
0100
1000
0010
0100
,  // measure 22
0001
0000
1000
0100
0001
1000
0010
0001
,  // measure 23
1000
0010
0001
1000
0100
0001
0010
0100
,  // measure 24
1000
0001
0002
0000
,  // measure 25
0000
0000
0000
0000
,  // measure 26
0003
1000
2000
0000
,  // measure 27
0000
0000
0000
0000
,  // measure 28
3000
0000
0000
0000
0001
0000
0000
0000
0101
0000
0000
0000
0010
1000
0000
1000
,  // measure 29
0000
0100
0000
0000
1000
0000
0000
0000
1100
0000
0000
0000
0010
0001
0000
0010
,  // measure 30
0000
0000
0100
0000
0110
0000
0000
0000
1001
0000
0000
0000
0010
0001
0000
0001
,  // measure 31
0000
0100
0000
0000
0001
0000
0000
0000
0101
0000
0000
0000
0010
0000
0000
1000
,  // measure 32
0000
0010
0100
0001
0000
0001
0000
0010
,  // measure 33
0000
0010
0000
1000
0000
1000
0000
0100
,  // measure 34
0000
0100
0001
0010
1000
0001
0100
1000
,  // measure 35
0010
0000
0100
0000
0000
0000
0000
0000
0001
0000
1000
0000
0000
0001
0000
0100
,  // measure 36
0000
0000
0001
0000
0010
0000
0100
0000
1000
0000
0001
0000
0000
1000
0000
0100
,  // measure 37
0000
0000
1000
0000
0010
0000
0100
0000
0001
0000
1000
0000
0000
0100
0000
0010
,  // measure 38
0000
0000
0001
0000
0100
0000
0010
0000
1000
0000
0001
0000
0000
0100
0000
0010
,  // measure 39
0000
1000
0100
0001
0100
1000
0010
1000
,  // measure 40
0100
0010
0001
0000
0100
0001
0010
0001
,  // measure 41
0100
0010
1000
0000
0001
0100
0010
0100
,  // measure 42
0001
1000
0100
0000
0010
0000
0010
0000
,  // measure 43
0010
0100
0110
0000
1000
0010
1000
0010
,  // measure 44
1000
0010
1000
0010
0100
0001
0100
0001
,  // measure 45
0100
0001
0100
0001
1000
0100
1000
0100
,  // measure 46
0010
0001
0010
0001
0100
0000
0100
0000
,  // measure 47
0100
0010
0110
0000
0001
0001
0100
0100
,  // measure 48
1000
1000
0100
0100
0001
0001
1000
1000
,  // measure 49
0010
0010
0100
0100
0001
0100
0010
0100
,  // measure 50
1000
0100
0001
0010
0100
0010
1000
0001
,  // measure 51
0100
1000
0010
0100
0001
0000
0000
0000
;

//---------------dance-single - NewbStepper-BSP----------------
#NOTES:
     dance-single:
     NewbStepper:
     Easy:
     5:
     0.212889,0.250806,0.019480,0.058440,0,153,151,2,6,0,0,0.212889,0.250806,0.019480,0.058440,0,153,151,2,6,0,0:
0000
0000
0000
0000
,
0000
0000
0000
0000
,
0000
0000
0000
0000
,
0000
0000
0000
0000
,
0000
0000
0000
0000
,
1000
1000
1000
1000
,
0100
0100
0100
0100
,
0010
0010
0010
0010
,
0000
0001
0100
0001
,
0100
0010
1000
0010
,
1000
0001
0010
0001
,
0010
0100
1000
0100
,
1000
0001
0100
1000
,
0100
0001
0100
1000
,
0100
0001
0010
1000
,
0010
0001
1000
0001
,
1001
1000
0100
1000
,
0100
0010
0001
0010
,
0001
1000
0010
1000
,
0010
0100
0001
0100
,
0001
1000
0100
0001
,
0100
1000
0100
0001
,
0100
1000
0010
0001
,
0010
2000
0000
3000
,
0000
0001
0002
0000
,
0000
0000
0000
0003
,
0000
1000
2000
0000
,
0000
0000
0000
3000
,
0000
0010
0020
0000
,
0000
0000
0000
0030
,
0000
0100
0200
0000
,
0000
0000
0000
0300
,
0000
0001
0000
0001
,
0000
1000
0000
1000
,
0000
0100
0100
0010
,
0010
0000
1000
0100
,
1000
0100
0010
0001
,
0010
0001
1000
0010
,
1000
0010
0100
0001
,
0100
0001
1000
0100
,
0001
0100
1000
0100
,
0001
0100
1000
0010
,
0001
0010
1000
0001
,
1000
1001
0001
0100
,
0001
0100
0010
1000
,
0010
1000
0001
0010
,
0001
0010
0100
1000
,
0100
1000
0001
0100
,
1000
0100
0001
0100
,
1000
0100
0001
0010
,
1000
0010
0002
0000
,
0000
0000
1003
0000
;

//---------------dance-single - NewbStepper-bSP----------------
#NOTES:
     dance-single:
     NewbStepper:
     Beginner:
     1:
     0.075137,0.150484,0,0.009740,0,54,54,0,1,0,0,0.075137,0.150484,0,0.009740,0,54,54,0,1,0,0:
0000
0000
0000
0000
,
0000
0000
0000
0000
,
0000
0000
0000
0000
,
0000
0000
0000
0000
,
0000
0000
0000
0000
,
0001
0000
0000
0000
,
0001
0000
0000
0000
,
0001
0000
0000
0000
,
0000
0000
0000
0000
,
0000
1000
0000
0000
,
0000
1000
0000
0000
,
0000
1000
0000
0000
,
0000
0100
0000
0000
,
0000
0100
0000
0000
,
0000
0100
0000
0000
,
0000
0010
0000
0000
,
0000
1000
0000
0000
,
0000
1000
0000
0000
,
0000
1000
0000
0000
,
0000
1000
0000
0000
,
0000
0001
0000
0000
,
0000
0001
0000
0000
,
0000
0001
0000
0000
,
0000
0001
0000
0000
,
0000
0100
0000
0000
,
0000
0000
0000
0000
,
0000
0010
0000
0000
,
0000
0000
0000
0000
,
0000
0001
0001
0000
,
0000
0000
0000
0000
,
0000
1000
1000
0000
,
0000
0000
0000
0000
,
0000
0010
0000
0010
,
0000
0010
0000
0010
,
0000
0100
0100
0100
,
0100
0000
0000
0000
,
0000
0000
0001
0000
,
0000
0000
0001
0000
,
0000
0000
0001
0000
,
0000
0000
0100
0000
,
0000
0000
0100
0000
,
0000
0000
0100
0000
,
0000
0000
0010
0000
,
0000
0000
0001
0000
,
0001
0000
1000
0000
,
1000
0000
0010
0000
,
0010
0000
0100
0000
,
0100
0000
0001
0000
,
1000
0000
0001
0000
,
1000
0000
0001
0000
,
0100
0000
0200
0000
,
0000
0000
0300
0000
;

//---------------dance-double - NewbStepper-EDP----------------
#NOTES:
     dance-double:
     NewbStepper:
     Hard:
     14:
     0.594142,0.652096,0.204541,0.058440,0.779203,427,406,21,6,0,0,0.594142,0.652096,0.204541,0.058440,0.779203,427,406,21,6,0,0:
00000000
00000000
00000000
00000000
,
00000000
00000000
00000000
00000000
,
00000000
00000000
00000000
00000000
,
00000000
00000000
00000000
00000000
,
00000000
00000000
00000000
00000000
,
10100000
10000000
11000000
01000000
01100000
00100000
00110000
00010000
,
00011000
00001000
00001100
00000100
00000110
00000010
00000011
00000001
,
00000100
00000001
00000100
00000000
00000010
00001000
00000010
00000000
00010000
00001000
00010000
00000000
00001000
00100000
00001000
00000000
,
00000000
00000000
00000000
00000000
00010000
00000000
00001000
00000000
00010000
01000000
00000000
00100000
00000000
00100000
00010000
00000000
,
10000000
00100000
10000000
01000000
00000000
00000000
00010000
00000000
00001000
00000100
00000000
00000010
00000000
00000010
00001000
00000000
,
00000001
00000010
00000001
00001000
00000000
00000000
00000100
00000000
00000100
00000010
00000000
00000010
00000000
00000010
00001000
00000000
,
00010000
00001000
00010000
00000100
00000000
00000000
00010000
00000000
00001000
00100000
00000000
00100000
00000000
00100000
01000000
00000000
,
20000000
00000000
30200000
00000000
00300000
00000000
00010000
00000000
00001000
00000100
00000000
00000010
00000000
00000010
00001000
00000000
,
00000001
00000010
00000001
00000100
00000000
00000000
00001000
00000000
00010000
01000000
00000000
00100000
00000000
00100000
00010000
00000000
,
10000000
00100000
10000000
00010000
00000000
00000000
01000000
00000000
01000000
00100000
00000000
00100000
00000000
00100000
00010000
00000000
,
00001000
00010000
00001000
01000000
00100000
00000000
10000000
00000000
01000000
00100000
00000000
00001000
00000000
00001000
00010000
00000000
,
00011000
00000000
00000000
00000000
00000010
00000000
00000100
00000000
00000001
00000010
00000000
00000110
00000000
00010000
00001000
00000000
,
00010000
00100000
10000000
00100000
00000000
01000000
00010000
00000000
10000000
00100000
00000000
01100000
00000000
00010000
00001000
00000000
,
00000100
00000010
00000100
00000010
00000000
00000100
00000001
00000000
00000010
00000100
00000000
00000110
00000000
00001000
00010000
00000000
,
01000000
00100000
01000000
00100000
00000000
01000000
10000000
00000000
00100000
01000000
00000000
01100000
00000000
00010000
00001000
00000000
,
00010000
01000000
00010000
00000010
00000001
00000010
00010000
00001000
,
00100000
00010000
01000000
00000000
00001000
00000000
00100000
00000000
10000000
00000000
00100000
00000000
00001000
00000000
00010000
00000000
,
00000100
00001000
00000010
00000000
00000001
00000000
00000010
00000000
00010000
00000000
00001000
00000000
01000000
00000000
10000000
00000000
,
01000000
00010000
00100000
00000000
00001000
00000000
00010000
00000000
00000000
01000000
00000000
10000000
00000000
10000000
01000000
00010000
,
00000000
00001000
00000010
00000001
00000100
00000000
00000000
00000000
00000200
00000000
00000000
00000000
00000000
00000000
00000000
00000000
,
00000000
00000000
00000000
00000300
,
00000000
00100000
00200000
00000000
,
00000000
00000000
00000000
00300000
,
00000000
00000000
00000000
00000000
00011000
00000000
00000000
00000000
00010000
00000000
01000000
00000000
00010000
00001000
00000000
00001000
,
00000000
00000010
00000000
00000000
00000100
00000000
00000100
00000000
00000100
00000000
00000100
00000000
00010000
00001000
00000000
00010000
,
00000000
00000000
00000100
00000000
00000110
00000000
00000000
00000000
00001000
00000000
00000100
00000000
00001000
00010000
00000000
00010000
,
00000000
00100000
00000000
00000000
01000000
00000000
01000000
00000000
01000000
00000000
01000000
00000000
00001000
00010000
00000000
00001000
,
00000000
00000000
00000010
00000001
00000010
00000000
00000001
00000000
00000000
00000000
00000100
00000010
00000100
00000000
00000010
00000000
,
00000000
00000000
00001000
00010000
00001000
00000000
00010000
00000000
00000000
00000000
01000000
00100000
01000000
00000000
00100000
00000000
,
00000000
10000000
00010000
00001000
00000001
00001000
00010000
10000000
,
01000000
00000000
00010000
00000000
00000000
00000000
00000000
00000000
00001000
00000000
00010000
00000000
00001000
00000100
00000000
00000010
,
00000000
00000010
00001000
00000000
00000001
00000010
00000001
00000100
00000000
00000000
00001000
00000000
00010000
01000000
00000000
00100000
,
00000000
00100000
00010000
00000000
10000000
00100000
10000000
00010000
00000000
00000000
01000000
00000000
01000000
00100000
00000000
00100000
,
00000000
00100000
00010000
00000000
00001000
00010000
00001000
01000000
00000000
00000000
00001000
00000000
00010000
00000010
00000000
00000010
,
00000000
00000010
00000100
00000000
00000002
00000000
00000023
00000000
00000030
00000000
00001000
00000000
00010000
01000000
00000000
00100000
,
00000000
00100000
00010000
00000000
10000000
00100000
10000000
01000000
00000000
00000000
00010000
00000000
00001000
00000100
00000000
00000010
,
00000000
00000010
00001000
00000000
00000001
00000010
00000001
00001000
00000000
00000000
00000100
00000000
00000100
00000010
00000000
00000010
,
00000000
00000010
00001000
00000000
00010000
00001000
00010000
00000100
00000010
00000000
00000001
00000000
00000100
00000010
00000000
00010000
,
00000000
00010000
00001000
00000000
00011000
00000000
00000000
00000000
10100000
00000000
10000000
01000000
00010000
00000000
00001000
00100000
,
00000000
00001000
00010000
00000000
00000100
00000010
00000100
00000000
00001000
00000000
00000001
00000100
00001000
00000000
00010000
00000010
,
00000000
00010000
00001000
00000000
01000000
00100000
01000000
00000000
10000000
00000000
01000000
00000000
00010000
00000000
00100000
00010000
,
00000000
00001000
00000100
00000000
00000010
00000001
00000010
00000100
00000001
00000000
00000100
00000000
00001000
00000000
00000010
00001000
,
00000000
00010000
01000000
00000000
00100000
01000000
00100000
10000000
00100000
00000000
10000000
00000000
00010000
00100000
00000000
00001000
,
00000000
00010000
00001000
00010000
00000000
00100000
00010000
00001000
00000010
00000000
00000001
00000000
00001000
00000010
00000000
00010000
,
00000000
00001000
00010000
00001000
00000000
00000010
00001000
00010000
00100000
00000000
01100000
00000000
00000000
01010000
00000000
00100000
,
00000000
10000000
01000000
00010000
00000000
00001000
00000010
00000001
00000010
00000000
00000110
00000000
00000000
00001100
00000000
00000010
,
00000000
00000001
00000100
00001000
00000000
00010000
00100000
10000000
00100000
00000000
00000000
00000000
00000000
00000000
00000000
00000000
;

//---------------dance-double - NewbStepper-DDP----------------
#NOTES:
     dance-double:
     NewbStepper:
     Medium:
     11:
     0.422996,0.426370,0.068180,0.019480,0.121750,304,297,7,2,0,0,0.422996,0.426370,0.068180,0.019480,0.121750,304,297,7,2,0,0:
00000000
00000000
00000000
00000000
,
00000000
00000000
00000000
00000000
,
00000000
00000000
00000000
00000000
,
00000000
00000000
00000000
00000000
,
00000000
00000000
00000000
00000000
,
00000001
00000100
00000001
00000100
00000010
00001000
00000010
00001000
,
00010000
01000000
00010000
01000000
00100000
10000000
00100000
10000000
,
00010000
00100000
00010000
00100000
00001000
00010000
00001000
00010000
,
00000000
00000000
00000000
00000000
00000100
00000000
00001000
00000000
00000000
00000001
00000000
00000100
00000000
00000000
00001000
00000000
,
00010000
00000000
01000000
00000000
10000000
00000000
00100000
00000000
00000000
10000000
00000000
01000000
00000000
00000000
00010000
00000000
,
00001000
00000000
00000100
00000000
00000001
00000000
00000010
00000000
00000000
00000100
00000000
00000010
00000000
00000000
00001000
00000000
,
00010000
00000000
00100000
00000000
10000000
00000000
00010000
00000000
00000000
01000000
00000000
00100000
00000000
00000000
00010000
00000000
,
00001000
00000010
00000001
00000100
00000010
00001000
00010000
01000000
,
00100000
00000000
10000000
01000000
00100000
00010000
00001000
00000100
,
00000010
00000000
00000001
00000100
00000010
00000100
00000001
00000100
,
00001000
00000000
00010000
00000000
00010000
00000000
00010000
00001000
,
00011000
00000000
00100000
10000000
01000000
00010000
01000000
10000000
,
00100000
00000000
00010000
00001000
00100000
00010000
00100000
00001000
,
00010000
00000000
00000010
00001000
00000100
00000010
00000001
00000100
,
00000010
00000000
00001000
00000001
00000100
00001000
00010000
01000000
,
10000000
00000000
00010000
00100000
01000000
00010000
00001000
00000100
,
00001000
00010000
00001000
00000010
00000001
00000100
00001000
00000100
,
00000001
00000000
00001000
00000010
00000100
00001000
00010000
01000000
,
00010000
00001000
00010000
00100000
10000000
01000000
00010000
01000000
,
10000000
00010000
00020000
00000000
,
00000000
00000000
00000000
00000000
,
00030000
00001000
00002000
00000000
,
00000000
00000000
00000000
00000000
,
00003000
00000000
00000000
00000000
00000001
00000000
00000000
00000000
00000101
00000000
00000000
00000000
00000010
00001000
00000000
00001000
,
00000000
00000100
00000000
00000000
00000010
00000000
00000000
00000000
00001010
00000000
00000000
00000000
00010000
00001000
00000000
00010000
,
00000000
00000000
01000000
00000000
01100000
00000000
00000000
00000000
11000000
00000000
00000000
00000000
00100000
00010000
00000000
00010000
,
00000000
01000000
00000000
00000000
00100000
00000000
00000000
00000000
00110000
00000000
00000000
00000000
00001000
00000000
00000000
00010000
,
00000000
00001000
00000000
00000010
00000000
00000001
00000000
00001000
,
00000000
00010000
00000000
10000000
00000000
00010000
00000000
00001000
,
00000000
00000001
00000100
00000010
00001000
00010000
01000000
00100000
,
10000000
00000000
00010000
00000000
00000000
00000000
00000000
00000000
01000000
00000000
00010000
00000000
00000000
10000000
00000000
01000000
,
00000000
00000000
00010000
00000000
00001000
00000000
00000100
00000000
00000001
00000000
00000010
00000000
00000000
00000001
00000000
00000100
,
00000000
00000000
00001000
00000000
00010000
00000000
01000000
00000000
10000000
00000000
00100000
00000000
00000000
01000000
00000000
00100000
,
00000000
00000000
00010000
00000000
00001000
00000000
00000010
00000000
00000001
00000000
00001000
00000000
00000000
00000100
00000000
00000010
,
00000000
00001000
00010000
00100000
10000000
01000000
00100000
00010000
,
00001000
00000100
00000010
00000000
00000001
00000100
00000010
00001000
,
00010000
01000000
00100000
00000000
10000000
01000000
00100000
01000000
,
10000000
01000000
00010000
00000000
00001000
00000000
00001000
00000000
,
00001000
00010000
00011000
00000000
00000010
00000001
00000010
00000001
,
00001000
00000010
00001000
00000010
00010000
00001000
00010000
00001000
,
00100000
00010000
00100000
00010000
10000000
00100000
10000000
00100000
,
00010000
00001000
00010000
00001000
00000100
00000001
00000100
00000001
,
00000100
00000010
00000100
00000000
00000001
00000001
00000010
00000010
,
00000100
00000100
00001000
00001000
00010000
00010000
00100000
00100000
,
01000000
01000000
10000000
10000000
01000000
00010000
00001000
00000010
,
00000001
00000100
00001000
00000100
00000001
00000010
00001000
00010000
,
01000000
10000000
00100000
01000000
00010000
00000000
00000000
00000000
;

//---------------dance-double - NewbStepper-EDP----------------
#NOTES:
     dance-double:
     NewbStepper:
     Easy:
     5:
     0.215672,0.250806,0.019480,0.048700,0,155,153,2,5,0,0,0.215672,0.250806,0.019480,0.048700,0,155,153,2,5,0,0:
00000000
00000000
00000000
00000000
,
00000000
00000000
00000000
00000000
,
00000000
00000000
00000000
00000000
,
00000000
00000000
00000000
00000000
,
00000000
00000000
00000000
00000000
,
10000000
10000000
10000000
10000000
,
01000000
01000000
01000000
01000000
,
00100000
00100000
00100000
00100000
,
00000000
00010000
01000000
00010000
,
01000000
00001000
00010000
00001000
,
00010000
00000100
00001000
00000100
,
00001000
00000001
00000100
00000001
,
00000100
00000010
00001000
00000010
,
00001000
00000100
00010000
00000100
,
00010000
00001000
00000100
00000001
,
00000100
00001000
00010000
00001000
,
00011000
00010000
01000000
00010000
,
00001000
00000100
00000001
00000010
,
00000001
00001000
00000010
00001000
,
00000001
00000100
00000010
00000100
,
00000001
00001000
00000100
00010000
,
00001000
00100000
00010000
10000000
,
00100000
00010000
00100000
10000000
,
01000000
00100000
01000000
10000000
,
00000000
00010000
00020000
00000000
,
00000000
00000000
00000000
00030000
,
00000000
00001000
00002000
00000000
,
00000000
00000000
00000000
00003000
,
00000000
00000010
00000020
00000000
,
00000000
00000000
00000000
00000030
,
00000000
00000100
00000200
00000000
,
00000000
00000000
00000000
00000300
,
00000000
00000001
00000000
00000001
,
00000000
00001000
00000000
00001000
,
00000000
00000100
00000100
00010000
,
00010000
00000000
00001000
00000100
,
00001000
00000100
00010000
00001000
,
00010000
00001000
01000000
00010000
,
01000000
00010000
10000000
01000000
,
10000000
01000000
00100000
00010000
,
00100000
00010000
01000000
00001000
,
01000000
00001000
00010000
01000000
,
10000000
01000000
00010000
00001000
,
00010000
00011000
00000100
00000010
,
00000100
00000010
00000001
00000100
,
00000001
00000100
00000010
00001000
,
00000010
00001000
00000100
00010000
,
00000100
00010000
00001000
00010000
,
01000000
10000000
01000000
00010000
,
00001000
00000100
00000001
00000100
,
00001000
00010000
00002000
00000000
,
00000000
00000000
01003000
00000000
;
