#VERSION:0.83;
#TITLE:White Eve;
#ARTIST:さな;
#ARTISTTRANSLIT:Sana;
#BANNER:White Eve.png;
#BACKGROUND:White Eve-bg.png;
#JACKET:White Eve-jacket.png;
#MUSIC:White Eve.ogg;
#OFFSET:-0.987;
#SAMPLESTART:15.867;
#SAMPLELENGTH:15;
#BPMS:0=125;

//---------------dance-single - Nitrospan-bSP----------------
#NOTEDATA:;
#CHARTNAME:Nitrospan-bSP;
#STEPSTYPE:dance-single;
#DESCRIPTION:Nitrospan-bSP;
#DIFFICULTY:Beginner;
#METER:1;
#CREDIT:Nitrospan;
#NOTES:
0000
0000
0000
0000
,
0000
0000
0000
0000
,
0000
0000
0000
0000
,
0000
0000
0000
0000
,
1000
0000
0000
0000
,
0010
0000
0000
0000
,
0100
0000
0000
0000
,
0001
0000
0000
0000
,
1001
0000
0000
0000
,
0100
0000
0000
0000
,
0010
0000
0000
0000
,
0001
0000
0000
0000
,
0100
0000
0000
0000
,
0010
0000
0000
0000
,
1000
0000
0000
0000
,
0001
0000
0000
0000
,
2002
0000
3003
0000
,
1000
0000
1000
0000
,
0200
0000
0300
0000
,
0010
0000
0010
0000
,
0002
0000
0003
0000
,
0100
0000
0100
0000
,
0020
0000
0030
0000
,
0200
0000
0300
0000
,
1001
0000
0000
0000
,
0100
0000
0000
0000
,
0010
0000
0000
0000
,
0001
0000
0000
0000
,
0100
0000
0000
0000
,
0010
0000
0000
0000
,
1000
0000
0000
0000
,
0001
0000
0000
0000
,
1001
0000
0000
0000
,
0100
0000
0000
0000
,
0010
0000
0000
0000
,
0001
0000
0000
0000
,
0010
0000
0000
0000
,
0100
0000
0000
0000
,
1000
0000
0000
0000
,
0001
0000
0000
0000
,
1001
0000
0000
0000
,
0100
0000
0000
0000
,
0010
0000
0000
0000
,
1000
0000
0000
0000
,
0001
0000
0000
0000
,
0010
0000
0000
0000
,
0100
0000
0000
0000
,
1000
0000
0000
0000
,
0001
0000
0000
0000
,
1001
0000
0000
0000
,
0010
0000
0000
0000
,
0100
0000
0000
0000
,
1000
0000
0000
0000
,
0001
0000
0000
0000
,
0010
0000
0000
0000
,
0001
0000
0000
0000
,
1000
0000
0000
0000
0000
0000
0000
1001
;

//---------------dance-single - Nitrospan-BSP----------------
#NOTEDATA:;
#CHARTNAME:Nitrospan-BSP;
#STEPSTYPE:dance-single;
#DESCRIPTION:Nitrospan-BSP;
#DIFFICULTY:Easy;
#METER:4;
#CREDIT:Nitrospan;
#NOTES:
0000
0000
0000
0000
,
0000
0000
0000
0000
,
0000
0000
0000
0000
,
0000
0000
0000
1000
,
2000
3000
0002
0003
,
0200
0300
0020
0030
,
1000
0010
0100
0001
,
0010
0100
1000
0000
,
0002
0003
0001
0000
,
2000
3000
1000
0000
,
0020
0030
0010
0000
,
0100
0001
1000
0000
,
0002
0003
0020
0030
,
0200
0300
2000
3000
,
0001
0100
0010
1000
,
0100
0010
0001
0000
,
2002
0000
0000
3003
,
0001
0010
0100
1000
,
0020
0000
0130
0100
,
0002
0000
0003
1000
,
2000
0000
3000
0001
,
0002
0000
0003
0100
,
0020
0030
0200
0300
,
2002
0000
0000
3003
,
1000
0000
0100
0000
,
0010
0001
0100
0000
,
0010
0000
1000
0000
,
0001
0010
0100
1000
,
0010
0000
0100
0000
,
0001
0100
0010
0000
,
1000
0000
0100
0000
,
0010
0001
0100
0010
,
1000
0000
0010
1000
,
0010
0000
0100
0001
,
0100
0000
0001
0010
,
1000
0100
0001
0010
,
0100
0000
1000
0010
,
1000
0000
0001
0100
,
0001
0000
0010
0100
,
1000
0010
0100
0000
,
2002
0000
3003
1000
,
2000
3000
1000
0000
,
0002
0003
0001
0000
,
0200
0300
0100
0000
,
0010
1000
0001
0000
,
0020
0030
0200
0300
,
2000
3000
0002
0003
,
0100
0010
1000
0001
,
0010
0100
1000
0000
,
0002
0003
0001
0000
,
2000
3000
1000
0000
,
0200
0300
0100
0000
,
0010
0001
1000
0000
,
0002
0003
0200
0300
,
0020
0030
2000
3000
,
0001
0010
0100
1000
,
0010
0000
0100
0000
0001
0000
0000
1001
;

//---------------dance-single - Nitrospan-DSP----------------
#NOTEDATA:;
#CHARTNAME:Nitrospan-DSP;
#STEPSTYPE:dance-single;
#DESCRIPTION:Nitrospan-DSP;
#DIFFICULTY:Medium;
#METER:7;
#CREDIT:Nitrospan;
#NOTES:
0000
0000
0000
0000
,
0000
0000
0000
0000
,
0000
0000
0000
0000
,
0000
0000
0000
1000
,
2000
3000
0002
0003
,
0200
0300
0020
0030
,
1000
0020
0230
0302
,
2003
0000
3200
0000
0310
0000
0001
1000
,
0002
0000
0000
1000
1003
0000
0010
0000
,
0200
0000
0000
0010
0310
0000
1000
0000
,
0200
0000
0000
1000
1300
0000
0001
0000
,
0100
0000
0010
0000
1000
0000
0001
1000
,
0002
0000
0000
0010
0013
0000
0100
0000
,
2000
0000
0000
0001
3001
0000
0100
0000
,
0020
2030
3002
0203
,
0301
0010
0100
1000
,
2001
0001
0001
3001
,
1000
0100
1000
0000
0001
0100
0001
0000
,
0020
0000
0100
0000
0130
1000
0100
1000
,
0002
0000
0100
0000
0103
0000
0010
1000
,
0010
2000
0010
0000
0010
0000
3010
0100
,
0001
0200
0001
0000
0001
0000
0301
0010
,
0200
0000
0010
0000
0310
0100
0000
1000
,
0002
0000
0000
0003
,
1001
0000
1000
0100
1000
0000
0010
0100
,
0000
0001
0000
0200
0000
0000
0300
0001
,
0010
0000
0100
2000
0000
0000
3000
0010
,
0100
0000
0001
2000
0000
0000
3000
0000
,
0001
0000
0010
0000
0100
0000
1000
0100
,
0000
0010
0000
0002
0000
0000
0003
0000
,
1000
0000
0010
0010
0000
0100
0000
2002
,
0000
0000
0000
0000
3003
0000
0010
1000
,
0001
0000
0010
0000
0100
1000
0100
0000
,
1000
0000
0010
0000
0100
0001
0100
0000
,
0010
0000
1000
0000
0001
0010
0001
0010
,
0001
0000
0010
0010
0000
0100
0000
2000
,
0000
0000
3000
0010
0100
0000
0001
0000
,
2000
0000
3000
0100
1000
0000
0001
0000
,
0200
0000
0300
0010
1000
0010
1000
0000
,
0001
0000
0010
0100
1000
0000
0001
0000
,
2002
0000
0000
0000
3003
0000
1000
0001
,
2000
0000
0000
0001
3001
0000
0000
0010
,
0020
0000
0000
0100
0130
0000
0000
1000
,
0200
0000
0000
0010
0310
0000
0000
0020
,
0000
0032
0000
2003
0000
0000
3010
0100
,
0020
0000
0000
1000
2030
0000
0000
0001
,
3002
0000
0000
0010
0023
0000
0000
0100
,
0130
2000
3020
0230
,
0302
0000
0023
0000
0130
0000
1000
0001
,
2000
0000
0000
0001
3001
0000
0100
0000
,
0020
0000
0000
0100
0130
0000
0001
0000
,
0020
0000
0000
0001
0031
0000
1000
0000
,
0010
0000
0100
0000
0001
0000
1000
0001
,
2000
0000
0000
0100
3100
0000
0010
0000
,
0002
0000
0000
1000
1003
0000
0010
0000
,
0200
0302
2003
3020
,
1030
0000
0100
0000
0010
0000
0001
1001
;

//---------------dance-single - Nitrospan-ESP----------------
#NOTEDATA:;
#CHARTNAME:Nitrospan-ESP;
#STEPSTYPE:dance-single;
#DESCRIPTION:Nitrospan-ESP;
#DIFFICULTY:Hard;
#METER:10;
#CREDIT:Nitrospan;
#NOTES:
0000
0000
0000
0000
,
0000
0000
0000
0000
,
0000
0000
0000
0000
,
0000
0000
0000
0000
,
0001
0200
0320
2030
,
3100
2000
3020
0230
,
0301
0020
0032
2003
,
3020
0000
0000
0000
0200
0000
0000
0000
0330
0000
0000
0000
0001
1000
0001
1000
,
0002
0000
0000
0010
0023
0000
0000
0130
,
2000
0000
0000
0001
3002
0000
0000
0010
,
0203
0000
0000
0010
0320
0000
0000
1030
,
0100
0000
0001
0000
0100
0000
1000
0000
0000
0000
0000
0000
0010
0100
0010
0100
,
0020
0000
0000
1000
2030
0000
0000
0100
,
3002
0000
0000
0010
0023
0000
0000
0130
,
1000
0020
0230
0302
,
2003
0000
0100
0000
0001
0000
3010
0100
,
0002
0100
1000
0100
,
1003
0100
1000
0100
1000
0000
0010
0000
0100
0000
0001
0000
0010
0001
0010
0001
,
0020
0000
0001
0000
0230
1000
0320
0001
,
0230
0000
0000
0000
0001
0000
0000
0000
0010
0000
0000
0000
1300
0001
1000
0001
,
0010
0000
0200
0000
1000
0000
0000
0000
0001
0000
0000
0000
1300
0000
0010
1000
,
0010
0000
0200
0000
0001
0000
0000
0000
1000
0000
0000
0000
0301
0000
1000
0100
,
2000
0000
0010
0000
3001
0200
0000
0310
,
2002
0000
0000
3003
,
0110
0000
1000
0010
0100
0000
0001
0020
,
0000
0230
0000
2300
0000
3001
0100
0010
,
2000
0000
3100
0020
0001
0000
0130
1000
,
0001
0100
0010
1000
0010
0100
0001
0010
,
0100
1000
0100
0010
0002
0000
0103
0020
,
0000
2030
0000
3200
0000
0310
0001
0100
,
0020
0000
1030
0002
0000
0203
0000
0310
,
1000
0010
0100
0001
0100
0010
1000
0100
,
1001
0000
0100
0010
1000
0100
0001
0100
,
2000
0000
3010
0100
0001
0010
1000
0010
,
0002
0000
0103
0010
1000
0100
0010
0001
,
2000
0000
3010
0200
0000
0302
0000
1003
,
1001
0000
0100
0010
0001
0100
1000
0100
,
0002
0000
0013
0100
1000
0010
0001
0010
,
2000
0000
3010
0100
0001
1000
0100
0010
,
0002
0000
0013
0200
1000
1000
1300
0000
,
2002
0000
0000
0000
0000
0000
0000
0000
3003
0000
0000
0000
1000
0001
1000
0001
,
2000
0000
0000
0010
3020
0000
0000
0130
,
0002
0000
0000
1000
2003
0000
0000
0010
,
3200
0000
0000
0010
0320
0000
0000
0031
,
0100
0000
1000
0000
0100
0000
0001
0000
0000
0000
0000
0000
0010
0100
0010
0100
,
0020
0000
0000
0001
0032
0000
0000
0100
,
2003
0000
0000
0000
0000
0000
0010
0000
3010
0000
0000
0000
1000
0010
1000
0010
,
0100
0020
2030
3002
,
0023
0000
0000
0000
0230
0000
0000
0000
1300
0000
0000
0000
1000
0010
1000
0010
,
2000
0000
0000
0100
3200
0000
0000
0310
,
0002
0000
0000
1000
2003
0000
0000
0100
,
3020
0000
0000
0100
0230
0000
0000
0301
,
0010
0000
1000
0000
0010
0000
0001
0000
0000
0000
0000
0000
1000
0010
1000
0010
,
0200
0000
0000
0001
0302
0000
0000
0010
,
2003
0000
0000
0100
3200
0000
0000
0310
,
0001
0200
0320
2030
,
3002
0000
0010
0000
1000
0000
0103
1001
;

//---------------dance-double - NewbStepper-BDP----------------
#NOTEDATA:;
#CHARTNAME:NewbStepper-BDP;
#STEPSTYPE:dance-double;
#DESCRIPTION:NewbStepper-BDP;
#DIFFICULTY:Easy;
#METER:4;
#CREDIT:NewbStepper;
#NOTES:
00000000
00000000
00000000
00000000
,
00000000
00000000
00000000
00000000
,
00000000
00000000
00000000
00000000
,
00000000
00000000
00000000
10000000
,
20000000
30000000
00020000
00030000
,
02000000
03000000
00002000
00003000
,
00010000
00000010
00000100
00000001
,
00000010
00000100
00001000
00000000
,
00000002
00000003
00000001
00000000
,
00002000
00003000
00001000
00000000
,
00000200
00000300
00000100
00000000
,
00010000
00001000
00010000
00000000
,
00002000
00003000
00001000
00000000
,
00200000
00300000
00100000
00000000
,
00020000
00030000
20000000
30000000
,
02000000
03000000
00020000
00030000
,
00001000
00100000
00001000
00000000
,
00010000
00000010
00010000
00000000
,
00001000
00000010
00001000
00000000
,
00000010
00000001
00000010
00000000
,
00000100
00001000
00000100
00000000
,
00010000
00001000
00010000
00000000
,
01000000
00100000
01000000
00000000
,
20020000
00000000
00000000
30030000
,
10000000
00000000
01000000
00000000
,
00100000
00010000
00001000
00000000
,
00000010
00000000
00001000
00000000
,
00000001
00000010
00000100
00001000
,
00000001
00000000
00000100
00000000
,
00000010
00001000
00010000
00000000
,
00100000
00010000
10000000
00100000
,
02000000
00000000
00000000
03010000
,
10000000
00000000
00100000
00010000
,
00001000
00000000
00000010
00001000
,
00010000
00000000
00001000
00000100
,
00000010
00000100
00000001
00001000
,
00000001
00000000
00000010
00001000
,
00010000
00000000
00100000
00010000
,
00001000
00000000
00010000
01000000
,
00100000
01000000
10000000
00010000
,
10000000
00000000
00000000
00000000
,
20000000
30000000
10000000
00000000
,
00020000
00030000
00010000
00000000
,
02000000
03000000
01000000
00000000
,
00001000
00010000
00001000
00000000
,
00020000
00030000
00010000
00000000
,
00000020
00000030
00000010
00000000
,
00001000
00000001
00000100
00000010
,
00001000
00000001
00001000
00000000
,
00000002
00000003
00000001
00000000
,
00002000
00003000
00001000
00000000
,
00000200
00000300
00000100
00000000
,
00010000
00001000
00010000
00000000
,
00002000
00003000
00001000
00000000
,
00200000
00300000
00100000
00000000
,
00010000
10000000
01000000
00100000
,
00010000
00000000
10000000
00000000
00010000
00000000
00000000
10010000
;

//---------------dance-double - NewbStepper-DDP----------------
#NOTEDATA:;
#CHARTNAME:NewbStepper-DDP;
#STEPSTYPE:dance-double;
#DESCRIPTION:NewbStepper-DDP;
#DIFFICULTY:Medium;
#METER:8;
#CREDIT:NewbStepper;
#NOTES:
00000000
00000000
00000000
00000000
,
00000000
00000000
00000000
00000000
,
00000000
00000000
00000000
00000000
,
00000000
00000000
00000000
00000001
,
00000002
00000003
00002000
00003000
,
00000200
00000300
00020000
00030000
,
00002000
00100000
02003000
00100000
,
03002000
00000000
01000000
00000000
00203000
00000000
01300000
10000000
,
00020000
00000000
00000000
10000000
10030000
00000000
00100000
00000000
,
00020000
00000000
00000000
00001000
00031000
00000000
00000010
00000000
,
00000002
00000000
00000000
00000100
00000103
00000000
00000000
00000000
,
00000010
00000000
00001000
00000000
00000100
00000000
00000010
00000001
,
00002000
00000000
00000000
00000001
00003001
00000000
00000010
00000000
,
00002000
00000000
00000000
00010000
00013000
00000000
00000000
00100000
,
20000000
32000000
03200000
00302000
,
00023000
00030200
00000320
00000032
,
00001003
00000100
00001000
00000000
00000001
00000100
00000001
00000000
,
00001000
00000001
00000100
00001000
00010000
00000000
00100000
10000000
,
00020000
01000000
10000000
01030000
,
00100000
10000000
01000000
00000000
00100000
00010000
01000000
00000000
,
00010000
01000000
00010000
00000000
10000000
01000000
10000000
00000000
,
00010000
10000000
01000000
00010000
00001000
00000000
00000010
00000001
,
00002000
00000100
00000100
00003100
,
00000220
00000000
00000000
00000330
,
00001001
00000000
00000010
00000001
00000010
00000000
00000100
00010000
,
00000000
00001000
00000000
00200000
00000000
00300000
00000000
01000000
,
00010000
00000000
00001000
02000000
00000000
03000000
00000000
10000000
,
01000000
00000000
00010000
00200000
00000000
00000000
00300000
00000000
,
00000000
00001000
00010000
01000000
00100000
00000000
00001000
00000010
,
00000000
00000100
00000000
00002000
00000000
00000000
00003000
00000000
,
00000001
00000000
00000100
00001000
00000000
00010000
00000000
00022000
,
00000000
00000000
00000000
00000000
00033000
00000000
00100000
00100000
,
00001000
00000000
00010000
00000000
00100000
10000000
00010000
10000000
,
01000000
00000000
00010000
00000000
00001000
00100000
00001000
00010000
,
00001000
00000000
00000100
00000000
00000001
00000010
00000100
00001000
,
00000001
00000000
00000100
00001000
00000000
00000100
00000000
00000010
,
00010000
00000000
00001000
00000000
00000010
00000001
00001000
00000001
,
00000100
00000000
00001000
00000000
00010000
00000010
00010000
00001000
,
00010000
00000000
01000000
00000000
10000000
00100000
01000000
00010000
,
10000000
00000000
01000000
02000000
00000000
03000000
10000000
00010000
,
10000000
00000000
00000000
00000000
,
00020000
00000000
00000000
10000000
20030000
00000000
00000000
00100000
,
30200000
00000000
00000000
00010000
00320000
00000000
00000000
00001000
,
00032000
00000000
00000000
00000010
00003020
00000000
00000000
00000031
,
00001000
00000100
00000010
00000001
00000000
00000000
00001000
00000001
,
00002000
00000000
00000000
00000001
00003002
00000000
00000000
00000100
,
00000203
00000000
00000000
00001000
00001300
00000000
00010000
01000000
,
20000000
32000000
03200000
00302000
,
00023000
00030200
00000320
00000032
,
00002003
00000000
00000000
00000001
00003002
00000000
00000000
00000010
,
00000023
00000000
00000000
00001000
00002030
00000000
00000000
00010000
,
00023000
00000000
00000000
00100000
00230000
00000000
00000000
10300000
,
00010000
01000000
00100000
10000000
00000000
00000000
00010000
10000000
,
00020000
00000000
00000000
10000000
20030000
00000000
00000000
01000000
,
32000000
00000000
00000000
00010000
03010000
00000000
00001000
00000100
,
00000002
00000203
00000320
00020030
,
00032000
00000000
02003000
00000000
03200000
00000000
10300000
10010000
;

//---------------dance-double - NewbStepper-EDP----------------
#NOTEDATA:;
#CHARTNAME:NewbStepper-EDP;
#STEPSTYPE:dance-double;
#DESCRIPTION:NewbStepper-EDP;
#DIFFICULTY:Hard;
#METER:11;
#CREDIT:NewbStepper;
#NOTES:
00000000
00000000
00000000
00000000
,
00000000
00000000
00000000
00000000
,
00000000
00000000
00000000
00000000
,
00000000
00000000
00000000
00000000
,
20000000
30100000
02000000
03010000
,
00200000
00301000
00020000
00030100
,
00002000
00003010
00000200
00000301
,
00000020
00000000
00000000
00000000
00000200
00000000
00000000
00000000
00000330
00000000
00000000
00000000
00001000
00000001
00001000
00000001
,
00002000
00000000
00000000
00000010
00003020
00000000
00000000
00001000
,
00020030
00000000
00000000
01000000
02030000
00000000
00000000
10000000
,
03200000
00000000
00000000
00010000
00320000
00000000
00030000
10000000
,
01000000
00000000
00010000
00000000
01000000
00000000
10000000
00000000
00000000
00000000
00000000
00000000
00010000
10000000
00010000
10000000
,
00020000
00000000
00000000
00100000
00230000
00000000
00000000
00010000
,
00302000
00000000
00000000
00000100
00003200
00000000
00000000
00000001
,
00000320
00001000
00000001
00001030
,
00000001
00000100
00001000
00010000
01000000
10000000
00010000
00000000
,
00200000
01000000
00001000
01300000
,
10000000
00100000
10000000
00100000
10000000
00000000
01000000
00000000
00010000
00000000
00001000
00000000
00100000
00001000
00100000
00001000
,
00020000
00000000
00000100
00000000
00031000
00000010
00000001
00000100
,
00000002
00000000
00000000
00000000
00001000
00000000
00000000
00000000
00000100
00000000
00000100
00000000
00000103
00000000
00000010
00001000
,
00000010
00000000
00000200
00000000
00000001
00000000
00000000
00000000
00000010
00000000
00000000
00000000
00001300
00000000
00010000
00001000
,
00010000
00000000
02000000
00000000
10000000
00000000
00000000
00000000
00100000
00000000
00000000
00000000
03010000
00000000
00001000
00010000
,
00001000
00100000
00001000
00010000
00001000
00000010
00000001
00000100
,
00000220
00000000
00000000
00000330
,
00001001
00000000
00001000
00000001
00000100
00000000
00001000
00020000
,
00000000
00030200
00000000
00000320
00000000
00000030
00000000
00000100
,
00020000
00000000
00130000
10000000
00020000
00000000
01000000
00000000
,
10030000
01000000
10000000
00100000
00010000
00001000
00000010
00000001
,
00000000
00000100
00001000
00010000
01000000
00000000
00100000
00020000
,
00000000
20030000
00000000
32000000
00000000
03010000
00001000
00010000
,
00000010
00000000
00010000
00001000
00000000
00000010
00000000
00000110
,
00000001
00000100
00000010
00001000
00010000
01000000
00100000
10000000
,
00010000
00100000
01000000
00010000
00001000
00000100
00001000
00010000
,
00200000
00000000
00300000
00010000
00001000
00000010
00000001
00000100
,
00000020
00000000
00000030
00001000
00000001
00000100
00001000
00010000
,
02000000
00000000
13000000
00200000
00000000
02300000
00000000
03010000
,
00001000
00000010
00000100
00001000
00010000
01000000
00010000
00001000
,
00000020
00000000
00000030
00001000
00010000
00100000
10000000
01000000
,
00200000
00000000
00300000
00010000
10000000
01000000
00010000
00001000
,
00000100
00000000
00000000
00000000
00000001
00000000
00000010
00000000
00000000
00000000
00000100
00000000
00001000
00000010
00001000
00000010
,
00000200
00000000
00000000
00000300
,
00000001
00000100
00001000
00010000
00001000
00000010
00001000
00010000
,
00100000
00010000
00001000
01000000
00010000
00100000
10000000
00100000
,
00010000
00001000
00000100
00000001
00000100
00001000
00000010
00001000
,
00010000
00000000
01000000
00000000
00100000
00000000
10000000
00000000
00000000
00000000
00010000
00000000
10000000
01000000
00100000
01000000
,
10000000
00010000
00100000
00001000
00010000
00100000
00010000
00001000
,
00000010
00000000
00000001
00000000
00000100
00000000
00001000
00000000
00010000
00000000
00000010
00000000
00000100
00000010
00000100
00000010
,
00002000
00000100
00000001
00000010
,
00023000
00000000
00000000
00000000
01000000
00000000
00000000
00000000
10000000
00000000
00000000
00030000
00100000
00010000
00100000
00010000
,
10000000
01000000
00010000
00001000
00010000
00100000
00010000
00001000
,
00000010
00001000
00010000
00000100
00001000
00000010
00000001
00000010
,
00001000
00010000
01000000
10000000
01000000
00010000
00100000
00010000
,
00001000
00000000
00000100
00000000
00000010
00000000
00000001
00000000
00000000
00000000
00001000
00000000
00000001
00000100
00000010
00000100
,
00000001
00001000
00000010
00010000
00001000
00000010
00001000
00010000
,
00100000
10000000
01000000
00010000
00001000
00100000
01000000
10000000
,
00020000
01000000
10000000
00100000
,
00032000
00000000
00000100
00000000
00000001
00000000
00003010
00000110
;
