#TITLE:When You Are Away;
#ARTIST:Maozon;
#BANNER:When You Are Away.png;
#BACKGROUND:When You Are Away-bg.png;
#MUSIC:When You Are Away.ogg;
#OFFSET:1.03431;
#SAMPLESTART:44.473701;
#SAMPLELENGTH:15;
#BPMS:0=174;

//---------------dance-single - NewbStepper-ESP----------------
#NOTES:
     dance-single:
     NewbStepper:
     Hard:
     11:
     0.482889,0.584242,0.103572,0.141235,0.037663,359,348,11,15,0,0,0.482889,0.584242,0.103572,0.141235,0.037663,359,348,11,15,0,0:
0000
0000
0000
0000
,
0000
0000
0000
0000
,
0000
0000
0000
0000
,
0000
0000
0000
0000
,
0000
0000
0000
0000
,
1000
0100
0000
0000
0001
0100
1000
0000
,
0010
0100
0010
0000
1000
0100
0010
0000
,
0001
0100
0000
0000
1000
0100
0001
0000
,
2002
0000
0000
3003
,
0100
0000
0001
0000
,
0010
0000
0001
0000
0010
0000
0100
1000
,
0000
0000
0001
0000
0100
0000
1000
0100
,
0000
0000
0001
0000
0010
0001
0010
0002
,
0000
0003
1000
0000
0010
1000
0010
2000
,
0000
3000
0000
0100
0010
0001
0010
0200
,
0000
0000
0000
0300
0000
0000
0000
0000
,
2000
0000
0000
3000
,
0100
0000
1000
0000
,
0010
0000
1000
0000
0010
0000
0100
0001
,
0000
0000
1000
0000
0100
0000
0001
0100
,
0000
0000
1000
0000
0010
1000
0010
2000
,
0000
3000
0001
0000
0010
0001
0010
0002
,
0000
0003
0000
0100
0010
1000
0010
0200
,
0000
0000
0000
0300
0000
0000
0000
0000
,
1001
0000
0000
0000
,
0100
0000
0010
0001
1000
0000
0100
0000
,
0010
0001
1000
0000
0000
0001
1000
0010
,
0100
0000
0010
1000
0001
0000
0100
0000
,
0010
1000
0001
0000
1000
0100
1000
0100
,
0010
0000
0001
1000
0100
0000
0010
0000
,
0001
1000
0100
0000
0000
1000
0001
0100
,
0010
0000
1000
0001
0100
0000
0002
0000
,
0003
1000
0000
1000
0100
0010
0001
0000
,
1100
1000
1010
0010
,
0110
0000
0100
0000
0000
0010
1000
0001
,
0101
0001
0011
0010
,
0110
0000
0100
0000
1000
0100
0010
0001
,
1000
0010
1000
0001
0010
0001
1000
0100
,
1000
0001
0100
0001
1000
0100
0010
0001
,
0100
0100
0010
0010
1000
1000
0001
0001
,
0020
0000
0000
0030
,
0001
0000
1000
0000
0100
0000
0001
0100
,
0000
0000
0010
0000
0000
0000
0010
0000
0001
0000
0000
0100
0000
0000
0010
0000
,
1000
0000
0001
0000
0010
0000
1000
0010
,
0000
0000
0100
0000
0000
0000
1000
0000
0100
0000
0000
0010
0000
0000
0001
0000
,
1000
0000
0001
0000
0100
0000
1000
0100
,
0000
0000
0010
0000
0000
0000
0010
0000
1000
0000
0000
0100
0000
0000
0010
0000
,
0001
0000
1000
0000
0010
0000
0001
0010
,
0000
0000
0100
0000
0000
0000
0001
0000
0100
0000
0000
0010
0000
0000
1000
0000
,
0001
1000
0010
0000
1000
0100
0010
0001
,
0000
0000
0100
0000
0000
0000
0100
0000
0010
0000
0000
1000
0000
0000
0100
0000
,
1000
0001
0010
0000
0001
0100
0010
1000
,
0000
0000
0100
0000
0000
0000
0100
0000
0010
0000
0000
0001
0000
0000
0100
0000
,
0001
1000
0100
0001
0100
0010
0001
1000
,
0000
0000
0100
0000
0010
0000
0001
0000
0100
0000
0000
0001
0000
0000
1000
0000
,
1000
0001
0100
1000
0100
0010
1000
0001
,
0000
0000
0100
0000
0000
0000
0100
0000
0110
0000
0000
1010
0000
0000
0101
0000
,
0001
0000
1000
0100
0010
0000
0001
0100
,
0010
0000
1000
0001
0010
0000
0001
1000
,
0010
0000
0100
0001
0010
0000
0100
1000
,
0010
0001
0010
1000
0100
0010
0001
0000
,
1000
0000
0001
0100
0010
0000
1000
0100
,
0010
0000
0001
1000
0010
0000
1000
0001
,
0010
0000
0100
1000
0010
0000
0100
0001
,
0010
1000
0010
0001
0100
0010
1000
0001
,
0100
0000
0010
1000
0001
0000
0100
0000
,
0010
1000
0001
0000
0000
1000
0001
0010
,
0100
0000
0010
0001
1000
0000
0100
0000
,
0010
0001
1000
0000
0001
0100
0001
0100
,
0010
0000
1000
0001
0100
0000
0010
0000
,
1000
0001
0100
0000
0000
0001
1000
0100
,
0010
0001
0100
0010
1000
0100
0001
0100
,
2000
3002
0203
0320
,
1030
0000
0000
0000
;

//---------------dance-single - NewbStepper-DSP----------------
#NOTES:
     dance-single:
     NewbStepper:
     Medium:
     8:
     0.322823,0.515508,0.065910,0.075325,0.018831,240,233,7,8,0,0,0.322823,0.515508,0.065910,0.075325,0.018831,240,233,7,8,0,0:
0000
0000
0000
0000
,
0000
0000
0000
0000
,
0000
0000
0000
0000
,
0000
0000
0000
0000
,
0000
0000
0000
0000
,
0001
0000
0000
0001
0000
0000
0100
0000
,
0010
0000
0000
1000
0000
0000
0100
0000
,
0010
0000
0000
0001
0000
0000
1000
0000
,
2002
0000
0000
3003
,
0100
0000
0001
0000
,
1000
0000
0010
0000
,
0100
0000
0000
0000
0001
0000
0010
0001
,
0000
0000
0100
0000
0010
0000
0010
1000
,
0000
0000
0100
0000
0010
0000
0010
0001
,
0000
0000
0000
0000
1000
0000
0100
0200
,
0000
0000
0000
0300
0000
0000
0000
0000
,
0020
0000
0000
0030
,
0100
0000
1000
0000
,
0001
0000
0010
0000
,
0100
0000
0000
0000
1000
0000
0010
1000
,
0000
0000
0100
0000
0010
0000
0010
0001
,
0000
0000
0100
0000
0010
0000
0010
1000
,
0000
0000
0000
0000
0001
0000
0100
0200
,
0000
0000
0000
0300
0000
0000
0000
0000
,
1001
0000
0000
0000
,
1000
0010
0001
0100
,
1000
0001
0000
0000
,
0001
0010
1000
0100
,
0001
1000
0000
0000
,
0010
1000
0100
0001
,
0010
0100
0000
0000
,
0010
0001
0100
1000
,
0010
0100
0000
0000
,
0011
0001
0010
0100
,
1100
1000
0010
0100
,
0101
0001
0100
0010
,
1010
1000
0100
0010
,
0001
1000
0001
0000
0100
0010
0100
0000
,
0010
1000
0010
0000
0100
0001
0100
0000
,
0010
0100
0010
0100
0010
0100
0010
0000
,
2002
0000
0000
3003
,
0100
0000
0010
0000
0010
0000
0010
1000
,
0000
0100
0000
0100
0010
0000
0010
0001
,
0000
0000
0010
0000
0010
0000
0010
0001
,
0000
0100
0000
0100
0010
0000
0010
1000
,
0000
0000
0100
0000
0100
0000
0100
1000
,
0000
0010
0000
0010
0100
0000
0100
0001
,
0000
0000
0100
0000
0100
0000
0100
0001
,
0000
0010
0000
0010
0100
0000
0100
1000
,
0000
0000
0001
0000
0001
0000
0001
0010
,
0000
0000
1000
0000
0000
0000
1000
0000
0010
0000
0000
0001
0000
0000
0001
0000
,
0000
0000
1000
0000
1000
0000
1000
0010
,
0000
0000
0001
0000
0000
0000
0001
0000
0010
0000
0000
1000
0000
0000
1000
0000
,
0000
0000
0001
0000
0001
0000
0001
0100
,
0000
0000
1000
0000
0000
0000
1000
0000
0100
0000
0000
0001
0000
0000
0001
0000
,
0000
0000
1000
0000
1000
0000
1000
0100
,
0000
0000
0001
0000
0000
0000
0001
0000
0100
0000
0000
1000
0000
0000
1000
0000
,
0010
1000
0100
0000
,
0010
0001
0100
0000
,
1000
0100
0001
0010
,
0001
1000
0100
0000
,
0010
0001
0100
0000
,
0010
1000
0100
0000
,
0001
0100
1000
0010
,
1000
0001
0100
0000
,
0001
0010
1000
0100
,
0001
1000
0000
0000
,
1000
0010
0001
0100
,
1000
0001
0000
0000
,
0010
0001
0100
1000
,
0010
0100
0000
0000
,
0010
1000
0100
0001
,
0020
0000
0000
0000
,
0130
0000
0000
0000
;

//---------------dance-single - NewbStepper-BSP----------------
#NOTES:
     dance-single:
     NewbStepper:
     Easy:
     4:
     0.192349,0.309305,0.018831,0.160066,0,143,141,2,17,0,0,0.192349,0.309305,0.018831,0.160066,0,143,141,2,17,0,0:
0000
0000
0000
0000
,
0000
0000
0000
0000
,
0000
0000
0000
0000
,
0000
0000
0000
0000
,
0000
0000
0000
0000
,
1000
0000
0010
1000
,
0000
0001
0010
0000
,
0001
0000
0010
0001
,
0200
0000
0000
0300
,
0000
0000
0020
0000
,
0030
0000
2000
0000
,
3000
0000
0002
0000
,
0003
0000
2000
0000
,
3000
0000
0200
0000
,
0300
0000
0020
0000
,
0030
0000
0100
0000
,
0200
0000
0000
0300
,
0000
0000
0020
0000
,
0030
0000
0002
0000
,
0003
0000
2000
0000
,
3000
0000
0002
0000
,
0003
0000
0200
0000
,
0300
0000
0020
0000
,
0030
0000
1000
0000
,
1001
0000
0000
0000
,
0001
0000
0010
0000
,
0001
0100
0000
0000
,
1000
0000
0010
0000
,
1000
0100
0000
0000
,
0001
0000
0100
0000
,
0001
0010
0000
0000
,
1000
0000
0100
0000
,
1000
0000
0001
0000
,
0010
0001
0010
0000
,
0100
1000
0100
0000
,
0010
0100
0010
0000
,
0001
1000
0001
0000
,
1000
0001
1000
0001
,
1000
0001
1000
0001
,
0200
0000
0300
0000
,
0020
0000
0030
0000
,
0000
1000
0001
0000
,
1000
0000
0100
0010
,
0000
0001
1000
0000
,
0001
0000
0100
0010
,
0000
1000
0001
0000
,
1000
0000
0010
0100
,
0000
0001
1000
0000
,
0001
0000
0010
0100
,
0000
1000
0100
1000
,
0000
0010
0000
0100
,
0000
0001
0100
0001
,
0000
0010
0000
0100
,
0000
1000
0010
1000
,
0000
0100
0000
0010
,
0000
0001
0100
0001
,
0000
0010
0000
0100
,
0000
1000
0100
0010
,
0001
0000
0100
0000
,
0000
0001
0100
0010
,
1000
0000
0100
0000
,
0000
1000
0010
0100
,
0001
0000
0010
0000
,
0000
0001
0010
0100
,
1000
0000
0010
0000
,
1000
0000
0010
0000
,
1000
0100
0000
0000
,
0001
0000
0010
0000
,
0001
0100
0000
0000
,
1000
0000
0100
0000
,
1000
0010
0000
0000
,
0001
0100
0010
1000
,
0002
0000
0003
0000
,
1001
0000
0000
0000
;

//---------------dance-single - NewbStepper-bSP----------------
#NOTES:
     dance-single:
     NewbStepper:
     Beginner:
     2:
     0.102227,0.171836,0.009416,0.018831,0,76,75,1,2,0,0,0.102227,0.171836,0.009416,0.018831,0,76,75,1,2,0,0:
// measure 0
0000
0000
0000
0000
,  // measure 1
0000
0000
0000
0000
,  // measure 2
0000
0000
0000
0000
,  // measure 3
0000
0000
0000
0000
,  // measure 4
0000
0000
0000
0000
,  // measure 5
0001
0000
0000
0000
,  // measure 6
0000
0000
0000
0000
,  // measure 7
0001
0000
0000
0000
,  // measure 8
1000
0000
0000
0000
,  // measure 9
0000
0000
0000
0000
,  // measure 10
0100
0000
0000
0000
,  // measure 11
0000
0000
0001
0000
,  // measure 12
0000
0000
0010
0000
,  // measure 13
0000
0000
0010
0000
,  // measure 14
0000
0000
0010
0000
,  // measure 15
0000
0000
0000
0000
,  // measure 16
0000
0000
0000
0000
,  // measure 17
0100
0000
0000
0000
,  // measure 18
0100
0000
0000
0000
,  // measure 19
0000
0000
1000
0000
,  // measure 20
0000
0000
0010
0000
,  // measure 21
0000
0000
0010
0000
,  // measure 22
0000
0000
0010
0000
,  // measure 23
0000
0000
0000
0000
,  // measure 24
1001
0000
0000
0000
,  // measure 25
0010
0000
0000
0010
,  // measure 26
0000
0000
0000
0000
,  // measure 27
0001
0000
0000
0001
,  // measure 28
0000
0000
0000
0000
,  // measure 29
1000
0000
0000
1000
,  // measure 30
0000
0000
0000
0000
,  // measure 31
0100
0000
0000
0100
,  // measure 32
0000
0000
0000
0000
,  // measure 33
1000
0000
0001
0000
,  // measure 34
1000
0000
0000
0000
,  // measure 35
0001
0000
1000
0000
,  // measure 36
0001
0000
0000
0000
,  // measure 37
0100
0000
0010
0000
,  // measure 38
0100
0000
0000
0000
,  // measure 39
0020
0000
0000
0030
,  // measure 40
0000
0000
0000
0000
,  // measure 41
0000
1000
0000
0000
,  // measure 42
0001
0000
0000
0000
,  // measure 43
0000
0001
0000
0000
,  // measure 44
1000
0000
0000
0000
,  // measure 45
0000
0100
0000
0000
,  // measure 46
0010
0000
0000
0000
,  // measure 47
0000
0010
0000
0000
,  // measure 48
0100
0000
0000
0000
,  // measure 49
0000
1000
1000
0000
,  // measure 50
0001
0000
0010
0000
,  // measure 51
0000
0001
0001
0000
,  // measure 52
1000
0000
0010
0000
,  // measure 53
0000
1000
1000
0000
,  // measure 54
0001
0000
0100
0000
,  // measure 55
0000
0001
0001
0000
,  // measure 56
1000
0000
0100
0000
,  // measure 57
1000
0000
0000
0000
,  // measure 58
0100
0000
0000
0000
,  // measure 59
0010
0000
0000
0000
,  // measure 60
0001
0000
0000
0000
,  // measure 61
1000
0000
0000
0000
,  // measure 62
0010
0000
0000
0000
,  // measure 63
0100
0000
0000
0000
,  // measure 64
0001
0000
0000
0000
,  // measure 65
0010
0000
0000
0010
,  // measure 66
0000
0000
0000
0000
,  // measure 67
0001
0000
0000
0001
,  // measure 68
0000
0000
0000
0000
,  // measure 69
1000
0000
0000
1000
,  // measure 70
0000
0000
0000
0000
,  // measure 71
0100
0000
0010
0000
,  // measure 72
0200
0000
0300
0000
,  // measure 73
0100
0000
0000
0000
;

//---------------dance-double - NewbStepper-EDP----------------
#NOTES:
     dance-double:
     NewbStepper:
     Hard:
     11:
     0.472128,0.549875,0.056494,0.131819,0.037663,351,345,6,14,0,0,0.472128,0.549875,0.056494,0.131819,0.037663,351,345,6,14,0,0:
00000000
00000000
00000000
00000000
,
00000000
00000000
00000000
00000000
,
00000000
00000000
00000000
00000000
,
00000000
00000000
00000000
00000000
,
00000000
00000000
00000000
00000000
,
00010000
01000000
00000000
00000000
10000000
01000000
00010000
00000000
,
00001000
00010000
00001000
00000000
00000010
00001000
00010000
00000000
,
00001000
00000100
00000000
00000000
00000001
00000100
00001000
00000000
,
00022000
00000000
00000000
00033000
,
00000100
00000000
00000001
00000010
,
00001000
00000000
00010000
00000000
00001000
00000000
00000010
00000100
,
00000000
00000000
00001000
00000000
00010000
00000000
01000000
00010000
,
00000000
00000000
10000000
00000000
00100000
10000000
00100000
20000000
,
00000000
30000000
00010000
00000000
00100000
00010000
00100000
00020000
,
00000000
00030000
00000000
00001000
00000100
00010000
00000100
00000020
,
00000000
00000000
00001030
00000000
,
00020000
00000000
00000000
00030000
,
01000000
00000000
10000000
00100000
,
00010000
00000000
00001000
00000000
00010000
00000000
00100000
01000000
,
00000000
00000000
00010000
00000000
00001000
00000000
00000100
00001000
,
00000000
00000000
00000001
00000000
00000010
00000001
00000010
00000002
,
00000000
00000003
00001000
00000000
00000010
00001000
00000010
00002000
,
00000000
00003000
00000000
00010000
01000000
00001000
01000000
00200000
,
00000000
00000000
00310000
00000000
,
00011000
00000000
00000000
00000000
,
00000100
00000000
00000010
00001000
00000001
00000000
00000100
00000000
,
00000010
00001000
00000001
00000000
00000000
00000100
00001000
00010000
,
01000000
00000000
00100000
00010000
10000000
00000000
01000000
00000000
,
00100000
00010000
10000000
00000000
01000000
00010000
00001000
00010000
,
00100000
00000000
10000000
00010000
01000000
00000000
00100000
00000000
,
10000000
00010000
01000000
00000000
00000000
00100000
00010000
00001000
,
00000010
00000000
00000001
00001000
00000100
00000000
00000010
00000000
,
00000000
00000001
00000000
00000001
00000100
00000010
00001000
00000000
,
00010000
01000000
01100000
10000000
,
01000000
00000000
01100000
00000000
00000000
00100000
00001000
00010000
,
00001000
00000100
00000110
00000001
,
00000100
00000000
00000110
00000000
00001000
00010000
00000010
00010000
,
00001000
00100000
00010000
10000000
00100000
00000000
10000000
01000000
,
00100000
00010000
00100000
00000000
00001000
00010000
00001000
00000010
,
00000001
00000100
00000010
00001000
00000100
00010000
00001000
00100000
,
00020000
00000000
00000000
00030000
,
10000000
00000000
01000000
00000000
00010000
00000000
00001000
00000100
,
00000000
00000000
00000010
00000000
00000000
00000000
00000010
00000000
00001000
00000000
00000000
00000100
00000000
00000000
00000010
00000000
,
00000001
00000000
00000100
00000000
00001000
00000000
00010000
01000000
,
00000000
00000000
00100000
00000000
00000000
00000000
00100000
00000000
00010000
00000000
00000000
01000000
00000000
00000000
00100000
00000000
,
10000000
00000000
00100000
00000000
00010000
00000000
00001000
00010000
,
00000000
00000000
00001000
00000000
00000000
00000000
00001000
00000000
00000100
00000000
00000000
00000010
00000000
00000000
00000100
00000000
,
00000001
00000000
00000010
00000000
00001000
00000000
00010000
00001000
,
00000000
00000000
00010000
00000000
00000000
00000000
00010000
00000000
01000000
00000000
00000000
00100000
00000000
00000000
01000000
00000000
,
10000000
00100000
01000000
00000000
00010000
00100000
01000000
00010000
,
00000000
00000000
00001000
00000000
00000000
00000000
00001000
00000000
00010000
00000000
00000000
00000100
00000000
00000000
00000010
00000000
,
00000001
00000010
00000100
00000000
00001000
00000010
00000100
00001000
,
00000000
00000000
00010000
00000000
00000000
00000000
00010000
00000000
00001000
00000000
00000000
01000000
00000000
00000000
00100000
00000000
,
10000000
01000000
00010000
00000000
00001000
00100000
00010000
00100000
,
00000000
00000000
00001000
00000000
00000100
00000000
00000001
00000000
00000010
00000000
00000000
00000100
00000000
00000000
00001000
00000000
,
00000001
00000100
00001000
00000000
00010000
00000010
00001000
00000010
,
00000000
00000000
00010000
00000000
01000000
00000000
10000000
00000000
00100000
00000000
00000000
01000000
00000000
00000000
00010000
00000000
,
10000000
00000000
01000000
00100000
00010000
00000000
01000000
00100000
,
10000000
00000000
01000000
00010000
00001000
00000000
00010000
00001000
,
00000010
00000000
00000001
00000100
00000010
00000000
00000100
00001000
,
00010000
00000000
00001000
00000010
00000100
00000000
00001000
00000000
,
00000001
00000000
00000100
00000010
00001000
00000000
00000100
00000010
,
00000001
00000000
00000100
00001000
00010000
00000000
00001000
00010000
,
00100000
00000000
10000000
01000000
00100000
00000000
01000000
00010000
,
00001000
00000000
00010000
00100000
01000000
00100000
10000000
00000000
,
01000000
00000000
00100000
00010000
10000000
00000000
01000000
00000000
,
00100000
00010000
10000000
00000000
00000000
01000000
00010000
00001000
,
00000100
00000000
00000010
00001000
00000001
00000000
00000100
00000000
,
00000010
00001000
00000001
00000000
00000100
00001000
00010000
00001000
,
00000010
00000000
00000001
00001000
00000100
00000000
00000010
00000000
,
00000001
00001000
00000100
00000000
00000000
00000010
00001000
00010000
,
00100000
10000000
01000000
00100000
00010000
01000000
00100000
10000000
,
00020000
02030000
03200000
20300000
,
30010000
00000000
00000000
00000000
;

//---------------dance-double - NewbStepper-DDP----------------
#NOTES:
     dance-double:
     NewbStepper:
     Medium:
     8:
     0.321478,0.515508,0.065910,0.075325,0.018831,239,232,7,8,0,0,0.321478,0.515508,0.065910,0.075325,0.018831,239,232,7,8,0,0:
00000000
00000000
00000000
00000000
,
00000000
00000000
00000000
00000000
,
00000000
00000000
00000000
00000000
,
00000000
00000000
00000000
00000000
,
00000000
00000000
00000000
00000000
,
10000000
00000000
00000000
10000000
00000000
00000000
01000000
00000000
,
00100000
00000000
00000000
00010000
00000000
00000000
00001000
00000000
,
00000100
00000000
00000000
00000010
00000000
00000000
00000001
00000000
,
00002002
00000000
00000000
00003003
,
00000100
00000000
00000001
00000000
,
00001000
00000000
00000010
00000000
,
00000100
00000000
00000000
00000000
00001000
00000000
00010000
00001000
,
00000000
00000000
01000000
00000000
00100000
00000000
00100000
10000000
,
00000000
00000000
01000000
00000000
00100000
00000000
00100000
00010000
,
00000000
00000000
00000000
00000000
00100000
00000000
00001000
00002000
,
00000000
00000000
00000000
00003000
00000000
00000000
00000000
00000000
,
00020000
00000000
00030000
00000000
,
01000000
00000000
10000000
00000000
,
00010000
00000000
00100000
00000000
,
01000000
00000000
00000000
00000000
00010000
00000000
00001000
00010000
,
00000000
00000000
00000100
00000000
00000010
00000000
00000010
00000001
,
00000000
00000000
00000100
00000000
00000010
00000000
00000010
00001000
,
00000000
00000000
00000000
00000000
00000010
00000000
00010000
00020000
,
00000000
00000000
00000000
00030000
00000000
00000000
00000000
00000000
,
00011000
00000000
00000000
00000000
,
00001000
00000010
00000001
00000100
,
00001000
00010000
00000000
00000000
,
00010000
00100000
10000000
01000000
,
00010000
00001000
00000000
00000000
,
00001000
00000100
00000001
00000010
,
00001000
00010000
00000000
00000000
,
00010000
01000000
10000000
00100000
,
00010000
00001000
00000000
00000000
,
00001010
00000010
00000001
00000100
,
00000101
00000001
00000010
00001000
,
00011000
00010000
00100000
10000000
,
10100000
00100000
01000000
00010000
,
10000000
00100000
10000000
00000000
00010000
00100000
00010000
00000000
,
00100000
00001000
00100000
00000000
00001000
00010000
00001000
00000000
,
00000100
00000010
00000100
00000010
00000100
00000010
00000100
00000000
,
00002002
00000000
00000000
00003003
,
00000100
00000000
00000010
00000000
00000010
00000000
00000010
00001000
,
00000000
00000001
00000000
00000001
00000100
00000000
00000100
00001000
,
00000000
00000000
00100000
00000000
00100000
00000000
00100000
00010000
,
00000000
10000000
00000000
10000000
01000000
00000000
01000000
00010000
,
00000000
00000000
00000100
00000000
00000100
00000000
00000100
00001000
,
00000000
00000001
00000000
00000001
00000010
00000000
00000010
00001000
,
00000000
00000000
01000000
00000000
01000000
00000000
01000000
00010000
,
00000000
10000000
00000000
10000000
00100000
00000000
00100000
00010000
,
00000000
00000000
00001000
00000000
00001000
00000000
00001000
00000010
,
00000000
00000000
00000001
00000000
00000000
00000000
00000001
00000000
00000100
00000000
00000000
00001000
00000000
00000000
00001000
00000000
,
00000000
00000000
00010000
00000000
00010000
00000000
00010000
00100000
,
00000000
00000000
10000000
00000000
00000000
00000000
10000000
00000000
01000000
00000000
00000000
00010000
00000000
00000000
00010000
00000000
,
00000000
00000000
00001000
00000000
00001000
00000000
00001000
00000100
,
00000000
00000000
00000001
00000000
00000000
00000000
00000001
00000000
00000010
00000000
00000000
00001000
00000000
00000000
00001000
00000000
,
00000000
00000000
00010000
00000000
00010000
00000000
00010000
01000000
,
00000000
00000000
10000000
00000000
00000000
00000000
10000000
00000000
00100000
00000000
00000000
00010000
00000000
00000000
00010000
00000000
,
00001000
00000100
00000001
00000000
,
00000001
00000010
00001000
00000000
,
00010000
01000000
10000000
00000000
,
10000000
00100000
00010000
00000000
,
00001000
00100000
00010000
00000000
,
01000000
00100000
10000000
00000000
,
01000000
00010000
00001000
00000100
,
00000001
00000100
00001000
00000000
,
00010000
00100000
10000000
01000000
,
00010000
00001000
00000000
00000000
,
00001000
00000010
00000001
00000100
,
00001000
00010000
00000000
00000000
,
00010000
01000000
10000000
00100000
,
00010000
00001000
00000000
00000000
,
00000100
00000001
00000010
00001000
,
00020000
00000000
00000000
00000000
,
00031000
00000000
00000000
00000000
;

//---------------dance-double - NewbStepper-BDP----------------
#NOTES:
     dance-double:
     NewbStepper:
     Easy:
     5:
     0.200419,0.317779,0.018831,0.150651,0,149,147,2,16,0,0,0.200419,0.317779,0.018831,0.150651,0,149,147,2,16,0,0:
00000000
00000000
00000000
00000000
,
00000000
00000000
00000000
00000000
,
00000000
00000000
00000000
00000000
,
00000000
00000000
00000000
00000000
,
00000000
00000000
00000000
00000000
,
10000000
00000000
00100000
10000000
,
00000000
00010000
00100000
00000000
,
00001000
00000000
00000010
00000001
,
00000200
00000000
00000000
00000300
,
00000000
00000000
00000020
00000000
,
00000030
00000000
00002000
00000000
,
00003000
00000000
00020000
00000000
,
00030000
00000000
02000000
00000000
,
03000000
00000000
00200000
00000000
,
00300000
00000000
20000000
00000000
,
30000000
00000000
01000000
00000000
,
02000000
00000000
00000000
03000000
,
00000000
00000000
00200000
00000000
,
00300000
00000000
00020000
00000000
,
00030000
00000000
00002000
00000000
,
00003000
00000000
00000200
00000000
,
00000300
00000000
00000020
00000000
,
00000030
00000000
00000001
00000000
,
00001001
00000000
00000000
00000000
,
00000001
00000000
00000010
00000000
,
00000001
00000100
00000000
00000000
,
00001000
00000000
00000010
00000000
,
00001000
00000100
00000000
00000000
,
00010000
00000000
01000000
00000000
,
00010000
00100000
00000000
00000000
,
10000000
00000000
01000000
00000000
,
10000000
00000000
00010000
00000000
,
00100000
01000000
00100000
00000000
,
00001000
00010000
00001000
00000000
,
00000010
00000100
00000010
00000000
,
00000001
00001000
00000001
00000000
,
00000100
00000010
00000100
00000000
,
00001000
00010000
00001000
00010000
,
00001000
00010000
00001000
00010000
,
00000200
00000000
00000300
00000000
,
00020000
00000000
00030000
00000000
,
00000000
00001000
01000000
00000000
,
00100000
00000000
10000000
01000000
,
00000000
00010000
00001000
00000000
,
00010000
00000000
00000100
00000010
,
00000000
00000001
00000100
00000000
,
00000010
00000000
00001000
00000100
,
00000000
00010000
00001000
00000000
,
00100000
00000000
01000000
10000000
,
00000000
00100000
01000000
00100000
,
00000000
10000000
00000000
01000000
,
00000000
00010000
00001000
00010000
,
00000000
00001000
00000000
00000010
,
00000000
00000001
00000100
00000001
,
00000000
00000010
00000000
00001000
,
00000000
00010000
00001000
00010000
,
00000000
00100000
00000000
10000000
,
00000000
00010000
01000000
00100000
,
10000000
00000000
01000000
00000000
,
00000000
10000000
01000000
00100000
,
00010000
01000000
00000000
00000000
,
00000000
00001000
00010000
00000100
,
00001000
00000000
00000010
00000000
,
00000000
00001000
00000100
00000010
,
00000001
00000000
00000100
00000000
,
00000001
00000000
00000010
00000000
,
00000001
00000100
00000000
00000000
,
00001000
00000000
00000010
00000000
,
00001000
00000100
00000000
00000000
,
00010000
00000000
01000000
00000000
,
00010000
00100000
00000000
00000000
,
10000000
00000000
01000000
00000000
,
10000000
00100000
00000000
00000000
,
10000000
01000000
00100000
00001000
,
00020000
00000000
00030000
00000000
,
00011000
00000000
00000000
00000000
;
