#TITLE:Walking on the Moon;
#ARTIST:Alex Ashear-Freed;
#BANNER:Walking on the Moon.png;
#BACKGROUND:Walking on the Moon-bg.png;
#MUSIC:Walking on the Moon.ogg;
#OFFSET:-0.032921;
#SAMPLESTART:53.96;
#SAMPLELENGTH:15;
#DISPLAYBPM:105;
#BPMS:0=105,38=108,40=104,42=118,43=101,44=103,44.5=99,45.5=105,46=103,47=107,48=103,49=98,50=108,51=115,52=105,56=97,57=105,59=116,60=105,63=102,64=105,66.5=117,67=104,68=105,81=100,81.5=106,83=105,84=107,87=103,88=97,89=109,91=104,92=103,95=102,96=105;

//---------------dance-single - RIME-bSP----------------
#NOTES:
     dance-single:
     RIME:
     Beginner:
     1:
     0.056546,0.086091,0.029687,0.059373,0,40,37,3,6,0,0,0.056546,0.086091,0.029687,0.059373,0,40,37,3,6,0,0:
0000
0000
0000
0000
,
0000
0000
0000
0000
,
0000
0000
0000
0000
,
0000
0000
0000
0000
,
1000
0000
0000
0000
,
1000
0000
0000
0000
,
0001
0000
0000
0000
,
0001
0000
0000
0000
,
0200
0000
0000
0000
,
0300
0000
0000
0000
,
0100
0000
0000
0000
,
0100
0000
0000
0000
,
0020
0000
0000
0000
,
0030
0000
0000
0000
,
0010
0000
0000
0000
,
0010
0000
0000
0000
,
1000
0000
0000
0000
,
1000
0000
0000
0000
,
0001
0000
0000
0000
,
0001
0000
0000
0000
,
1000
0000
0000
0000
,
0001
0000
0000
0000
,
1000
0000
0000
0000
,
0001
0000
0000
0000
,
1001
0000
0000
0000
,
1000
0000
0000
0000
,
0100
0000
0000
0000
,
0100
0000
0000
0000
,
0010
0000
0000
0000
,
0010
0000
0000
0000
,
0001
0000
0000
0000
,
0001
0000
0000
0000
,
1001
0000
0000
0000
,
0001
0000
0000
0000
,
0100
0000
0000
0000
,
0100
0000
0000
0000
,
0010
0000
0000
0000
,
0010
0000
0000
0000
,
1000
0000
0000
0000
,
1000
0000
0000
0000
,
2002
0000
0000
0000
,
3003
0000
0000
0000
,
2000
0000
0000
0000
,
3002
0000
0003
0000
;

//---------------dance-single - RIME-BSP----------------
#NOTES:
     dance-single:
     RIME:
     Easy:
     3:
     0.087646,0.127652,0.079164,0.118746,0,62,54,8,12,0,0,0.087646,0.127652,0.079164,0.118746,0,62,54,8,12,0,0:
0000
0000
0000
0000
,
0000
0000
0000
0000
,
0000
0000
0000
0000
,
0000
0000
0000
0000
,
1000
0000
1000
0000
,
0001
0000
0001
0000
,
0010
0000
0010
0000
,
0100
0000
0100
0000
,
0220
0000
0000
0000
,
0330
0000
0000
0000
,
2002
0000
0000
0000
,
3003
0000
0000
0000
,
2020
0000
0000
0000
,
3030
0000
0000
0000
,
0202
0000
0000
0000
,
0303
0000
0000
0000
,
0001
0000
0001
0000
,
0001
0000
0001
0000
,
1000
0000
1000
0000
,
1000
0000
1000
0000
,
0100
0000
0100
0000
,
0100
0000
0100
0000
,
0010
0000
0010
0000
,
0010
0000
0010
0000
,
1001
0000
0000
0000
,
0001
0000
1000
0000
,
0001
0000
0000
0000
,
0100
0000
0010
0000
,
0100
0000
0000
0000
,
0010
0000
1000
0000
,
0010
0000
0000
0000
,
1000
0000
0001
0000
,
1001
0000
0000
0000
,
0001
0000
0010
0000
,
0001
0000
0000
0000
,
0010
0000
0100
0000
,
0010
0000
0000
0000
,
0100
0000
1000
0000
,
0100
0000
0000
0000
,
1000
0000
0001
0000
,
2002
0000
0000
0000
,
3003
0000
0000
0000
,
0220
0000
0000
0000
,
0330
0000
0000
0000
;

//---------------dance-single - RIME-DSP----------------
#NOTES:
     dance-single:
     RIME:
     Medium:
     6:
     0.234665,0.276579,0.138537,0.059373,0.084112,166,152,14,6,0,0,0.234665,0.276579,0.138537,0.059373,0.084112,166,152,14,6,0,0:
0000
0000
0000
0000
,
0000
0000
0000
0000
,
0000
0000
0000
0000
,
0000
0000
0000
0000
,
1000
0000
0000
0010
0000
0000
1000
0000
,
0001
0000
0000
0100
0000
0000
0001
0000
,
1000
0000
0000
0100
0000
0000
1000
0000
,
0001
0000
0000
0010
0000
0000
0001
0000
,
1001
0000
0000
0000
1000
0000
0000
0000
0001
0000
0000
0001
0000
0000
0000
0000
,
0000
0000
0010
0000
0000
0000
0010
0000
0100
0000
0000
1000
0000
0000
1000
0000
,
0000
0000
0000
0000
0001
0000
0000
0000
1000
0000
0000
1000
0000
0000
0000
0000
,
0000
0000
0000
0010
0000
0000
0010
0000
0100
0000
0000
0000
0100
0000
0000
0001
,
0000
0000
0000
0000
1000
0000
0000
0000
0001
0000
0000
0001
0000
0000
0000
0000
,
0000
0000
0100
0000
0100
0000
0000
0100
0000
0000
0010
0000
0010
0000
0000
1000
,
0000
0000
0000
0000
0001
0000
0000
0000
1000
0000
0000
1000
0000
0000
0000
0000
,
0000
0000
0000
0100
0000
0100
0000
0010
0000
0010
0000
0001
0000
0000
0000
0000
,
1000
0000
1000
0100
0000
0000
1000
0000
,
0001
0000
0000
0010
0000
0010
0001
0000
,
1000
0000
0000
0010
0000
0010
1000
0000
,
0001
0000
0000
0100
0100
0000
0001
0000
,
1000
0000
0000
0001
0000
0001
1000
0000
,
0100
0000
0000
0010
0000
0010
0100
0000
,
0010
0000
0010
0001
0000
0000
0010
0000
,
0100
0010
0100
0010
0100
0000
0000
0000
,
1001
0000
0000
1000
0000
0000
0100
0000
,
0000
0010
0000
0000
0100
0000
0100
0000
,
1000
0000
0000
0001
0000
0000
1001
0000
,
0001
0000
0000
0100
0000
0001
0100
0000
,
0101
0000
0000
0001
0000
0000
0010
0000
,
0100
0000
0010
0000
0100
0000
0000
0000
0010
0000
0000
0010
0000
0000
0000
0000
,
0001
0000
0000
1000
0000
1000
0000
2000
,
0001
0001
3001
0000
,
1001
0000
0000
0011
0000
0000
1001
0000
,
0000
1000
0100
1000
0100
0000
0010
0000
,
0100
0100
0000
0100
0000
0010
0000
0001
,
1000
0000
0000
0020
0000
0000
1030
0010
,
1010
0000
0000
1001
0000
0000
0101
0000
,
0001
0000
0000
0000
0010
0000
0001
0000
0000
0001
0000
0000
1000
0000
0001
0000
,
1000
0000
0000
1000
0000
0000
1000
0000
0000
0000
0010
0000
0000
0000
0100
0000
,
0002
1000
1000
1003
,
0102
0000
0000
0100
0000
0000
0103
0000
,
0021
0000
0000
0001
0000
0000
0031
0000
,
0210
0000
0000
0010
0000
0000
0310
0000
,
1001
0000
0000
0000
;

//---------------dance-single - RIME-ESP----------------
#NOTES:
     dance-single:
     RIME:
     Hard:
     12:
     0.458020,0.510608,0.494775,0.178119,0.361186,324,274,50,18,0,0,0.458020,0.510608,0.494775,0.178119,0.361186,324,274,50,18,0,0:
0000
0000
0000
0000
,
0000
0000
0000
0000
,
0000
0000
0000
0000
,
0000
0000
0000
0000
,
1000
0000
0000
0010
0000
1000
0010
0000
0000
1000
0000
0000
0001
0000
0000
0000
,
0010
0000
0000
0001
0000
0010
0001
0000
0000
0010
0000
0000
0100
0000
0000
0000
,
1000
0000
0000
0100
0000
1000
0100
0000
0000
1000
0000
0000
0010
0000
0000
0000
,
0100
0000
0000
0010
0000
0100
0010
0000
0000
0100
0000
0000
0001
0000
0000
0000
,
2001
0000
0000
0000
0100
0000
0000
0000
0001
0000
0000
3001
0000
0000
0000
0000
,
0000
0000
0001
0000
0000
0000
0010
0000
0100
0000
0000
1000
0000
1000
0001
0000
,
0101
0000
0100
0000
0010
0000
1000
0000
0001
0000
0000
0001
0000
0000
0000
0000
,
0011
0000
0010
0001
0000
0000
1000
0000
0010
0000
0100
0000
0001
1000
0000
0002
,
1003
0000
0000
0000
0001
0000
0011
0000
0010
0000
0000
0100
1000
0000
0000
0000
,
0001
0000
0101
0000
0100
0001
0000
0100
0000
0000
0001
0000
1000
0000
0001
1000
,
0001
0000
1000
0000
0100
0000
1100
0000
1000
0000
0000
0010
1000
0000
0000
0000
,
1010
0000
0010
0100
0000
0001
0000
1000
0000
1000
0000
0002
0000
0000
0013
0000
,
0001
0000
0000
0010
0001
0000
0011
0000
0000
0001
0010
0000
0011
0000
0000
0000
,
0001
0000
0000
1000
0001
0000
1001
0000
0000
0001
1000
0000
1001
0000
0000
0000
,
1000
0000
0000
0010
1000
0000
1010
0000
0000
1000
0010
0000
1010
0000
0000
0000
,
0010
0000
0000
0100
0010
0000
0110
0000
0000
0010
0100
0000
0110
0000
0000
0000
,
0100
0000
0000
0001
0100
0000
0101
0000
0000
0100
0001
0000
0101
0000
0000
0000
,
0001
0000
0000
1000
0001
0000
1001
0000
0000
0001
1000
0000
1001
0000
0000
0000
,
1000
0000
0000
0100
1000
0000
1100
0000
0000
1000
0100
0000
1100
0000
0100
0000
,
0110
0110
0110
0110
1001
1000
0010
0200
,
0001
0000
0302
0000
0000
0000
1003
0000
0000
0000
0001
0000
0010
0001
0000
0000
,
0001
0000
2000
0000
0000
0000
3010
0000
1000
0000
0000
0001
0000
0000
0010
0000
,
0100
0000
0000
0010
0000
0000
0002
0000
0000
0000
0000
0000
2003
0000
3010
1000
,
0001
0000
0000
0100
0001
0000
0101
0000
0000
0001
0100
0000
0101
0000
0002
0000
,
1000
0000
0203
0000
0000
0000
0310
0000
0100
0000
0001
0000
0100
0001
0000
0000
,
0001
0000
1000
0000
1000
0000
0100
0000
1000
0000
0000
0010
0000
0000
0001
0000
,
0010
0000
0000
1000
0000
0000
0200
0000
0000
0000
0020
0000
0300
0000
0130
0010
,
0001
0000
0001
0000
1001
0000
1001
0000
0001
1000
0000
0000
0010
0000
0100
0000
,
0101
0000
0002
0000
0000
0000
1003
0000
0001
0000
0010
0000
0100
0010
0000
0000
,
0010
0000
0001
0000
0001
0000
1000
0000
0010
0000
0000
0100
0000
0000
0002
0000
,
1003
0000
0001
0000
0000
0000
0101
0000
0000
0000
1010
0000
0000
0000
1000
0100
,
0010
0000
0000
0100
0010
0000
0120
0000
0000
0000
0000
0000
0031
0000
0010
0000
,
0010
0001
0000
0000
2000
0000
0010
0000
3010
0000
1000
0000
0001
0000
0010
0001
,
0010
0000
0000
0100
0010
0000
0110
0000
0000
1001
0000
0000
1010
0000
0010
0000
,
0110
0000
0000
0101
0000
0000
1001
0000
0000
0000
2000
0000
0100
0000
3010
0000
,
1010
0000
0000
0010
1000
0000
1010
0000
1000
0000
0001
0010
0001
0010
0100
1000
,
0001
0000
0000
0100
0001
0000
0101
0000
0000
0001
1000
0000
1001
0000
0000
0000
,
1100
0000
0000
0100
0010
0000
0110
0000
0000
0010
0001
0000
0011
0000
0002
0000
,
1003
0000
0000
0001
1000
0000
1001
0000
0000
1000
0010
0000
0110
0000
0010
0000
,
1001
0000
0000
0000
;

//---------------dance-double - RIME-BDP----------------
#NOTES:
     dance-double:
     RIME:
     Easy:
     4:
     0.128642,0.170203,0.059373,0.237492,0,91,85,6,24,0,0,0.128642,0.170203,0.059373,0.237492,0,91,85,6,24,0,0:
00000000
00000000
00000000
00000000
,
00000000
00000000
00000000
00000000
,
00000000
00000000
00000000
00000000
,
00000000
00000000
00000000
00000000
,
00010000
00100000
01000000
00000000
,
00100000
01000000
10000000
00000000
,
01000000
10000000
00010000
00000000
,
01000000
00001000
00010000
00000000
,
00022000
00000000
00000000
00000000
,
00033000
00000000
00000000
00000000
,
00000220
00000000
00000000
00000000
,
00000330
00000000
00000000
00000000
,
00000022
00000000
00000000
00000000
,
00000033
00000000
00000000
00000000
,
00000202
00000000
00000000
00000000
,
00000303
00000000
00000000
00000000
,
00000100
00000000
00000100
00000000
,
00000010
00000010
00000010
00000000
,
00001000
00000000
00001000
00000000
,
00000100
00000100
00000100
00000000
,
00010000
00000000
00010000
00000000
,
00001000
00001000
00001000
00000000
,
00100000
00000000
00100000
00000000
,
01000000
01000000
01000000
00000000
,
10010000
00000000
10000000
01000000
,
00010000
00000000
00010000
01000000
,
20000000
00000000
30020000
00000000
,
00032000
00000000
00003002
00000000
,
00000103
00000000
00000001
00000100
,
00001000
00000000
00001000
00000100
,
00000002
00000000
00002003
00000000
,
00023000
00000000
20030000
00000000
,
31000000
00000000
10000000
00100000
,
00010000
00000000
00010000
00100000
,
20000000
00000000
30020000
00000000
,
00032000
00000000
00003002
00000000
,
00000103
00000000
00000001
00000010
,
00001000
00000000
00001000
00000010
,
00000002
00000000
00002003
00000000
,
00023000
00000000
20030000
00000000
,
31000000
00000000
01000000
00000000
,
10000000
00010000
10000000
00010000
,
01000000
00000000
00001000
00000000
,
00011000
00000000
00000000
00000000
;

//---------------dance-double - RIME-DDP----------------
#NOTES:
     dance-double:
     RIME:
     Medium:
     7:
     0.267179,0.297855,0.158328,0.148433,0,189,173,16,15,0,0,0.267179,0.297855,0.158328,0.148433,0,189,173,16,15,0,0:
00000000
00000000
00000000
00000000
,
00000000
00000000
00000000
00000000
,
00000000
00000000
00000000
00000000
,
00000000
00000000
00000000
00000000
,
00000000
00010000
00001000
00010000
00000000
00000000
00000100
00000000
,
00000000
00010000
00001000
00010000
00000000
00000010
00000010
00000000
,
00000000
00001000
00000001
00001000
00000000
00000000
00000100
00000000
,
00000000
00001000
00000001
00001000
00000000
00000010
00000010
00000000
,
00000120
00001000
00000100
00001030
,
00000000
00000010
00001000
00000100
,
00020100
00001000
00000100
00031000
,
00012000
00100000
00010000
00103000
,
00201000
00000000
00000000
00010000
00000000
00000000
01000000
00000000
,
00000000
10000000
00000000
00000000
01300000
00000000
00000000
00000000
,
00210000
00000000
00000000
01000000
00000000
00000000
00010000
00000000
,
00000000
00001000
00000000
00000000
00310000
00000000
00100000
00000000
,
00001000
00000000
00001000
00000000
00001000
00010000
00001000
00000000
,
00010000
00000000
00010000
00000000
00010000
00001000
00010000
00000000
,
00000100
00000000
00000100
00000000
00000100
00001000
00000100
00000000
,
00000010
00000000
00000010
00000000
00000010
00000001
00000010
00000000
,
00000001
00000000
00000001
00000000
00000001
00001000
00000001
00000000
,
00000100
00000000
00000100
00000000
00000100
00000010
00000100
00000000
,
00000010
00000000
00000010
00000000
00000010
00001000
00000010
00000000
,
00010000
00001000
00010000
00001000
00010000
00000000
00000000
00000000
,
00012000
00100000
00010000
01003000
,
00001000
00000000
00010000
00000000
00001000
00010000
00001000
00000000
,
00021000
00000010
00000100
00001000
,
00030100
00000000
00010000
00000000
00000100
00000010
00000001
00000000
,
00000102
00000010
00001000
00000100
,
00001003
00000000
00000001
00000000
00000100
00000001
00001000
00000000
,
00002010
00000001
00000100
00003010
,
00001000
00000010
00010000
00001000
00100000
00010000
10000000
00000000
,
12000000
00100000
00010000
03100000
,
01000000
10000000
00010000
10000000
00010000
00000000
01000000
00000000
,
02010000
00100000
00010000
03001000
,
01000000
00000000
00001000
00010000
00000000
00010000
00001000
00000000
,
00021000
00000010
00000100
00031000
,
00010000
00001000
00000010
00000000
00000100
00000000
00001000
00000000
,
00000001
00000000
00000100
00000000
00000010
00000000
00001000
00000010
,
00010000
00000000
00001000
00000000
00100000
01000000
10000000
00000000
,
12000000
00010000
10000000
03010000
,
01020000
00001000
01000000
00031000
,
00012000
00000010
00100000
00013000
,
00011000
00000000
00000000
00000000
;

//---------------dance-double - RIME-EDP----------------
#NOTES:
     dance-double:
     RIME:
     Hard:
     13:
     0.545666,0.553159,0.168224,0.188015,0.588782,386,369,17,19,0,0,0.545666,0.553159,0.168224,0.188015,0.588782,386,369,17,19,0,0:
// measure 0
00000000
00000000
00000000
00000000
,  // measure 1
00000000
00000000
00000000
00000000
,  // measure 2
00000000
00000000
00000000
00000000
,  // measure 3
00000000
00000000
00000000
00000000
,  // measure 4
00001000
01000000
00100000
01100000
00000000
01000000
00010000
00000000
,  // measure 5
00100000
00001000
00010000
00011000
00000000
00010000
00000010
00000000
,  // measure 6
00000100
00000001
00000010
00000110
00000000
00000100
00001000
00000000
,  // measure 7
00001001
00000001
00000100
00000110
00000000
00000010
00001000
00010000
,  // measure 8
02000000
00000000
00000000
00000000
03010000
00000000
00000000
00000000
01000000
00000000
00000000
00200000
00000000
00000000
00000000
00000000
,  // measure 9
10300000
00000000
00200000
00000000
00010000
00000000
10300000
00000000
00100000
00000000
10000000
00010000
00000000
00010000
00100000
00000000
,  // measure 10
00110000
00000000
00100000
00000000
00001000
00000000
00010000
00000000
00010000
00000000
00000000
00010200
00000000
00000000
00000000
00000000
,  // measure 11
00000310
00000000
00000100
00001000
00000000
00000000
00000001
00000000
00000100
00000000
00000010
00000000
00001000
00000010
00000000
00010000
,  // measure 12
00001000
00000000
00000000
00000000
00100000
00000000
00101000
00000000
00200000
00000000
00000000
01300000
00100000
00000000
01000000
00000000
,  // measure 13
10000000
00000000
00100000
00000000
00010000
00100000
00000000
20000000
01000000
00000000
30010000
00000000
10000000
00000000
01000000
00010000
,  // measure 14
00001000
00000000
00010000
00000000
00010000
00000000
00000100
00000000
00000020
00000000
00000000
00000031
00000000
00000000
00000000
00000000
,  // measure 15
00000011
00000000
00000001
00000100
00000000
00001000
00000000
00010000
00000000
01000000
00000000
10000000
00000000
00000000
00010000
00000000
,  // measure 16
10000000
00000000
00000000
00100000
10000000
00100000
10000000
00000000
00000000
00010000
00100000
00010000
00100000
00000000
01000000
00100000
,  // measure 17
01000000
00000000
00000000
00100000
00010000
00100000
00010000
00000000
00000000
00100000
00001000
00100000
00001000
00000000
00010000
00000000
,  // measure 18
00000010
00000000
00000000
00000100
00000010
00000100
00000010
00000000
00000000
00001000
00000001
00001000
00000001
00000000
00001000
00000000
,  // measure 19
00001000
00000000
00000000
00000100
00010000
00000100
00010000
00000000
00000000
00001000
01000000
00001000
01000000
00000000
00010000
00000000
,  // measure 20
00100000
00000000
00000000
01000000
00100000
00010000
01000000
00000000
00000000
00100000
10000000
01000000
00100000
00000000
01000000
10000000
,  // measure 21
00010000
00000000
00000000
01000000
00100000
00010000
00001000
00000000
00000000
00010000
00001000
00000010
00000100
00000000
00001000
00000000
,  // measure 22
00000100
00000000
00000000
00000010
00000001
00000100
00001000
00000000
00000000
00010000
00100000
10000000
01000000
00100000
00010000
01000000
,  // measure 23
00100000
00100000
00100000
00100000
01100000
01000000
00010000
00100000
,  // measure 24
00101000
00000000
00002000
00000000
00000000
00000000
00000010
00000000
00100000
00000000
00003010
00000000
00001000
00100000
00000000
00100000
,  // measure 25
00000010
00000000
00010000
00001000
00010000
00000000
00001000
00000000
01000000
00001000
00100000
00010000
00000000
01000000
00100000
00000000
,  // measure 26
10100000
00000000
00000000
10000000
00010000
00000000
00200000
00000000
01000000
00000000
00010000
00000000
02300000
00000000
03100000
01000000
,  // measure 27
10000000
00000000
00000000
01000000
00100000
00000000
01000000
00000000
10000000
00000000
00010000
00010000
01000000
00000000
00001000
01000000
,  // measure 28
00000100
00000000
00001000
00000100
00001000
00000000
00000100
00000000
00000010
00000001
00000010
00000000
00000001
00002000
00000000
00003010
,  // measure 29
00001000
00000000
00000100
00000010
00000100
00000000
00000100
00000000
00001000
00000001
00000100
00001000
00000000
00000100
00000010
00000000
,  // measure 30
00001010
00000000
00000000
00001000
00000100
00000000
00020000
00000000
00130000
00000000
00020000
00000000
00031000
00000000
00010000
00001000
,  // measure 31
01000000
00000000
01000000
00000000
01000000
00000000
01000000
00000000
01000000
00100000
00000000
00100000
10000000
00000000
00010000
00100000
,  // measure 32
00001000
00010000
00001000
00000000
00010000
00000000
00000100
00000000
00001000
00000100
00000010
00000000
00000100
00001000
00000001
00000100
,  // measure 33
00000010
00000000
00001000
00000010
00010000
00000000
00001000
00000000
00100000
00001000
00100000
00010000
00000000
00010000
10000000
00100000
,  // measure 34
01000000
00000000
00020000
00000000
00031000
00000000
00020000
00000000
01030000
00000000
00010000
00000000
00100000
00010000
00000010
00000100
,  // measure 35
00001000
00000000
00000100
00001000
00000001
00000200
00000010
00000000
00000301
00000100
00000000
00000001
00000100
00000000
00000001
00001000
,  // measure 36
00000100
00010000
00000000
00000100
00010000
00000000
00000010
00000000
00000100
00000000
00000001
00000000
00000010
00000100
00001000
00010000
,  // measure 37
01000000
00000000
00010000
00100000
00010000
00000000
01000000
00000000
00100000
10000000
00000000
10000000
00010000
00000000
00100000
00000000
,  // measure 38
00110000
00000000
00000000
00010000
10000000
00000000
00020000
00000000
00031000
00000000
00020000
00000000
10030000
00000000
10010000
00000000
,  // measure 39
01010000
00000000
00010000
01000000
00001000
00000000
00010000
00000000
00001000
00000000
00010000
00000100
00000010
00000001
00000100
00000010
,  // measure 40
00002000
00000000
00003001
00001000
00000000
00001000
00000001
00000000
00001000
00000010
00000000
00000010
00001000
00000100
00000010
00000001
,  // measure 41
00000100
00000000
00000100
00000010
00000000
00000010
00000100
00000000
00000100
00000001
00000000
00000001
00000010
00000100
00001000
00000010
,  // measure 42
00010000
00000000
00001000
00010000
00000000
00010000
00001000
00000000
00001000
00100000
00000000
00100000
00010000
01000000
00100000
10000000
,  // measure 43
10010000
00000000
00000000
00000000
;
