#TITLE:WONDERLAND (20th Anniversary Mix);
#ARTIST:funkyzukin vs. X-TREME;
#BANNER:WONDERLAND (20th Anniversary Mix).png;
#BACKGROUND:WONDERLAND (20th Anniversary Mix)-bg.png;
#MUSIC:WONDERLAND (20th Anniversary Mix).ogg;
#OFFSET:-0.248837;
#SAMPLESTART:49.947922;
#SAMPLELENGTH:15;
#BPMS:0=140;

//---------------dance-single - Marten-ESP----------------
#NOTES:
     dance-single:
     Marten:
     Hard:
     10:
     0.429938,0.432314,0.349177,0.108078,0.008314,362,320,42,13,0,0,0.429938,0.432314,0.349177,0.108078,0.008314,362,320,42,13,0,0:
0000
0000
0000
0000
,
0000
0000
0000
0000
,
0000
0000
0000
0000
,
0000
0000
0000
0000
,
0000
0000
0000
0000
,
0001
0100
0010
0100
0001
0000
1000
0000
,
0001
0010
0100
1000
0010
0000
0100
0000
,
0010
0100
0001
1000
0100
0000
0010
0000
,
0001
0000
0010
0000
0001
0000
0000
1000
0000
0000
0100
0000
0100
0000
1000
0000
,
0010
0100
0010
1000
0001
0000
0010
0000
,
0001
1000
0010
1000
0100
0000
0010
0000
,
0001
0100
0010
0000
1000
0100
1000
0000
,
0011
0000
1100
0000
1001
0000
0001
1000
,
0010
1000
0000
0001
1000
0000
0100
1000
,
0001
0000
0100
0000
0010
0100
0010
0000
,
0100
0001
0010
0000
0001
0000
0100
0001
,
1000
0000
1001
0000
0002
0000
1003
0001
,
0010
0001
0000
1000
0001
0000
0100
0001
,
1000
0000
0100
0000
0010
0100
0010
0000
,
0100
1000
0010
0000
1000
0000
0100
1000
,
0001
0000
1001
0000
2000
0000
3001
1000
,
0010
0100
0001
0010
0001
0000
1000
0100
,
1000
0000
0001
1000
0010
0000
0110
0000
,
0100
0001
0010
0000
0001
0000
1000
0001
,
1000
0000
1001
0000
0120
0000
1030
0001
,
0010
0100
1000
0010
1000
0000
0001
0100
,
0001
0000
1000
0001
0010
0000
0110
0000
,
0100
1000
0010
0000
1000
0000
0001
1000
,
0001
0000
1001
0000
0120
0000
0031
1000
,
1001
0000
0100
0000
1000
0010
1000
0010
,
1001
0000
0100
0000
0001
0010
1000
0010
,
0002
0000
1003
0000
0010
1000
0001
0010
,
0011
0000
1100
0000
1001
0001
0000
0000
,
1001
0000
0100
0000
0001
0010
0001
0010
,
1001
0000
0100
0000
1000
0010
0001
0010
,
2000
0000
3001
0000
0010
0001
1000
0010
,
1010
0000
0101
0000
1001
0000
0001
1000
,
0002
0100
0000
0103
,
2000
0100
0000
3100
,
0002
0010
0000
0013
,
2000
0010
0000
3010
,
1000
0000
0010
0000
1000
0001
1000
0000
,
0100
0000
0010
0000
0001
1000
0001
0000
,
0200
0000
0000
0300
,
0010
0010
0110
1001
,
0001
0010
0100
0000
1000
0000
0001
0010
,
0100
0000
0010
0000
0001
1000
0001
0000
,
1000
0010
0100
0000
0001
0000
1000
0010
,
0100
0110
1001
1010
,
0001
0010
0001
0000
0100
0000
0010
1000
,
0001
1000
0100
0100
,
1000
0010
1000
0000
0100
0000
0010
0001
,
1000
0011
1100
0110
,
1001
0000
0100
0000
0001
0010
0001
0010
,
1001
0000
0100
0000
1000
0010
0001
0010
,
2000
0000
3001
0000
0010
0001
1000
0010
,
1010
0000
0101
0000
1001
1000
0000
0000
,
1001
0000
0100
0000
1000
0010
1000
0010
,
1001
0000
0100
0000
0001
0010
1000
0010
,
0002
0000
1003
0000
0010
1000
0001
0010
,
0011
0000
1100
0000
1001
0000
1000
0001
,
1000
0000
0100
0000
1000
0001
1000
0001
,
0110
0000
1000
0000
0001
0010
1000
0010
,
0001
0000
0000
0000
1000
0000
0000
0010
0000
0000
0100
0000
0010
0000
0010
0000
,
1000
0000
0001
0000
0010
0100
0110
0000
,
1001
0000
0000
0000
;

//---------------dance-single - Marten-CSP----------------
#NOTES:
     dance-single:
     Marten:
     Challenge:
     12:
     0.489322,0.540392,0.349177,0.182902,0.024941,412,370,42,22,0,0,0.489322,0.540392,0.349177,0.182902,0.024941,412,370,42,22,0,0:
0000
0000
0000
0000
,
0000
0000
0000
0000
,
0000
0000
0000
0000
,
0000
0000
0000
0000
,
0000
0000
0000
0000
,
1000
0010
0100
0010
1000
0000
0001
1000
,
0100
1000
0010
0100
0001
0000
0010
0001
,
0010
0100
1000
0001
1000
0000
0010
1000
,
0001
0000
0001
0000
1000
0000
0001
1000
0000
0001
0010
0000
0100
0010
0100
0000
,
1000
0010
0001
0010
0100
0000
0001
1000
,
0001
0010
1000
0010
0100
0000
1000
0100
,
0110
0000
0010
0000
0001
1000
0010
0100
,
0101
0000
1100
0000
1000
0100
0010
0001
,
1000
0010
0001
0010
1000
0010
0100
0010
,
1000
0000
0001
0010
0100
0010
0001
0000
,
0001
0010
1000
0010
0001
0010
0100
0010
,
0002
0000
1003
0000
2001
0000
0010
3010
,
1000
0100
0010
1000
0010
0000
0001
0010
,
0100
0010
0001
0100
0010
0010
0100
0000
,
0001
0100
0010
0001
0010
0000
1000
0100
,
0010
0000
0110
0000
1002
0000
0010
0013
,
0001
0100
0010
1000
0010
0001
0010
1000
,
0100
0010
1000
0010
0001
1000
0100
0000
,
1000
0100
0010
0001
0010
1000
0010
0100
,
0001
0100
1000
0010
0100
0001
1000
1000
,
0001
0100
0010
1000
0001
0000
0001
0010
,
0010
0001
1000
0010
0100
0010
1000
0000
,
0100
1000
0010
0010
1000
0001
0010
0100
,
1100
0101
1001
0110
,
2010
0000
3100
0000
0010
0010
0001
0001
,
0012
0000
0103
0000
0001
0010
1000
0100
,
0002
0000
1003
0000
0010
1000
0100
0010
,
0011
0000
1010
0000
0110
0100
0000
0000
,
0012
0000
0103
0000
0010
0010
1000
1000
,
2010
0000
3100
0000
1000
0010
0001
0100
,
2000
0000
3001
0000
0010
0001
0100
0010
,
1010
0011
0110
1001
,
0002
0000
0000
0100
0000
1000
1003
0000
,
2000
0000
0000
0100
0000
0001
3001
0000
,
0002
0000
0000
0010
0000
1000
1003
0000
,
2000
0000
0000
0010
0000
0001
3001
0000
,
0001
0010
0001
0010
0000
0100
1000
0000
,
1000
0010
1000
0010
0000
0100
0001
0000
,
0020
0000
0000
0030
,
0100
0100
0110
1001
,
0001
0100
1000
0100
0010
1000
0100
0001
,
0100
0000
1000
0000
0010
1000
0100
0000
,
1000
0100
0001
0100
0010
0001
0100
1000
,
0100
0000
0101
0000
1200
0000
1000
1300
,
0001
0010
1000
0010
0100
1000
0010
0001
,
0010
0000
1000
0000
0010
1000
0100
0000
,
1000
0010
0001
0010
0100
0001
0010
1000
,
0010
0000
0011
0000
1020
0000
0100
0130
,
0102
0000
0013
0000
0100
0100
1000
1000
,
2100
0000
3010
0000
1000
0100
0001
0010
,
2000
0000
3001
0000
0010
0001
0100
0010
,
1010
0000
0011
0000
0110
0100
0000
0000
,
2100
0000
3010
0000
0100
0100
0001
0001
,
0102
0000
0013
0000
0001
0100
1000
0010
,
0002
0000
1003
0000
0010
1000
0100
0010
,
0011
1010
0110
1001
,
0001
0100
0010
0001
0010
0000
1000
0100
,
1000
0100
0010
1000
0010
0000
0001
0100
,
0010
0000
1000
0000
0010
0000
0100
0001
0000
1000
0100
0000
0010
0100
0010
0000
,
0011
0000
1100
0000
0001
0100
0110
0000
,
1001
0000
0000
0000
;

//---------------dance-single - Marten-bSP----------------
#NOTES:
     dance-single:
     Marten:
     Beginner:
     1:
     0.077199,0.108078,0.041569,0.008314,0,65,60,5,1,0,0,0.077199,0.108078,0.041569,0.008314,0,65,60,5,1,0,0:
0000
0000
0000
0000
,
0000
0000
0000
0000
,
0000
0000
0000
0000
,
0000
0000
0000
0000
,
0000
0000
0000
0000
,
0001
0000
0000
0000
,
1000
0000
0000
0000
,
0001
0000
0000
0000
,
0100
0000
0000
0000
,
0001
0000
0000
0000
,
1000
0000
0000
0000
,
0100
0000
0000
0000
,
0010
0000
0000
0000
,
0001
0000
0000
0000
,
0001
0000
0000
0000
,
1000
0000
0000
0000
,
1000
0000
0000
0000
,
0001
0000
0000
0000
,
0001
0000
0000
0000
,
1000
0000
0000
0000
,
1000
0000
0000
0000
,
0010
0000
0000
0000
,
0010
0000
0000
0000
,
0100
0000
0000
0000
,
0100
0000
0000
0000
,
0010
0000
0000
0000
,
0010
0000
0000
0000
,
0100
0000
0000
0000
,
0100
0000
0000
0000
,
1001
0000
0000
0000
,
0001
0000
0000
0000
,
1000
0000
0000
0000
,
0001
0000
0000
0000
,
1001
0000
0000
0000
,
1000
0000
0000
0000
,
0001
0000
0000
0000
,
1000
0000
0000
0000
,
0010
0000
0000
0000
,
0010
0000
0000
0000
,
0100
0000
0000
0000
,
0100
0000
0000
0000
,
0010
0000
0000
0000
,
0010
0000
0000
0000
,
0200
0000
0000
0000
,
0300
0000
0000
0000
,
0001
0000
0000
0000
,
0001
0000
0000
0000
,
1000
0000
0000
0000
,
1000
0000
0000
0000
,
0010
0000
0000
0000
,
0010
0000
0000
0000
,
0100
0000
0000
0000
,
0100
0000
0000
0000
,
1001
0000
0000
0000
,
0001
0000
0000
0000
,
1000
0000
0000
0000
,
0001
0000
0000
0000
,
1001
0000
0000
0000
,
1000
0000
0000
0000
,
0001
0000
0000
0000
,
1000
0000
0000
0000
,
0010
0000
0000
0000
,
0010
0000
0000
0000
,
0100
0000
0000
0000
,
0010
0000
0000
0000
,
1001
0000
0000
0000
;

//---------------dance-single - Marten-BSP----------------
#NOTES:
     dance-single:
     Marten:
     Easy:
     4:
     0.199529,0.270196,0.099765,0.091451,0,168,156,12,11,0,0,0.199529,0.270196,0.099765,0.091451,0,168,156,12,11,0,0:
0000
0000
0000
0000
,
0000
0000
0000
0000
,
0000
0000
0000
0000
,
0000
0000
0000
0000
,
0000
0000
0000
0000
,
1000
0000
1000
0000
,
0001
0000
0001
0000
,
1000
0000
0001
0000
,
0100
0100
0100
0000
,
0001
0000
0001
0000
,
1000
0000
1000
0000
,
0001
0000
1000
0000
,
0100
0100
0010
0010
,
0110
0000
0100
0000
,
1000
1000
0001
0000
,
0100
0000
0100
0000
,
0010
0010
0100
0100
,
0010
0000
0100
0000
,
0001
0001
1000
0000
,
0100
0000
0100
0000
,
0010
0010
0100
0100
,
1000
0000
0001
0001
,
0010
0000
0100
0000
,
1000
0000
0010
0010
,
1000
1000
0001
1000
,
0001
0000
1000
1000
,
0010
0000
0100
0000
,
0001
0000
0010
0010
,
0001
0001
1000
0001
,
1001
0000
0001
1000
,
1001
0000
1000
0010
,
0200
0000
0310
0000
,
1000
0001
0010
0000
,
1001
0000
1000
0001
,
1001
0000
0001
0010
,
0200
0000
0310
0000
,
0001
1000
0010
0000
,
2000
0000
0000
3000
,
0002
0000
0000
0003
,
0200
0000
0000
0300
,
0020
0000
0000
0030
,
2000
0000
0000
3000
,
0200
0000
0000
0300
,
0020
0000
0000
0030
,
0001
0001
1000
1000
,
1001
0000
0001
0000
,
0100
0001
1000
0000
,
0001
0000
1000
0000
,
0100
0100
1000
1000
,
1001
0000
1000
0000
,
0100
1000
0001
0000
,
1000
0000
0001
0000
,
0100
0100
0001
0001
,
1001
0000
0001
1000
,
1001
0000
1000
0010
,
0200
0000
0310
0000
,
1000
0001
0010
0000
,
1001
0000
1000
0001
,
1001
0000
0001
0010
,
0200
0000
0310
0000
,
0001
1000
0010
0000
,
1000
0001
1000
0001
,
0100
0010
0100
0010
,
1000
0000
0001
0000
,
0100
0100
0010
0000
,
1001
0000
0000
0000
;

//---------------dance-single - Marten-DSP----------------
#NOTES:
     dance-single:
     Marten:
     Medium:
     7:
     0.325423,0.405294,0.324235,0.091451,0.004157,274,235,39,11,0,0,0.325423,0.405294,0.324235,0.091451,0.004157,274,235,39,11,0,0:
0000
0000
0000
0000
,
0000
0000
0000
0000
,
0000
0000
0000
0000
,
0000
0000
0000
0000
,
0000
0000
0000
0000
,
0001
0100
0010
0010
,
1000
0100
0010
0010
,
0001
1000
0010
0010
,
0110
0000
1001
0000
0000
0001
1000
0000
,
0001
1000
0100
0100
,
1000
0001
0100
0100
,
0010
1000
0001
0010
,
0110
0000
1001
0000
0001
1000
0001
0000
,
1000
1100
0001
0100
,
0010
0000
0010
0000
0100
0010
0100
0000
,
0001
0101
1000
0100
,
0010
0100
0110
1001
,
0001
0000
0011
0000
1000
0000
0010
0100
,
0010
1000
0001
0001
,
1000
0000
1010
0000
0001
0000
0010
0100
,
0010
0001
1000
0001
,
0100
0100
0000
0010
0010
0000
1000
1000
,
0000
0010
1000
1000
,
0100
0100
0000
0010
0010
0000
0001
0001
,
0000
1000
0010
0010
,
0100
0000
0101
0000
1001
0000
1000
0001
,
0000
0010
0100
0010
,
0100
0000
1100
0000
1001
0000
0001
1000
,
0001
0100
0110
1001
,
1010
0000
0000
0000
1000
0100
1000
0000
,
0011
0000
0000
0000
0001
1000
0001
0000
,
0200
0000
0300
0001
,
1001
0000
0110
0000
1000
1000
0000
0000
,
0011
0000
0000
0000
0001
0100
0001
0000
,
1010
0000
0000
0000
1000
0001
1000
0000
,
0200
0000
0300
1000
,
1001
0110
1001
0110
,
0002
0000
0000
0013
,
2000
0000
0000
3010
,
0002
0000
0000
0103
,
2000
0000
0000
3100
,
0001
0000
0100
0100
0000
0000
0010
0000
,
1000
0000
0100
0100
0000
0000
0010
0000
,
0002
0000
0000
0000
,
1003
1000
1001
0110
,
0001
0001
0000
0100
0100
0000
0010
0010
,
0000
1000
0001
1000
,
0100
0100
0000
0010
0010
0000
0001
0000
,
1000
0001
0200
0310
,
1000
1000
0000
0100
0100
0000
0010
0010
,
0000
0001
1000
0001
,
0100
0100
0000
0010
0010
0000
1000
0000
,
0001
1000
0200
0310
,
0011
0000
0000
0000
0001
0100
0001
0000
,
1010
0000
0000
0000
1000
0001
1000
0000
,
0200
0000
0300
1000
,
1001
0000
0110
0000
0001
0001
0000
0000
,
1010
0000
0000
0000
1000
0100
1000
0000
,
0011
0000
0000
0000
0001
1000
0001
0000
,
0200
0000
0300
0001
,
1001
0110
1001
0110
,
1000
0100
0010
0010
,
0001
0100
0010
0010
,
1000
0000
0000
0000
0001
0000
0000
0001
0000
0000
1000
0000
0001
0000
0000
0000
,
0100
0000
0100
0000
0010
0010
0100
0000
,
1001
0000
0000
0000
;

//---------------dance-double - NewbStepper-EDP----------------
#NOTES:
     dance-double:
     NewbStepper:
     Hard:
     10:
     0.445378,0.459333,0.507137,0.049882,0.008314,375,314,61,6,0,0,0.445378,0.459333,0.507137,0.049882,0.008314,375,314,61,6,0,0:
// measure 0
00000000
00000000
00000000
00000000
,  // measure 1
00000000
00000000
00000000
00000000
,  // measure 2
00000000
00000000
00000000
00000000
,  // measure 3
00000000
00000000
00000000
00000000
,  // measure 4
00000000
00000000
00000000
00000000
,  // measure 5
00001000
01000000
00010000
01000000
00001000
00000000
00100000
00000000
,  // measure 6
00010000
00100000
01000000
10000000
00100000
00000000
01000000
00000000
,  // measure 7
00100000
01000000
00001000
00010000
00000100
00000000
00000010
00000000
,  // measure 8
00000001
00000000
00000010
00000000
00000001
00000000
00000000
00001000
00000000
00000000
00000100
00000000
00010000
00000000
00001000
00000000
,  // measure 9
00010000
00000100
00001000
00000100
00010000
00000000
00000010
00000000
,  // measure 10
00001000
00000010
00000100
00000001
00000010
00000000
00000100
00000000
,  // measure 11
00000010
00000100
00010000
00001000
01000000
00000000
00100000
00000000
,  // measure 12
11000000
01010000
00101000
00010010
,  // measure 13
00000010
00001000
00000001
00001000
00000000
00001000
00000100
00000000
,  // measure 14
00000010
00001000
00010000
00000000
01000000
00000000
00100000
01000000
,  // measure 15
10000000
00000000
10000000
01000000
00100000
00000000
00001000
00000000
,  // measure 16
00011000
00000000
00200000
00000000
00310000
01000000
00100000
00000000
,  // measure 17
00000000
00010000
00001000
00000000
00000010
00000001
00001000
00000000
,  // measure 18
00000100
00000000
00000010
00000100
00000010
00000000
00000100
00001000
,  // measure 19
00000001
00000000
00000100
00000000
00001000
00010000
00001000
00000000
,  // measure 20
00011000
00000000
00000020
00000000
00001030
00000100
00000010
00000000
,  // measure 21
00001000
00010000
00001000
00000000
00100000
00010000
01000000
00000000
,  // measure 22
00100000
10000000
01000000
00000000
00010000
00001000
00010000
00000000
,  // measure 23
00000010
00001000
00000100
00000000
00001000
00000000
00000001
00000100
,  // measure 24
00000001
00000101
00001010
00010100
,  // measure 25
00010000
00001000
00010000
01000000
10000000
00000000
00010000
00000000
,  // measure 26
10000000
00100000
01000000
00000000
01100000
00000000
01000000
00010000
,  // measure 27
00100000
00001000
00010000
00000000
00011000
00000000
00000110
00000000
,  // measure 28
00000101
00001100
00010010
01001000
,  // measure 29
00011000
00000000
00100000
00000000
01000000
00010000
01000000
00010000
,  // measure 30
00011000
00000000
00000010
00000000
00000100
00001000
00000100
00001000
,  // measure 31
00011000
00000000
00100000
00000000
10000000
00010000
00100000
00000000
,  // measure 32
11000000
01010000
00011000
00001100
,  // measure 33
00000101
00000000
00000010
00000000
00000100
00001000
00000100
00001000
,  // measure 34
00011000
00000000
00100000
00000000
01000000
00010000
01000000
00010000
,  // measure 35
00011000
00000000
00000010
00000000
00000001
00001000
00000010
00000000
,  // measure 36
00000101
00001100
00011000
01010000
,  // measure 37
20000000
01000000
00000000
31000000
,  // measure 38
00020000
01000000
00000000
01030000
,  // measure 39
00002000
00000010
00000000
00003010
,  // measure 40
00000002
00000010
00000000
00000013
,  // measure 41
00000001
00000000
00000100
00000000
00000001
00000100
00000001
00000000
,  // measure 42
00000100
00000000
00001000
00000000
00000100
00001000
00000100
00000000
,  // measure 43
00001000
00010000
01000000
10000000
,  // measure 44
00100000
00100000
01000000
01000000
,  // measure 45
00001000
00100000
01000000
00100000
00001000
00000000
00011000
00000000
,  // measure 46
00010000
00000010
00000100
00000010
00010000
00000000
00011000
00000000
,  // measure 47
00000100
00000001
00001000
00000000
00000001
00000000
00000010
00000000
,  // measure 48
00000011
00000110
00001100
00011000
,  // measure 49
00010000
00000010
00000100
00000010
00010000
00000000
00011000
00000000
,  // measure 50
00001000
00100000
01000000
00100000
00001000
00000000
00011000
00000000
,  // measure 51
01000000
10000000
00010000
00000000
10000000
01000000
00010000
00000000
,  // measure 52
10100000
00110000
00011000
00001010
,  // measure 53
00000011
00000000
00000100
00000000
00000010
00001000
00000010
00001000
,  // measure 54
00011000
00000000
01000000
00000000
00100000
00010000
00100000
00010000
,  // measure 55
00011000
00000000
00000100
00000000
00000001
00001000
00000100
00000000
,  // measure 56
00000011
00001010
00011000
00110000
,  // measure 57
10100000
00000000
01000000
00000000
00100000
00010000
00100000
00010000
,  // measure 58
00011000
00000000
00000100
00000000
00000010
00001000
00000010
00001000
,  // measure 59
00011000
00000000
01000000
00000000
10000000
00010000
01000000
00000000
,  // measure 60
10100000
00110000
00011000
00001010
,  // measure 61
00000011
00000000
00000110
00000000
00000001
00000100
00001000
00010000
,  // measure 62
01000000
00000000
01100000
00000000
10000000
01000000
00010000
00001000
,  // measure 63
00000100
00000000
00000000
00000000
00000110
00000000
00000000
00000001
00000000
00000000
00001000
00000000
00000001
00000000
00000001
00000000
,  // measure 64
00000100
00000000
00001000
00000000
00010000
00001000
00010000
00000000
,  // measure 65
00011000
00000000
00000000
00000000
;

//---------------dance-double - NewbStepper-CDP----------------
#NOTES:
     dance-double:
     NewbStepper:
     Challenge:
     12:
     0.486947,0.513373,0.498824,0.141333,0.024941,410,350,60,17,0,0,0.486947,0.513373,0.498824,0.141333,0.024941,410,350,60,17,0,0:
// measure 0
00000000
00000000
00000000
00000000
,  // measure 1
00000000
00000000
00000000
00000000
,  // measure 2
00000000
00000000
00000000
00000000
,  // measure 3
00000000
00000000
00000000
00000000
,  // measure 4
00000000
00000000
00000000
00000000
,  // measure 5
10000000
01000000
00100000
01000000
00010000
00000000
00001000
00000000
,  // measure 6
00100000
00010000
00001000
00000100
00000010
00000000
00000001
00000000
,  // measure 7
00001000
00000010
00000100
00000001
00000010
00000000
00001000
00000000
,  // measure 8
00010000
00000000
00001000
00000000
00000010
00000000
00001000
00010000
00000000
00010000
00001000
00000000
00000100
00000010
00000100
00000000
,  // measure 9
00000001
00000100
00000010
00000100
00001000
00000000
00010000
00000000
,  // measure 10
00000010
00001000
00010000
01000000
00100000
00000000
10000000
00000000
,  // measure 11
00010000
01000000
00100000
10000000
01000000
00000000
00100000
00000000
,  // measure 12
11000000
01010000
00011000
00001100
,  // measure 13
00000001
00000100
00000001
00000100
00000010
00001000
00000010
00001000
,  // measure 14
00010000
01000000
00010000
01000000
00100000
10000000
00100000
10000000
,  // measure 15
00010000
00000000
00100000
01000000
00010000
00001000
00000010
00000000
,  // measure 16
00000101
00001100
00011000
01010000
,  // measure 17
00100000
10000000
01000000
00100000
00010000
00000000
10000000
00100000
,  // measure 18
00010000
00001000
00000010
00001000
00010000
00000000
00001000
00000100
,  // measure 19
00000001
00000100
00000010
00001000
00000001
00000000
00000110
00000000
,  // measure 20
00000011
00001010
00011000
00110000
,  // measure 21
10000000
01000000
00100000
00010000
00100000
10000000
00100000
00010000
,  // measure 22
01000000
00001000
00010000
00000010
00001000
00000001
00000100
00000000
,  // measure 23
00001000
00000100
00000010
00001000
00000001
00000100
00001000
00010000
,  // measure 24
01000000
10000000
00010000
01000000
00100000
10000000
01000000
00010000
,  // measure 25
00001000
00100000
00010000
00100000
00001000
00100000
00010000
00001000
,  // measure 26
00000010
00010000
00000010
00001000
00000010
00010000
00001000
00000100
,  // measure 27
00000001
00000010
00001000
00010000
00100000
10000000
00010000
00000000
,  // measure 28
10100000
00110000
00011000
00001010
,  // measure 29
00000120
00000000
00000130
00000000
00000010
00001000
00010000
01000000
,  // measure 30
01200000
00000000
01300000
00000000
00100000
00010000
00001000
00000100
,  // measure 31
00000120
00000000
00001030
00000000
00000001
00001000
00001001
00000000
,  // measure 32
00000011
00001010
00011000
00110000
,  // measure 33
01200000
00000000
01300000
00000000
00100000
00010000
00001000
00000100
,  // measure 34
00000120
00000000
00000130
00000000
00000010
00001000
00010000
01000000
,  // measure 35
01200000
00000000
00310000
00000000
10000000
00010000
10010000
00000000
,  // measure 36
01100000
00000000
10010000
00000000
10000000
01000000
00100000
00010000
,  // measure 37
00002000
00000000
00000000
00000100
00000000
00000001
00000001
00000000
,  // measure 38
00023000
00000000
00000000
01000000
00000000
10000000
10000000
00000000
,  // measure 39
00032000
00000000
00000000
00000010
00000000
00000001
00000001
00000000
,  // measure 40
00023000
00000000
00000000
00100000
00000000
10000000
10000000
00000000
,  // measure 41
10030000
01000000
00100000
00010000
,  // measure 42
00001000
00000100
00000010
00000001
,  // measure 43
00002000
00000000
00000000
00003000
,  // measure 44
00000100
00000100
00000110
00001001
,  // measure 45
00000001
00000100
00001000
00000100
00000010
00010000
00001000
00000010
,  // measure 46
00001000
00000000
00010000
00000000
00100000
10000000
00010000
00000000
,  // measure 47
10000000
01000000
00010000
00001000
00000100
00000001
00001000
00000000
,  // measure 48
00000101
00001100
00011000
01010000
,  // measure 49
10000000
01000000
00010000
01000000
00100000
00001000
00010000
00100000
,  // measure 50
00010000
00000000
00001000
00000000
00000010
00000001
00001000
00000000
,  // measure 51
00000001
00000100
00001000
00010000
01000000
10000000
00010000
00000000
,  // measure 52
11000000
01010000
00011000
00001100
,  // measure 53
00000210
00000000
00000310
00000000
00000100
00001000
00010000
00100000
,  // measure 54
02100000
00000000
03100000
00000000
01000000
00010000
00001000
00000010
,  // measure 55
00000210
00000000
00001300
00000000
00000001
00001000
00001001
00000000
,  // measure 56
00000101
00001100
00011000
01010000
,  // measure 57
02100000
00000000
03100000
00000000
01000000
00010000
00001000
00000010
,  // measure 58
00000210
00000000
00000310
00000000
00000100
00001000
00010000
00100000
,  // measure 59
02100000
00000000
03010000
00000000
10000000
00010000
10010000
00000000
,  // measure 60
11000000
01010000
00011000
00001100
,  // measure 61
00000001
00000100
00001000
00000000
00010000
00001000
00000010
00001000
,  // measure 62
00010000
01000000
10000000
00000000
00100000
00010000
00001000
00100000
,  // measure 63
00010000
00000000
00100000
00000000
00001000
00000000
00010000
00001000
00000000
00001000
00010000
00000000
01000000
00100000
01000000
00000000
,  // measure 64
11000000
00110000
00001000
00010000
,  // measure 65
00011000
00000000
00000000
00000000
;

//---------------dance-double - NewbStepper-DDP----------------
#NOTES:
     dance-double:
     NewbStepper:
     Medium:
     7:
     0.314734,0.351255,0.274353,0.074824,0.004157,265,232,33,9,0,0,0.314734,0.351255,0.274353,0.074824,0.004157,265,232,33,9,0,0:
// measure 0
00000000
00000000
00000000
00000000
,  // measure 1
00000000
00000000
00000000
00000000
,  // measure 2
00000000
00000000
00000000
00000000
,  // measure 3
00000000
00000000
00000000
00000000
,  // measure 4
00000000
00000000
00000000
00000000
,  // measure 5
00000001
00000100
00000010
00000010
,  // measure 6
00001000
00000100
00000010
00000010
,  // measure 7
00000100
00010000
00100000
00010000
,  // measure 8
00011000
00000000
00000000
00000000
00000000
00100000
01000000
00000000
,  // measure 9
10000000
01000000
00100000
00100000
,  // measure 10
00010000
01000000
00100000
00100000
,  // measure 11
01000000
00001000
00000010
00001000
,  // measure 12
00010000
00000000
00011000
00000000
00000100
00000010
00000100
00000000
,  // measure 13
00000001
00000101
00001000
00000100
,  // measure 14
00000010
00000000
00000010
00000000
00001000
00010000
00001000
00000000
,  // measure 15
00010000
00011000
00001000
01000000
,  // measure 16
01100000
00010000
00100000
01000000
,  // measure 17
10000000
11000000
00010000
01000000
,  // measure 18
00100000
00000000
00100000
00000000
00010000
00001000
00010000
00000000
,  // measure 19
00001000
00011000
00010000
00000100
,  // measure 20
00000110
00001000
00000010
00000100
,  // measure 21
00000001
00000001
00000000
00000010
00000010
00000000
00000100
00000100
,  // measure 22
00000000
00001000
00010000
00010000
,  // measure 23
10000000
10000000
00000000
00100000
00100000
00000000
01000000
01000000
,  // measure 24
00000000
00010000
00100000
00100000
,  // measure 25
01000000
00000000
00010000
00000000
00011000
00000000
00000000
00000100
,  // measure 26
00000010
00001000
00000010
00000010
,  // measure 27
00000100
00001000
00011000
00100000
,  // measure 28
10000000
01000000
01100000
10010000
,  // measure 29
10100000
00000000
00000000
00000000
00010000
01000000
00010000
00000000
,  // measure 30
00011000
00000000
00000000
00000000
00000010
00000100
00000010
00000000
,  // measure 31
00000200
00000000
00000300
00000010
,  // measure 32
00000001
00000100
00000110
00001001
,  // measure 33
00000011
00000000
00000000
00000000
00001000
00000100
00001000
00000000
,  // measure 34
00011000
00000000
00000000
00000000
00100000
01000000
00100000
00000000
,  // measure 35
02000000
00000000
03000000
00100000
,  // measure 36
10000000
01000000
01100000
10010000
,  // measure 37
20000000
00000000
00000000
30100000
,  // measure 38
00020000
00000000
00000000
00130000
,  // measure 39
00002000
00000000
00000000
00003100
,  // measure 40
00000002
00000000
00000000
00000103
,  // measure 41
00001000
00000000
00000100
00000100
00000000
00000000
00000010
00000000
,  // measure 42
00000001
00000000
00000100
00000100
00000000
00000000
00000010
00000000
,  // measure 43
00002000
00000000
00000000
00003000
,  // measure 44
00000001
00001000
00010000
10000000
,  // measure 45
10000000
10000000
00000000
00100000
00100000
00000000
01000000
01000000
,  // measure 46
00000000
00010000
00001000
00001000
,  // measure 47
00000010
00000010
00000000
00000100
00000100
00000000
00000001
00000000
,  // measure 48
00001001
00001000
00000100
00000010
,  // measure 49
00000001
00000001
00000000
00000010
00000010
00000000
00000100
00000100
,  // measure 50
00000000
00001000
00010000
00010000
,  // measure 51
00100000
00100000
00000000
01000000
01000000
00000000
10000000
00000000
,  // measure 52
10010000
00010000
01000000
00100000
,  // measure 53
10100000
00000000
00000000
00000000
00010000
01000000
00010000
00000000
,  // measure 54
00011000
00000000
00000000
00000000
00000010
00000100
00000010
00000000
,  // measure 55
00000200
00000000
00000300
00000010
,  // measure 56
00000001
00000100
00000110
00001001
,  // measure 57
00000011
00000000
00000000
00000000
00001000
00000100
00001000
00000000
,  // measure 58
00011000
00000000
00000000
00000000
00100000
01000000
00100000
00000000
,  // measure 59
02000000
00000000
03000000
00100000
,  // measure 60
01100000
10010000
01100000
10010000
,  // measure 61
10000000
01000000
00100000
00100000
,  // measure 62
00010000
00001000
00000010
00000010
,  // measure 63
00000100
00000000
00000000
00000000
00000100
00000000
00000000
00000100
00000000
00000000
00000001
00000000
00001000
00000000
00000000
00000000
,  // measure 64
00000001
00000000
00000100
00000000
00001000
00001000
00010000
00000000
,  // measure 65
00011000
00000000
00000000
00000000
;

//---------------dance-double - NewbStepper-BDP----------------
#NOTES:
     dance-double:
     NewbStepper:
     Easy:
     5:
     0.198342,0.270196,0.049882,0.058196,0,167,161,6,7,0,0,0.198342,0.270196,0.049882,0.058196,0,167,161,6,7,0,0:
// measure 0
00000000
00000000
00000000
00000000
,  // measure 1
00000000
00000000
00000000
00000000
,  // measure 2
00000000
00000000
00000000
00000000
,  // measure 3
00000000
00000000
00000000
00000000
,  // measure 4
00000000
00000000
00000000
00000000
,  // measure 5
10000000
00000000
10000000
00000000
,  // measure 6
00010000
00000000
00010000
00000000
,  // measure 7
10000000
00000000
00010000
00000000
,  // measure 8
01000000
01000000
01000000
00000000
,  // measure 9
00001000
00000000
00001000
00000000
,  // measure 10
00010000
00000000
00010000
00000000
,  // measure 11
00000100
00000000
00001000
00000000
,  // measure 12
00000100
00000100
00000010
00000010
,  // measure 13
00000110
00000000
00000001
00000000
,  // measure 14
00001000
00001000
00000001
00000000
,  // measure 15
00000100
00000000
00000100
00000000
,  // measure 16
00001000
00001000
00010000
00010000
,  // measure 17
00001000
00000000
01000000
00000000
,  // measure 18
00010000
00010000
10000000
00000000
,  // measure 19
01000000
00000000
01000000
00000000
,  // measure 20
00100000
00100000
00010000
00010000
,  // measure 21
00001000
00000000
00000001
00000001
,  // measure 22
00000010
00000000
00000100
00000000
,  // measure 23
00001000
00000000
00000010
00000010
,  // measure 24
00010000
00010000
00001000
00010000
,  // measure 25
00001000
00000000
00100000
00100000
,  // measure 26
00010000
00000000
01000000
00000000
,  // measure 27
00100000
00000000
10000000
10000000
,  // measure 28
00010000
00010000
10000000
00010000
,  // measure 29
10010000
00000000
10000000
00010000
,  // measure 30
00001000
00000000
00000001
00001000
,  // measure 31
00010000
00000000
00000000
01000000
,  // measure 32
00100000
00010000
00001000
00000100
,  // measure 33
00000001
00000000
00000001
00001000
,  // measure 34
00010000
00000000
10000000
00010000
,  // measure 35
00001000
00000000
00000000
00000100
,  // measure 36
00000010
00001000
00010000
01000000
,  // measure 37
20000000
00000000
00000000
30000000
,  // measure 38
02000000
00000000
00000000
03000000
,  // measure 39
00200000
00000000
00000000
00300000
,  // measure 40
00020000
00000000
00000000
00030000
,  // measure 41
00002000
00000000
00000000
00003000
,  // measure 42
00000200
00000000
00000000
00000300
,  // measure 43
00000020
00000000
00000000
00000030
,  // measure 44
00000001
00000001
00001000
00001000
,  // measure 45
00001001
00000000
00000001
00000000
,  // measure 46
00000100
00001000
00010000
00000000
,  // measure 47
00001000
00000000
00100000
00000000
,  // measure 48
01000000
01000000
10000000
10000000
,  // measure 49
10010000
00000000
10000000
00000000
,  // measure 50
01000000
00010000
00001000
00000000
,  // measure 51
00010000
00000000
00000010
00000000
,  // measure 52
00000100
00000100
00000001
00000001
,  // measure 53
00001001
00000000
00000001
00001000
,  // measure 54
00010000
00000000
10000000
00010000
,  // measure 55
00001000
00000000
00000000
00000100
,  // measure 56
00000010
00001000
00010000
01000000
,  // measure 57
10000000
00000000
10000000
00010000
,  // measure 58
00001000
00000000
00000001
00001000
,  // measure 59
00010000
00000000
00000000
01000000
,  // measure 60
00100000
00010000
00001000
00000100
,  // measure 61
00000001
00000000
00000100
00001000
,  // measure 62
00000100
00000000
00001000
00010000
,  // measure 63
00001000
01000000
00001000
01000000
,  // measure 64
00100000
10000000
01000000
00010000
,  // measure 65
00011000
00000000
00000000
00000000
;
