#VERSION:0.83;
#TITLE:WHITEOUT;
#ARTIST:かねこちはる;
#ARTISTTRANSLIT:Kaneko Chiharu;
#BANNER:WHITEOUT.png;
#BACKGROUND:WHITEOUT-bg.png;
#JACKET:WHITEOUT-jacket.png;
#MUSIC:WHITEOUT.ogg;
#OFFSET:2.132;
#SAMPLESTART:94.837997;
#SAMPLELENGTH:15;
#BPMS:0=99,36=198,68=99,76=198,108=99,124=198,220=99,228=198;

//---------------dance-single - Talkion-bSP----------------
#NOTEDATA:;
#CHARTNAME:Talkion-bSP;
#STEPSTYPE:dance-single;
#DESCRIPTION:Talkion-bSP;
#DIFFICULTY:Beginner;
#METER:5;
#RADARVALUES:0.161525,0.270147,0.083472,0.333890,0,149,138,11,44,0,0,0,0,0,0.161525,0.270147,0.083472,0.333890,0,149,138,11,44,0,0,0,0,0;
#CREDIT:Talkion;
#NOTES:
0000
0000
0000
0000
,
0000
0000
0000
0000
,
0000
0000
0000
0000
,
0000
0000
0000
0000
,
0000
0000
0000
0000
,
1000
1001
0000
1001
,
0000
1001
0000
0000
,
0001
0100
0010
0100
,
0002
0000
0003
0000
,
1000
1000
0000
0000
,
0100
0000
0010
0000
,
0001
0001
0000
1000
,
0000
0010
0010
0000
,
2000
0000
0000
3000
,
0002
0003
0020
0030
,
0200
0300
2000
3000
,
0020
0030
0200
0300
,
0002
0000
0003
0000
,
1000
1001
0000
0001
,
0200
0000
0300
0000
,
0020
0030
2000
3000
,
0002
0000
0000
0003
,
0020
0030
0200
0300
,
2000
0000
0000
0000
,
0000
0000
0000
0000
,
0000
0000
0000
0000
,
0000
0000
0000
3000
,
0001
0000
0100
0100
,
0010
0000
0100
0100
,
0001
0000
0000
0001
0000
0000
0001
0000
,
0000
1000
1000
0000
,
0002
0000
0000
0003
,
0010
0000
0010
0000
,
0200
0000
0000
0300
,
1000
1000
1000
0000
,
0001
0000
0000
0100
0000
0000
1000
0000
,
0000
0100
0000
0000
0001
0000
0000
0200
,
0000
0000
0000
0300
,
0100
0000
0110
0000
,
1002
0000
0000
0000
,
0000
0000
0000
0003
,
0000
0000
2000
3000
,
0200
0300
0020
0030
,
2001
0000
0000
0000
,
0000
0000
0000
3000
,
0001
0000
0001
0000
,
0200
0000
0300
0100
,
0120
0000
0000
0000
,
0000
0000
0000
0030
,
0000
0000
2000
3000
,
0020
0030
0200
0300
,
1002
0000
0000
0000
,
0000
0000
0000
0003
,
0020
0000
0000
0000
,
0000
0000
0000
0030
,
0001
0000
0100
0100
,
0010
0000
0100
0000
,
0001
0000
0000
0010
0000
0000
1000
0000
,
0000
0010
0000
0000
0001
0000
0000
0000
,
2000
3000
0020
0030
,
0200
0300
0020
0030
,
2000
0000
0000
0000
,
0000
0000
0000
3000
,
0001
0000
0010
0010
,
0100
0000
1000
0000
,
0001
0000
0100
0100
,
0010
0000
1000
0000
,
0002
0000
0000
0003
,
1000
0100
0000
0000
,
0001
0100
0000
0000
,
2000
0000
0000
3000
,
0001
0000
0100
0100
,
0010
0000
1000
0000
,
0001
0000
0010
0010
,
0100
0000
1000
0000
,
0001
0000
0100
0000
,
0020
0000
0000
0030
,
1000
0010
0010
0000
,
0001
0010
0010
0000
,
1000
0100
0100
0000
,
0001
0100
0100
0000
,
0000
0120
0000
0000
,
0000
0000
0000
0030
,
0002
0000
0000
0003
,
0200
0300
0020
0030
,
2001
0000
0000
0000
,
0000
0000
0000
0000
,
0000
0000
0000
0000
,
0000
0000
0000
0000
,
3000
0000
0000
0000
;

//---------------dance-single - Talkion-BSP----------------
#NOTEDATA:;
#CHARTNAME:Talkion-BSP;
#STEPSTYPE:dance-single;
#DESCRIPTION:Talkion-BSP;
#DIFFICULTY:Easy;
#METER:10;
#RADARVALUES:0.351235,0.472758,0.151768,0.341478,0.049325,324,304,20,45,0,0,0,0,0,0.351235,0.472758,0.151768,0.341478,0.049325,324,304,20,45,0,0,0,0,0;
#CREDIT:Talkion;
#NOTES:
0000
0000
0000
0000
,
0000
0000
0000
0000
,
0000
0000
0000
0000
,
0000
0000
0000
0000
,
0000
0000
0000
0000
,
0100
1001
0000
1001
,
0100
1001
0001
0010
,
0100
1000
0100
1000
0001
0100
0001
0100
,
0020
0000
0030
0000
,
1000
0000
0010
0100
0000
0100
0001
0000
,
1000
0000
0100
0010
0000
0010
0001
0000
,
1000
0000
0001
0100
0000
0010
0000
1000
,
0000
0010
0000
0100
0002
0000
0000
0000
,
2003
0100
0100
3002
,
0023
0130
2000
0100
,
3002
0100
2003
0100
,
3001
0101
0200
0000
,
0310
0000
0000
0000
1001
0000
0000
0000
1000
0000
0000
1000
0100
0000
0000
0000
,
0010
0000
0000
0000
1001
0000
0000
0000
0001
0000
0000
0001
0100
0000
0000
0000
,
0020
1000
1000
0230
,
0302
1000
0023
0100
,
0032
1000
1000
1000
,
0203
0010
0302
1003
,
2001
0000
0000
0000
,
0000
0000
0000
0000
,
0100
0000
0000
0000
,
0000
0000
0000
3000
,
0001
0000
0000
0000
0000
0000
0000
0000
1000
0000
0000
0010
0000
0100
0000
0010
,
0000
0000
0000
0000
0000
0000
0000
0000
1000
0000
0000
0001
0000
0010
0000
0000
,
0001
0000
0000
0001
0000
0000
1000
0000
0000
1000
0000
0000
0010
0000
0000
0020
,
0000
0030
0100
0000
0010
0000
1000
0000
,
0002
0010
0010
0013
,
0100
0000
1000
0001
0000
0100
0000
0002
,
1000
1000
1003
0100
,
0010
0100
0010
0000
0001
1000
0001
0000
,
0101
0000
0000
1010
0000
0000
1100
0000
,
0000
0011
0000
0000
0101
0000
0000
2010
,
0000
0000
3001
0000
0010
0100
0020
0000
,
0031
0000
0110
0000
,
1001
1000
0010
0010
,
0100
0200
0001
0310
,
1000
1000
0100
0100
,
0010
0020
0001
0130
,
1100
1000
0001
0001
,
0100
0200
0010
0301
,
1000
0100
0010
0100
,
2000
0000
3000
0110
,
1001
0001
0100
0100
,
0010
0020
0001
0130
,
0001
0001
0010
0010
,
0100
0200
0001
0310
,
0011
0001
1000
1000
,
0010
0010
0100
0100
,
0001
1000
0001
0000
0010
0100
0010
0000
,
0002
0000
0000
0003
,
1000
0000
0000
0000
0000
0000
0000
0000
0001
0000
0000
0100
0000
0010
0000
0100
,
0000
0000
0001
0000
,
1000
0000
1000
0100
0000
0000
0010
0000
,
0010
0001
0000
0000
0200
0000
0310
0000
,
1000
0100
0010
0100
,
0001
0100
0010
0100
,
2000
0000
0000
0000
,
0000
0000
0000
3000
,
0001
0000
0000
0001
0100
0000
0010
0000
,
1000
0000
0010
0100
0002
0000
0000
0000
,
1003
0000
0000
1000
0100
0000
0010
0000
,
0200
0301
0200
1300
,
2001
0000
0010
0010
,
3001
0000
0100
0010
0000
0000
1000
0001
,
0010
0000
0100
0010
0000
0010
0001
2000
,
0000
3020
0000
0000
0000
0000
0030
0000
,
1000
0000
0000
1000
0100
0000
0010
0000
,
0001
0000
0010
0100
1000
0000
0000
0000
,
0001
0000
0000
0001
0100
0000
0010
0000
,
0200
0000
0000
1300
0000
0100
0001
0000
,
1000
1000
0100
0100
,
0010
0001
0010
0001
0020
0000
0130
0000
,
0000
1000
0010
1000
0000
0001
0010
0001
,
0000
1000
0010
1000
0000
0001
0010
0000
,
0000
0001
0100
0001
0000
1000
0100
1000
,
0001
0000
0100
0000
0010
0000
1000
0002
,
1000
0013
0100
1000
,
0001
0000
0100
0000
0010
1000
0010
0100
,
0002
0000
0000
0023
,
0230
0000
0000
0000
0302
0000
0000
0103
,
2000
0000
0000
0000
,
0000
0000
0000
0000
,
0000
0000
0000
0000
,
0000
0000
0000
0000
,
3000
0000
0000
0000
;

//---------------dance-single - Talkion-DSP----------------
#NOTEDATA:;
#CHARTNAME:Talkion-DSP;
#STEPSTYPE:dance-single;
#DESCRIPTION:Talkion-DSP;
#DIFFICULTY:Medium;
#METER:14;
#RADARVALUES:0.647183,0.877979,0.151768,0.394597,0.379420,597,577,20,52,0,0,0,0,0,0.647183,0.877979,0.151768,0.394597,0.379420,597,577,20,52,0,0,0,0,0;
#CREDIT:Talkion;
#NOTES:
0000
0000
0000
0000
,
0000
0000
0000
0000
,
0000
0000
0000
0000
,
0000
0000
0000
0000
,
0000
0000
0000
0000
0000
0000
0000
0000
0020
0000
0000
0030
1001
0000
0000
0000
,
1000
0000
0000
0100
0010
0100
0000
0000
0000
0000
0000
2000
3010
0000
0000
0000
,
0100
0000
0000
0010
1000
0000
0000
0000
0001
0000
0010
0000
0100
0000
1000
0000
,
0001
0100
0010
0000
1000
0100
0010
0000
0001
0010
0100
0000
1000
0010
0100
0000
,
0001
0100
0010
1000
0100
0010
0100
1000
0000
0000
0000
0000
0002
0000
0000
0000
,
1003
0010
0001
0010
0000
2000
0001
0000
,
3100
0000
0010
1000
0000
0010
0100
1000
,
0001
0100
1000
0100
0000
0101
0000
1001
,
0000
0000
0000
0011
0000
0000
0000
0000
0000
1100
0000
0000
2000
0000
0000
0000
3002
0000
0000
0000
0203
0000
0000
0000
,
0320
1000
0100
1030
,
2001
3100
1002
0103
,
0010
0100
0010
0100
0001
1000
0010
1000
,
0200
0000
0000
0000
0310
0000
0000
0000
0001
0000
0000
0001
0000
0000
0001
0000
,
1000
0010
0001
0010
0000
1000
0001
0000
0010
0000
0100
0001
0000
0100
0010
0001
,
1000
0000
0000
1000
0000
0000
1000
0000
0010
0000
0000
0010
0000
0000
0010
0000
0100
0000
0001
0000
0000
0000
1000
0000
0001
0000
0010
0000
0100
0000
1000
0000
,
0001
0001
0020
0000
0230
0000
1300
1000
,
0001
0001
0200
0000
0310
0010
2000
0000
,
3100
0100
0001
0100
0010
0010
0001
1000
,
0010
0010
0100
0010
0001
0001
0010
0100
,
0002
1000
1000
1000
,
1000
1000
1000
1003
,
0200
0010
0010
0010
,
0010
0000
0010
0000
0310
0000
0001
0010
,
0100
0000
1000
0001
0000
0100
0000
0100
0010
0000
1000
0100
0000
0010
0000
0100
,
1000
0000
0001
1000
0000
0010
0000
0010
0100
0000
0001
1000
0000
0100
0000
1000
,
0001
0100
0000
0020
0000
1030
0001
0010
0000
0200
0000
1300
0001
0200
0000
0310
,
0000
0000
0010
0000
0100
0000
0010
0000
1000
0000
0000
1000
0000
0000
0001
0000
0010
0000
0000
0010
0000
0000
0100
0000
1000
0000
0000
0000
0001
0000
0100
0000
,
0010
0000
1000
0001
0000
0010
0000
0010
,
0100
0000
1000
0010
0000
0100
0000
0010
,
2000
0000
0001
0001
0000
3100
0000
0010
,
1000
0010
0100
1000
0001
0100
0010
0100
,
0001
1001
0000
1100
0000
1000
0010
1010
,
0000
0101
0000
0001
0010
0011
0000
2100
,
0000
0000
0010
0000
3010
0000
0100
0010
2000
0000
0000
3002
0000
0000
0013
0000
,
0011
0000
0000
1100
0000
0000
1000
0001
2000
0000
0000
0000
0000
0000
3000
0000
,
0010
1000
0010
0000
0010
0001
0010
0000
,
0010
1000
0001
1000
0100
1000
0001
0000
,
0010
0001
0010
0000
0010
1000
0010
0000
,
0010
0001
1000
0001
0100
0001
1000
0000
,
1010
0010
0100
0000
0100
1000
0100
0000
,
0100
0001
1000
0001
0010
0001
1000
0000
,
0100
0010
0001
1000
0010
0100
0010
1000
,
0002
0023
0230
0301
,
0100
1000
0010
0000
0010
0001
0010
0000
,
0010
1000
0100
1000
0010
1000
0001
0000
,
0100
0001
0010
0000
0010
1000
0010
0000
,
0010
0001
0100
0001
0010
0001
1000
0000
,
0010
0100
0001
1000
0100
0010
0100
1000
,
0001
0100
0010
1000
0001
0010
0100
0010
,
0001
1000
0010
1000
0001
0010
0100
0010
,
1000
0001
0100
0010
0100
1000
0002
0000
,
0103
0000
0001
1000
0000
0100
0000
0100
0010
0000
0001
0100
0000
0010
0000
0100
,
0001
0000
1000
0100
0000
0010
0000
0010
1000
0000
0001
0100
0000
0010
0000
0010
,
0001
1000
0010
0200
0000
0301
1000
0001
,
0010
0200
0000
1300
0001
0100
0110
0000
,
0001
0100
0010
0100
0001
0010
0100
0010
,
0001
0100
1000
0100
0001
0010
1000
0010
,
0001
0100
0010
1000
0100
0001
1000
0010
,
0001
0100
0010
1000
0100
0010
0002
0000
,
0103
0000
0000
0000
0110
0000
0001
1000
0001
0000
0000
0010
0000
0000
0100
0010
,
0001
0000
1000
0010
0200
2300
3200
0320
,
1030
0000
0000
0000
1000
0000
0001
0010
0001
0000
0000
1000
0000
0000
0100
0000
,
0020
0001
0130
0000
2000
0100
3001
0000
,
1001
0000
0000
0000
1000
0000
0010
0000
0002
0000
0000
2003
0000
0000
3100
0000
,
0002
0000
0013
0200
0000
0310
0001
1000
,
0002
0000
0103
0010
0000
0010
1000
0001
,
0010
0100
0001
0100
0010
1000
0010
0100
,
1100
0000
0000
0000
1000
0000
0001
0010
0001
0000
0000
1000
0000
0000
0010
0100
,
0001
0000
1000
0100
0020
2030
3020
0230
,
1300
0000
0000
0000
1000
0000
0001
0010
0001
0000
0000
1000
0000
0000
0010
0000
,
0200
0001
0310
2000
0000
3100
0010
0100
,
1000
0000
0000
1000
0000
0000
1000
0000
0001
0000
0000
0001
0000
0000
0001
0000
,
0100
0000
0010
1000
0000
0010
1000
0000
0001
0010
0001
0000
2000
0000
0000
0000
,
3001
0000
0100
0000
0100
0000
1000
0100
0000
0000
0001
0000
0010
0000
1000
0010
,
0000
0000
0001
0000
0100
0000
1000
0100
0000
0000
0001
0000
0010
0000
0001
0000
,
1000
0000
0100
0000
0100
0000
0001
0100
0000
0000
1000
0000
0010
0000
1000
0000
,
0001
0010
0000
0100
0000
0010
0000
0100
0000
0010
0001
0000
1000
0000
0010
0100
,
0002
0000
1003
0100
0001
0100
1000
0001
,
0100
1000
0100
0001
1000
0100
0010
0001
,
0100
0010
0100
0001
0010
0001
1000
0100
,
0001
0000
1000
0000
0010
0000
0001
1000
0001
0000
0100
0000
0010
0000
1000
0001
,
2000
0000
0000
0000
,
0000
0000
0000
0000
,
0000
0000
0000
0000
,
0000
0000
0000
0000
,
3000
0000
0000
0000
;

//---------------dance-single - Talkion-ESP----------------
#NOTEDATA:;
#CHARTNAME:Talkion-ESP;
#STEPSTYPE:dance-single;
#DESCRIPTION:Talkion-ESP;
#DIFFICULTY:Hard;
#METER:18;
#RADARVALUES:0.897600,1.215663,0.212475,0.235241,1.054788,828,800,28,31,0,0,0,0,0,0.897600,1.215663,0.212475,0.235241,1.054788,828,800,28,31,0,0,0,0,0;
#CREDIT:Talkion;
#NOTES:
0000
0000
0000
0000
,
0000
0000
0000
0000
,
0000
0000
0000
0000
,
0000
0000
0000
0000
,
0000
0000
0000
0000
0000
0000
0000
0000
0020
0000
0000
0030
1001
0000
0000
0000
,
1000
0000
0000
0000
0000
0000
0100
1000
0001
0000
0100
0000
0000
0000
0000
0000
0000
0000
0000
0000
0000
0000
0002
0000
0013
0000
0000
0000
0000
0000
0000
0000
,
0001
0000
0000
0000
0000
0000
1000
0100
0010
0000
0000
0000
0000
0000
0000
0000
0001
0000
0000
0000
1000
0000
0000
0000
0010
0000
0000
0000
0100
0000
0000
0000
,
0001
1000
0100
1000
0001
0100
0010
0100
0001
1000
0010
1000
0001
0010
0100
0010
,
0001
1000
0001
1000
0001
1000
0001
1000
0010
0100
0010
0100
0010
0100
0010
0100
0000
0000
0000
0000
0000
0000
0000
0000
0002
0000
0000
0000
0000
0000
0000
0000
,
1003
0100
0010
0011
0000
0002
1000
0000
,
0103
0010
0100
1000
0000
0100
0010
1000
,
0001
0010
0100
1100
0000
1001
0000
0101
,
0000
0000
0000
1010
0000
0000
0000
0000
0000
1001
0000
0000
2000
0000
0000
0000
3200
0000
0000
0000
0320
0000
0000
0000
,
0031
0000
1000
0100
1000
0000
0001
0000
0100
0010
1000
0010
0100
0000
0001
0000
,
1000
0001
0010
0001
1000
0000
0010
0000
0100
0001
1000
0001
0100
0000
0010
0000
,
1000
0000
0001
0000
0010
0000
0001
0000
1000
0100
1000
0100
1000
0100
1000
0100
,
0020
0000
0000
0000
0031
0000
0000
0000
1001
0000
0000
1001
0000
0000
1001
0000
,
1000
0010
0100
0001
0000
0001
1000
0000
0100
0000
0010
1000
0000
0010
0001
0100
,
1000
0000
0000
0000
0000
0000
0000
0000
0000
1000
0000
0000
0000
0000
0000
0000
0000
0000
1000
0000
0000
0000
0000
0000
0100
0000
0000
0000
0000
0000
0000
0000
0000
0100
0000
0000
0000
0000
0000
0000
0000
0000
0100
0000
0000
0000
0000
0000
0001
0000
0000
1000
0000
0000
0001
0000
0000
0000
0000
0000
0000
0000
0000
0000
0000
0000
0010
0000
0000
0000
0000
0000
0100
0000
0000
0000
0010
0000
0000
0000
0001
0000
0000
0000
1000
0000
0000
0000
0010
0000
0000
0000
0100
0000
0000
0000
,
0001
1000
0001
0000
0010
0000
0100
0000
1000
0000
0001
0000
0100
0010
0100
0000
,
0001
1000
0001
0000
0010
0000
0100
0000
1000
0001
1000
0000
0010
0000
0100
0000
,
0001
1000
0100
1000
0001
0000
1000
0000
0010
0100
0001
0100
0010
0000
1000
0000
,
0001
0010
0100
1000
0100
0010
0001
0000
1000
0010
0100
0001
0100
0010
1000
0000
,
2001
0100
0100
0100
,
0100
0000
0000
0000
0100
0000
0000
0000
0100
0000
0000
0000
3100
0000
1000
0001
,
0020
0100
0100
0100
,
0100
0000
0000
0000
0100
0000
0000
0000
0130
0000
0000
0000
1000
0100
0010
0001
,
1000
0000
0000
0000
0001
0000
0100
0000
0000
0000
0010
0000
0000
0000
0000
0100
0001
0000
0000
0000
1000
0000
0001
0000
0000
0000
0010
0000
0000
0000
0100
0000
,
1000
0000
0000
0000
0001
0000
0100
0000
0000
0000
0010
0000
0000
0000
1000
0010
0100
0000
0000
0000
0001
0000
1000
0000
0000
0000
0100
0000
0010
0000
0001
0000
,
2000
0010
0000
3001
0000
0100
0002
0010
0000
1003
0000
0100
2000
0010
0000
3100
,
0000
0000
0100
0000
0100
0000
0100
0000
0020
0000
0000
0001
0000
0000
0130
0000
2000
0000
0000
0001
0000
0000
3010
0000
0100
0000
0000
0000
0001
1000
0100
0010
,
0001
0000
0000
0000
1000
0000
0010
0000
0000
0000
0100
0000
0000
0000
0001
0100
,
0010
0000
1000
0001
0000
0011
0000
2100
,
0001
0000
0000
0000
0010
0000
0010
0000
0000
0000
3001
0000
0000
0000
1000
0100
,
0010
0001
1000
0001
0100
0010
0100
0001
1000
0001
0010
0100
2000
0000
0000
0000
,
3010
0000
1010
0000
0000
0000
0101
0000
0000
0000
1000
0100
0010
0000
0011
0000
,
0000
0000
1100
0000
0000
0000
0001
0100
0010
0000
1010
0000
0000
0000
1200
0000
,
0000
0000
0010
0000
0310
0000
0100
1000
0001
0010
0001
1000
0010
1000
0002
0000
,
0103
0000
0000
1000
0000
0000
0100
0001
0020
0000
0000
0000
0000
0000
0030
0000
,
0001
0000
1000
0100
1000
0000
0001
0000
0100
0000
0010
1000
0010
0000
0100
0000
,
0001
0000
1000
0100
1000
0000
0001
0000
0010
0000
0100
1000
0001
1000
0010
0000
,
1000
0000
0001
0010
0001
0000
1000
0000
0010
0000
0100
0001
0100
0000
0010
0000
,
1000
0000
0001
0010
0001
0000
1000
0000
0100
0000
0010
0001
1000
0001
0100
0000
,
0110
0000
0010
0100
0001
0000
1000
0000
0100
0000
0010
0001
0010
0000
0100
0000
,
1000
0000
0001
0100
0001
0000
1000
0000
0010
0000
0100
0001
1000
0001
0010
0000
,
0100
0100
1000
1000
0001
0001
0100
0100
,
0010
1000
0010
1000
0002
0000
0000
0000
0023
0000
0000
0000
1030
0000
0000
0000
,
0010
0000
0001
1000
0001
0000
0100
0000
0010
0000
1000
0100
1000
0000
0010
0000
,
0100
0000
0001
0010
0001
0000
0100
0000
0010
0000
1000
0001
0100
0001
1000
0000
,
0010
0000
1000
0001
1000
0000
0100
0000
0010
0000
0001
0100
0001
0000
0010
0000
,
0100
0000
1000
0010
1000
0000
0100
0000
0010
0000
0001
1000
0100
1000
0001
0000
,
0101
0100
0010
0010
1000
1000
0001
0001
,
0010
0010
0100
0100
1000
1000
0001
0001
,
0100
0010
1000
0001
0010
0001
1000
0010
0100
0001
1000
0100
0010
0001
0100
0010
,
0100
0001
1000
0100
0010
0100
1000
0010
0100
0001
1000
0100
0010
0001
0100
0010
,
1000
0000
0000
0000
0001
0000
0010
0000
0000
0000
0100
0000
0000
0000
1000
0100
0010
0000
0000
0000
0001
0000
1000
0000
0000
0000
0010
0000
0000
0000
0100
0000
,
0001
0000
0000
0000
1000
0000
0100
0000
0000
0000
0010
0000
0000
0000
0001
0010
1000
0000
0000
0000
0010
0000
0100
0000
0000
0000
0010
0000
0000
0000
0001
0000
,
2000
0100
3001
0010
0001
1000
0002
0100
,
1003
0000
0010
0000
1000
0000
0100
0000
0010
0001
0010
0001
0100
0000
0000
0000
,
0001
0000
1000
0100
0010
0000
0010
0001
0100
0000
0100
0010
1000
0000
1000
0100
,
0010
0000
0001
0010
0100
0000
0100
1000
0010
0000
0010
0100
0001
0000
0001
1000
,
0100
0010
0001
0010
0100
1000
0001
1000
0010
0100
0001
0100
0010
1000
0001
1000
,
0100
0010
0001
0100
0010
1000
0100
0010
0001
0100
0010
0100
0002
0000
0000
0000
,
0013
0000
0000
0000
0110
0000
0100
0010
0100
0000
0000
1000
0000
0000
0010
0100
,
0001
0000
0000
0000
1000
0000
0001
0000
0010
0100
1000
0001
0010
0100
0010
0001
,
1000
0000
0000
0000
1000
0000
0010
0100
0010
0000
0000
1000
0000
0000
0100
0000
,
1100
0000
1000
0100
0001
0000
0000
0000
0011
0000
0001
0100
1000
0000
0000
0000
,
1010
0000
0000
0000
1000
0000
0100
0010
1000
0000
0010
0100
0000
0010
0001
0000
,
2000
0000
3010
0200
0000
0310
1000
0001
,
2000
0000
3100
0010
0000
0010
0001
1000
,
0010
0100
0001
0100
0010
1000
0001
1000
0100
0010
0001
0010
0100
1000
0001
1000
,
0010
0000
0000
0000
0110
0000
0100
0010
0100
0000
0000
0001
0000
0000
0010
0100
,
1000
0000
0000
0000
0001
0000
0100
0000
0010
0100
0001
1000
0010
0100
0010
1000
,
0001
0000
0000
0000
0001
0000
0010
0100
0010
0000
0000
0001
0000
0000
0100
0000
,
0101
0000
0001
0100
1000
0000
2010
0000
0000
0000
3001
0000
0010
0000
0001
0000
,
1000
0100
1000
0001
0000
0100
0001
0000
1000
0010
1000
0001
0000
0010
0001
0000
,
1000
0100
1000
0001
0100
0010
1000
0001
0010
0100
0010
0100
1000
0001
1000
0001
,
0100
0000
0010
0000
0010
0000
1000
0001
0010
0000
0100
0000
0010
0000
0001
0100
,
0010
0000
1000
0000
0010
0000
0100
0001
0010
0000
0100
0000
0010
0000
0001
1000
,
0010
0000
0100
0000
0100
0000
0001
1000
0100
0000
0010
0000
0010
0000
0001
0000
,
1000
0010
0000
0001
0000
0010
0000
1000
0001
0010
0100
0000
1000
0000
0010
0100
,
0002
0000
0000
0000
0013
0000
0100
1000
0010
0000
0100
0001
0010
0000
0100
1000
,
0001
1000
0010
0100
0010
1000
0001
1000
0100
0000
0010
0000
0001
0000
1000
0010
,
0100
0001
1000
0100
0010
0001
0100
0010
1000
0001
0010
0100
1000
0010
0100
0001
,
1000
0000
0100
0000
0001
0000
0100
0010
0001
1000
0100
1000
0001
0000
0100
0010
,
2000
0000
0000
0000
,
0000
0000
0000
0000
,
0000
0000
0000
0000
,
0000
0000
0000
0000
,
3000
0000
0000
0000
;

//---------------dance-double - NewbStepper-EDP----------------
#NOTEDATA:;
#CHARTNAME:NewbStepper-EDP;
#STEPSTYPE:dance-double;
#DESCRIPTION:NewbStepper-EDP;
#DIFFICULTY:Hard;
#METER:18;
#RADARVALUES:0.882423,1.114357,0.204887,0.242829,0.990287,814,787,27,32,0,0,0,0,0,0.882423,1.114357,0.204887,0.242829,0.990287,814,787,27,32,0,0,0,0,0;
#CREDIT:NewbStepper;
#NOTES:
00000000
00000000
00000000
00000000
,
00000000
00000000
00000000
00000000
,
00000000
00000000
00000000
00000000
,
00000000
00000000
00000000
00000000
,
00000000
00000000
00000000
00000000
00000000
00000000
00000000
00000000
00000020
00000000
00000000
00000030
00001001
00000000
00000000
00000000
,
00000011
00000000
00000000
00000000
00000000
00000000
00000001
00000100
00000010
00000000
00001000
00000000
00000000
00000000
00000000
00000000
00000000
00000000
00000000
00000000
00000000
00000000
00000100
00010000
00001000
00000000
00000000
00000000
00000000
00000000
00000000
00000000
,
10100000
00000000
00000000
00000000
00000000
00000000
10000000
01000000
00100000
00000000
00000000
00000000
00000000
00000000
00000000
00000000
00002000
00000000
00000000
00000000
00000000
00000000
00000000
00000000
00003000
00000000
00000000
00000000
00000000
00000000
00000000
00000000
,
00010000
00000000
00000100
00000000
00001000
00000000
00000001
00000000
00000100
00001000
00010000
01000000
10000000
00010000
00100000
01000000
,
10000000
00100000
01000000
00010000
00100000
00001000
00010000
00000100
00001000
00000010
00000100
00000001
00000000
00000000
00000000
00000000
00000000
00000000
00002002
00000000
00000000
00003003
00000000
00000000
,
00000001
00000010
00000100
00000010
00001000
00010000
00001000
00000100
,
00000001
00000010
00000100
00010000
00001000
00100000
00001000
00010000
,
00100000
10000000
01000000
01100000
00000000
10010000
00000000
00101000
,
00000000
00000000
00000000
00010010
00000000
00000000
00000000
00000000
00000000
00010000
00000000
00000000
00002000
00000000
00000000
00000000
00003200
00000000
00000000
00000000
00000302
00000000
00000000
00000000
,
00000013
00000001
00000100
00001000
01000000
10000000
01000000
00010000
,
00100000
00001000
00010000
00000100
00000010
00000001
00000100
00001000
,
00010000
00000000
01000000
00000000
10000000
00000000
00100000
00000000
00010000
00001000
01000000
00001000
00010000
00001000
01000000
00001000
,
00020000
00000000
00000000
00000000
00000000
00000000
00031000
00000000
00011000
00000000
00000000
00010010
00000000
00000000
00001010
00000000
,
00000010
00000100
00001000
00010000
00000000
01000000
00100000
00000000
00001000
00000000
01000000
10000000
00000000
01000000
00010000
01000000
,
00100000
00000000
00000000
00000000
00000000
00000000
00000000
00000000
00000000
00000000
00000000
00000000
00000000
00000000
00000000
00000000
00000000
00000000
00100000
00000000
00000000
00000000
00000000
00000000
00000000
00000000
00000000
00000000
00000000
00000000
00000000
00000000
00000000
00000000
00000000
00000000
00100000
00000000
00000000
00000000
00000000
00000000
00000000
00000000
00000000
00000000
00000000
00000000
00010000
00000000
00000000
00000000
00000000
00000000
00000000
00000000
00000000
00000000
00000000
00000000
00000000
00000000
00000000
00000000
00000000
00000000
00001000
00000000
00000000
00000000
00000000
00000000
00000000
00000000
00000000
00000000
00000000
00000000
00000000
00000000
00000000
00000000
00000000
00000000
00000010
00000000
00000000
00000000
00000000
00000000
00000000
00000000
00000000
00000000
00000000
00000000
00000100
00000000
00000000
00000000
00000000
00000000
00000010
00000000
00000000
00000000
00000000
00000000
00000100
00000000
00000000
00000000
00000000
00000000
00000000
00000000
00000000
00000000
00000000
00000000
00001000
00000000
00000000
00000000
00000000
00000000
00000000
00000000
00000001
00000000
00000000
00000000
00000000
00000000
00000000
00000000
00000100
00000000
00000000
00000000
00000000
00000000
00000000
00000000
00000010
00000000
00000000
00000000
00000000
00000000
00000000
00000000
00000100
00000000
00000000
00000000
00000000
00000000
00000000
00000000
00001000
00000000
00000000
00000000
00000000
00000000
00000000
00000000
00010000
00000000
00000000
00000000
00000000
00000000
00000000
00000000
00001000
00000000
00000000
00000000
00000000
00000000
00000000
00000000
00100000
00000000
00000000
00000000
00000000
00000000
00000000
00000000
,
00010000
00100000
00010000
01000000
10000000
01000000
00001000
00100000
,
00010000
00001000
00000100
00000010
00001000
00000001
00000100
00001000
,
00000100
00000010
00000100
00000000
00001000
00000001
00001000
00000000
00000100
00010000
00000100
00000000
00010000
00001000
00010000
00000000
,
00001000
00100000
00001000
00100000
00010000
00100000
01000000
10000000
01000000
10000000
00010000
01000000
00001000
01000000
00001000
00010000
,
00000010
00000010
00000010
00000010
,
00001000
00001000
00001000
00001000
,
00000001
00000001
00000001
00000001
,
00000100
00000000
00000000
00000000
00000100
00000000
00000000
00000000
00000100
00000000
00000000
00000000
00000100
00000010
00001000
00000100
,
00010000
00000000
00001000
00000100
00000000
00000110
00000000
00000000
00011000
00000000
00010000
01000000
00000000
01100000
00000000
00001000
,
00010000
00000000
00000000
00000000
00100000
00000000
10000000
00000000
00000000
00000000
10100000
00000000
00000000
00000000
00100000
00010000
00001000
00000000
00000000
00000000
00000010
00000000
00000001
00000000
00000000
00000000
00000011
00000000
00000000
00000000
00000010
00000000
,
00001000
00010000
00001000
00000100
00000000
00000010
00001000
00010000
00100000
00010000
00000000
10000000
01000000
00010000
00001000
00100000
,
00000000
00000000
00001000
00000000
00010000
00000000
00001000
00000000
00000010
00000000
00000000
00000001
00000000
00000000
00000100
00000000
00000010
00000000
00000000
00001000
00000000
00000000
00010000
00000000
01000000
00000000
00000000
00000000
00100000
10000000
01000000
00100000
,
00010000
01000000
00001000
00010000
00100000
10000000
00010000
10000000
,
01000000
00010000
00001000
00000100
00000001
00001000
00000100
00010000
,
00001000
00000010
00000001
00000100
00000001
00000010
00001000
00010000
,
00000010
00001000
00000010
00000000
00000100
00000001
00000100
00000000
00000010
00001000
00000100
00000000
00010000
00001000
00010000
00000000
,
00100000
00000000
10000000
00000000
01000000
00000000
02020000
00000000
03030000
00000000
00010000
00001000
00000010
00000000
00000001
00000000
,
00000100
00000000
00002200
00000000
00003300
00000000
00001000
00010000
00100000
00000000
10000000
00000000
00010000
00000000
02020000
00000000
,
03030000
00000000
01000000
00000000
01000000
00000000
00100000
10000000
01000000
00000000
00100000
00010000
00100000
00001000
00010000
00000000
,
00011000
00000000
00000000
00010010
00000000
00000000
00001010
00000000
00002002
00000000
00000000
00000000
00003003
00000000
00000000
00000000
,
00000001
00000000
00000100
00000000
00000010
00001000
00000010
00001000
00000001
00000000
00000100
00000000
00000010
00001000
00000010
00001000
,
00000100
00000000
00010000
00000000
00001000
00100000
00001000
00100000
00010000
00000000
01000000
00010000
10000000
00010000
01000000
00010000
,
10000000
00000000
01000000
00000000
00100000
00010000
00100000
00010000
10000000
00000000
01000000
00000000
00100000
00010000
00100000
00010000
,
01000000
00100000
00010000
00001000
00000010
00000100
00000010
00000001
00000100
00001000
00000100
00000001
,
00000010
00000000
00000001
00000000
00000100
00000010
00001000
00000000
00000001
00000000
00000100
00000000
00001000
00010000
00000100
00010000
,
00001000
00000000
00000010
00000100
00001000
00000000
00000100
00010000
00001000
00000000
00100000
00010000
01000000
00000000
00010000
10000000
,
01000000
10000000
00100000
00010000
00001000
00000010
00000001
00000100
,
00000010
00010000
00001000
00010000
00000010
00001000
00000010
00010000
00002000
00000000
00000000
00000000
00003000
00000000
00000000
00000000
,
00010000
00001000
00100000
00000000
00001000
00010000
00100000
00000000
00010000
00001000
01000000
00000000
00001000
00010000
01000000
00000000
,
00100000
00000000
00010000
01000000
00100000
00000000
10000000
01000000
10000000
00010000
01000000
00010000
10000000
00010000
00100000
00000000
,
00001000
00010000
00000010
00000000
00010000
00001000
00000010
00000000
00001000
00010000
00000100
00000000
00010000
00001000
00000100
00000000
,
00000010
00000000
00001000
00000100
00000010
00000000
00000001
00000100
00000001
00001000
00000100
00001000
00000001
00001000
00000010
00000000
,
00010000
00001000
00000100
00000001
00000010
00000001
00000100
00001000
,
00010000
01000000
10000000
00100000
10000000
01000000
00010000
00001000
,
01000000
00010000
00100000
00000000
00100000
00001000
00010000
00000000
00010000
00000100
00001000
00000000
00001000
00000010
00000100
00000000
,
00000100
00000001
00001000
00000100
00001000
00000100
00010000
00001000
00010000
00001000
01000000
00010000
01000000
00010000
10000000
00100000
,
02000000
00000000
00000000
00000000
10000000
00000000
10000000
00000000
00000000
00000000
03010000
00000000
00000000
00000000
00100000
00001000
00020000
00000000
00000000
00000000
00000100
00000000
00000100
00000000
00000000
00000000
00031000
00000000
00000000
00000000
00010000
00000000
,
00000200
00000000
00000000
00000000
00000001
00000000
00000001
00000000
00000000
00000000
00001300
00000000
00000000
00000000
00000010
00010000
00002000
00000000
00000000
00000000
01000000
00000000
01000000
00000000
00000000
00000000
00013000
00000000
00000000
00000000
00001000
00000000
,
00100000
00010000
10000000
00010000
01000000
00001000
00010000
00100000
,
10000000
00000000
01000000
00000000
00010000
00000000
00001000
00000000
00100000
00001000
00100000
00001000
00020000
00000000
00000000
00000000
,
00030010
00000000
00001000
00000001
00000010
00000000
00000010
00000001
00000100
00000000
00000100
00001000
00010000
00000000
00010000
00001000
,
00100000
00000000
00100000
00010000
01000000
00000000
01000000
00100000
10000000
00000000
10000000
00010000
00100000
00000000
00100000
00010000
,
10000000
00100000
01000000
00010000
10000000
01000000
00100000
00010000
00100000
00010000
00100000
00001000
00010000
00000010
00001000
00000010
,
00001000
00000010
00000100
00000001
00001000
00000100
00000010
00000001
00001000
00000010
00000100
00001000
00020000
00000000
00000000
00000000
,
00031000
00000000
00000000
00000000
00011000
00000000
00001000
00100000
00010000
00000000
00000000
01000000
00000000
00000000
00100000
10000000
,
00010000
00000000
00000000
00000000
10000000
00000000
00100000
00000000
01000000
00010000
01000000
00001000
00010000
00001000
01000000
00010000
,
00100000
00000000
00000000
00000000
00101000
00000000
00001000
00010000
00000100
00000000
00000000
00000010
00000000
00000000
00000001
00000000
,
00000100
00000000
00001000
00000100
00002000
00000000
00000000
00000000
00003100
00000000
00000001
00000100
00000002
00000000
00000000
00000000
,
00001003
00000000
00000000
00000000
00000000
00000000
00000001
00000100
00001000
00000000
00000000
00010000
00000000
00000000
00001000
00010000
,
00200000
00000000
10300000
02000000
00000000
03000000
00100000
00001000
,
02000000
00000000
03100000
00020000
00000000
00031000
00000010
00000001
,
00000100
00000000
00001000
00010000
00001000
00000000
00100000
00010000
01000000
00000000
00100000
10000000
00010000
00000000
01000000
00100000
,
00010000
00000000
00000000
00000000
00011000
00000000
00010000
00000010
00001000
00000000
00000000
00000100
00000000
00000000
00000010
00000001
,
00001000
00000000
00000000
00000000
00000001
00000000
00000010
00000000
00000100
00001000
00000100
00010000
00001000
00010000
00000100
00001000
,
00000010
00000000
00000000
00000000
00010010
00000000
00010000
00001000
01000000
00000000
00000000
00100000
00000000
00000000
10000000
00000000
,
01000000
00100000
00010000
02000000
00000000
13000000
01000000
00010000
,
00100000
00001000
00010000
00001000
00000010
00000001
00000100
00000010
,
00001000
00000001
00000100
00000010
00001000
00000001
00000010
00000100
00001000
00000010
00010000
00001000
00100000
00010000
01000000
00001000
,
00020000
00000000
00000000
00000000
00130000
00000000
01000000
00010000
00000000
00000000
10000000
00000000
01000000
00000000
00010000
00001000
,
00000000
00000000
00000010
00000000
00000100
00000000
00001000
00000010
00000000
00000000
00000001
00000000
00000010
00000000
00001000
00000000
,
00000000
00000000
00000100
00000000
00000010
00000000
00000100
00001000
00000000
00000000
00000001
00000000
00000100
00000000
00001000
00000000
,
00010000
01000000
00000000
10000000
00000000
00100000
00000000
10000000
00010000
00000000
01000000
00000000
00100000
00000000
10000000
00000000
,
00010000
00000000
00000000
00000000
10000000
01000000
00100000
00000000
01000000
00100000
00010000
00000000
00100000
00010000
00001000
00000000
,
00010000
00001000
00000100
00000000
00001000
00000100
00000010
00000000
00000001
00000000
00000100
00000000
00000010
00000000
00001000
00000000
,
00000001
00000100
00000001
00001000
00000100
00001000
00000001
00001000
00000010
00010000
00001000
00010000
00000010
00010000
00001000
00100000
,
00010000
01000000
00100000
10000000
00010000
10000000
01000000
00100000
00010000
00100000
00001000
00010000
00000010
00001000
00000001
00000100
,
00000020
00000000
00000000
00000000
,
00000000
00000000
00000000
00000000
,
00000000
00000000
00000000
00000000
,
00000000
00000000
00000000
00000000
,
00000030
00000000
00000000
00000000
;

//---------------dance-double - NewbStepper-DDP----------------
#NOTEDATA:;
#CHARTNAME:NewbStepper-DDP;
#STEPSTYPE:dance-double;
#DESCRIPTION:NewbStepper-DDP;
#DIFFICULTY:Medium;
#METER:15;
#RADARVALUES:0.636342,0.877979,0.098649,0.265594,0.307330,587,574,13,35,0,0,0,0,0,0.636342,0.877979,0.098649,0.265594,0.307330,587,574,13,35,0,0,0,0,0;
#CREDIT:NewbStepper;
#NOTES:
00000000
00000000
00000000
00000000
,
00000000
00000000
00000000
00000000
,
00000000
00000000
00000000
00000000
,
00000000
00000000
00000000
00000000
,
00000000
00000000
00000000
00000000
00000000
00000000
00000000
00000000
00200000
00000000
00000000
00300000
10010000
00000000
00000000
00000000
,
10000000
00000000
00000000
01000000
00100000
01000000
00000000
00000000
00000000
00000000
00000000
20000000
30100000
00000000
00000000
00000000
,
01000000
00000000
00000000
00001000
00010000
00000000
00000000
00000000
00000100
00000000
00001000
00000000
00000001
00000000
00000100
00000000
,
00000010
00001000
00010000
01000000
00100000
10000000
01000000
00100000
,
00001000
00010000
00001000
00000100
00000001
00000010
00000100
00000010
00000000
00000000
00000000
00000000
00000002
00000000
00000000
00000000
,
00001003
00000010
00000001
00000010
00000000
00001000
00000000
00000100
,
00000000
00010000
00000010
00001000
00000000
00010000
01000000
00010000
,
10000000
00100000
00010000
00100000
00000000
10000000
00000000
01000000
,
00000000
00000000
00000000
00010000
00000000
00000000
00000000
00000000
00000000
00001000
00000000
00000000
00000020
00000000
00000000
00000000
00000032
00000000
00000000
00000000
00000203
00000000
00000000
00000000
,
00002300
01000000
00010000
01000000
,
00023000
00000100
00001000
00000100
,
00031000
00010000
01000000
00000000
00001000
00010000
00100000
00000000
,
00001000
00000000
00010000
00000000
01000000
00000000
00000000
00000000
10000000
00000000
00000000
10000000
00000000
00000000
10000000
00000000
,
00010000
00100000
10000000
00100000
00000000
00010000
01000000
00000000
00100000
00000000
01000000
00001000
00000000
00010000
00000100
00010000
,
00001000
00000000
00000000
00001000
00000000
00000000
00001000
00000000
00000010
00000000
00000000
00000010
00000000
00000000
00000010
00000000
00000100
00000000
00001000
00000000
00000000
00000000
00000001
00000000
00000100
00000000
00000010
00000000
00000100
00000000
00001000
00000000
,
00010000
00100000
10000000
00010000
10000000
01000000
00010000
00000000
,
00001000
00000010
00000001
00001000
00000001
00000100
00001000
00000000
,
00010000
00010000
01000000
00100000
01000000
01000000
10000000
00010000
,
00100000
00100000
00010000
00001000
00000010
00000010
00000100
00001000
,
00020000
00000100
00000100
00000100
,
00000100
00000100
00000100
00000100
,
00032000
01000000
01000000
01000000
,
01000000
00000000
01000000
00000000
01000000
00000000
00013000
00001000
,
00000010
00000000
00000001
00000100
00000000
00000010
00000000
00000000
00000100
00000000
00001000
00010000
00000000
00001000
00000000
01000000
,
00100000
00000000
10000000
01000000
00000000
00100000
00000000
00000000
01000000
00000000
00010000
00001000
00000000
00010000
00000000
00001000
,
00000100
00000001
00000000
00000020
00000030
00000001
00001000
00000100
00000000
00020000
00030000
00001000
00010000
02000000
03000000
00100000
,
00000000
00000000
00100000
00000000
00010000
00000000
00100000
00000000
01000000
00000000
00000000
10000000
00000000
00000000
00100000
00000000
01000000
00000000
00000000
00010000
00000000
00000000
00100000
00000000
01000000
00000000
00000000
00000000
10000000
00000000
00010000
00000000
,
00100000
00001000
00010000
00000000
00100000
00010000
00001000
00000000
,
01000000
00001000
00010000
00000000
01000000
00010000
00001000
00000000
,
00000010
00000001
00000100
00000000
00000010
00000100
00001000
00000000
,
00010000
00001000
00010000
00100000
10000000
01000000
00010000
01000000
,
10000000
10010000
00000000
01010000
00000000
00100000
00001000
00011000
,
00000000
00010100
00000000
00000100
00001000
00001100
00000000
00000012
,
00000000
00000000
00000100
00000000
00000103
00000000
00001000
00000000
00010000
00000000
00000000
00001000
00000000
00000000
00000100
00000000
,
00001000
00000000
00000000
00010000
00000000
00000000
01000000
00000000
20000000
00000000
00000000
00000000
30000000
00000000
00000000
00000000
,
00010000
10000000
00100000
00010000
10000000
01000000
00010000
00100000
,
00010000
00001000
00000010
00000001
00001000
00000100
00000001
00000000
,
00001000
00000001
00000010
00001000
00000001
00000100
00001000
00000010
,
00001000
00010000
00100000
10000000
00010000
01000000
10000000
00000000
,
00010000
00100000
01000000
00001000
01000000
00010000
00001000
00010000
,
00000010
00000100
00010000
00000100
00001000
00010000
00000100
00000010
,
00000001
00000100
00001000
00010000
01000000
10000000
00100000
01000000
,
00002000
00000000
00000000
00003000
,
00001000
00010000
01000000
00001000
00010000
00001000
01000000
00100000
,
00001000
00010000
00100000
00001000
00000010
00010000
00000100
00000000
,
00010000
00001000
00000100
00010000
00001000
00010000
00000100
00000010
,
00010000
00001000
00000010
00010000
00100000
00001000
01000000
00000000
,
00100000
00010000
00001000
01000000
00010000
00001000
01000000
00010000
,
00001000
00000100
00010000
00001000
00000100
00010000
00001000
00000010
,
00000001
00000100
00001000
00010000
00000010
00001000
00100000
00010000
,
00001000
00010000
01000000
10000000
00100000
01000000
00002000
00000000
,
00013000
00000000
00100000
10000000
00000000
00100000
00000000
00010000
00001000
00000000
00000010
00000001
00000000
00000010
00000000
00001000
,
00010000
00000000
01000000
10000000
00000000
01000000
00000000
00010000
00001000
00000000
00000100
00000001
00000000
00000100
00000000
00001000
,
00010000
00001000
00010000
00100000
10000000
00100000
10000000
01000000
,
00010000
01000000
00010000
00001000
00000010
00000001
00001001
00000000
,
00001000
00000001
00000100
00000010
00001000
00010000
01000000
00100000
,
10000000
01000000
00100000
00010000
00001000
00000100
00000010
00000001
,
00000100
00001000
00010000
00100000
10000000
01000000
00010000
00001000
,
00000010
00000001
00000100
00000010
00001000
00000100
00020000
00000000
,
00031000
00000000
00000000
00000000
00010000
00000000
00001000
00000000
00011000
00000000
00000000
00010000
00000000
00000000
01000000
00000000
,
10000000
00000000
00100000
00010000
00002000
00003020
00002030
00023000
,
00031000
00000000
00000000
00000000
00001000
00000000
00010000
00000000
00011000
00000000
00000000
00001000
00000000
00000000
00000100
00000000
,
00000001
00000000
00000000
00000001
00000100
00000000
00000000
00000000
00000010
00000000
00000000
00000010
00001000
00000000
00000000
00000000
,
00001001
00000000
00000000
00000000
00000001
00000000
00000010
00000000
00002000
00000000
00000000
00023000
00000000
00000000
01030000
00000000
,
20000000
00000000
30100000
02000000
00000000
03100000
00010000
00001000
,
00200000
00000000
00301000
00010000
00000000
00001000
00000100
00000001
,
00000010
00001000
00010000
00100000
10000000
01000000
00010000
00001000
,
00010000
00000000
00000000
00000000
00001000
00000000
00010000
00000000
00011000
00000000
00000000
00001000
00000000
00000000
00000100
00000000
,
00000001
00000000
00000010
00001000
00020000
00230000
00320000
00032000
,
00013000
00000000
00000000
00000000
00010000
00000000
00001000
00000000
00011000
00000000
00000000
00010000
00000000
00000000
01000000
00000000
,
10000000
00000000
00000000
10000000
01000000
00000000
00200000
00000000
00000000
00000000
01300000
00000000
00010000
00000000
01000000
00000000
,
00100000
00001000
00010000
00100000
01000000
00010000
00001000
00010000
,
00100000
00001000
00010000
00001000
00000010
00000001
00002000
00000000
,
00003001
00000000
00000100
00000000
00000100
00000000
00000010
00000100
00000000
00000000
00001000
00000000
00010000
00000000
00100000
01000000
,
00000000
00000000
00001000
00000000
00010000
00000000
01000000
00100000
00000000
00000000
01000000
00000000
10000000
00000000
00010000
00000000
,
10000000
00000000
01000000
00000000
01000000
00000000
00100000
01000000
00000000
00000000
00010000
00000000
00001000
00000000
00000010
00000000
,
00000100
00001000
00000000
00000010
00000000
00000100
00000000
00000001
00000000
00001000
00000100
00000000
00000010
00000000
00000001
00000000
,
00002000
00000000
00003001
00000100
00001000
00000001
00000010
00001000
,
00100000
00010000
00001000
00010000
01000000
00001000
00000100
00000010
,
00001000
00010000
00100000
00001000
00010000
00001000
00000010
00010000
,
00100000
10000000
01000000
00010000
00001000
00100000
00010000
00001000
,
00000200
00000000
00000000
00000000
,
00000000
00000000
00000000
00000000
,
00000000
00000000
00000000
00000000
,
00000000
00000000
00000000
00000000
,
00000300
00000000
00000000
00000000
;

//---------------dance-double - NewbStepper-BDP----------------
#NOTEDATA:;
#CHARTNAME:NewbStepper-BDP;
#STEPSTYPE:dance-double;
#DESCRIPTION:NewbStepper-BDP;
#DIFFICULTY:Easy;
#METER:9;
#RADARVALUES:0.305704,0.438989,0.098649,0.273183,0.007588,282,269,13,36,0,0,0,0,0,0.305704,0.438989,0.098649,0.273183,0.007588,282,269,13,36,0,0,0,0,0;
#CREDIT:NewbStepper;
#NOTES:
// measure 0
00000000
00000000
00000000
00000000
,  // measure 1
00000000
00000000
00000000
00000000
,  // measure 2
00000000
00000000
00000000
00000000
,  // measure 3
00000000
00000000
00000000
00000000
,  // measure 4
00000000
00000000
00000000
00000000
,  // measure 5
00001001
00000100
00000000
00010100
,  // measure 6
00010000
00011000
00000000
00000000
,  // measure 7
00001000
01000000
00100000
10000000
,  // measure 8
00020000
00000000
00030000
00000000
,  // measure 9
10000000
01000000
00100000
00000000
,  // measure 10
01000000
00010000
00001000
00000000
,  // measure 11
00000100
00001000
00010000
00000000
,  // measure 12
00001000
00000010
00000001
00000000
,  // measure 13
00002000
00000000
00000100
00000000
,  // measure 14
00003020
00000000
00000100
00000000
,  // measure 15
00020030
00000000
00032000
00000000
,  // measure 16
00203000
00000000
00310000
00000000
,  // measure 17
10010000
00000000
00000000
00000000
10000000
00000000
00000000
00000000
01000000
00000000
00000000
01000000
00010000
00000000
00000000
00000000
,  // measure 18
00011000
00000000
00000000
00000000
00001000
00000000
00000000
00000000
00000010
00000000
00000000
00000010
00000001
00000000
00000000
00000000
,  // measure 19
00002000
00000001
00003200
00001000
,  // measure 20
00020300
00001000
02030000
00100000
,  // measure 21
23000000
00000000
30020000
00000000
,  // measure 22
00230000
00000000
00301000
00000000
,  // measure 23
00021000
00000000
00000000
00000000
,  // measure 24
00000000
00000000
00000000
00000000
,  // measure 25
00001000
00000000
00000000
00000000
,  // measure 26
00000000
00000000
00000000
00030000
,  // measure 27
00001000
00000000
00000010
00000000
,  // measure 28
00000001
00000000
00000100
00000000
,  // measure 29
00002000
00000000
00000000
00003000
00000000
00000000
00020000
00000000
00000000
00030000
00000000
00000000
00001000
00000000
00000000
00000000
,  // measure 30
00010000
01000000
10000000
00100000
,  // measure 31
20000000
01000000
30020000
01000000
,  // measure 32
10030000
00100000
00010000
00001000
,  // measure 33
00000020
00000001
00000001
00000001
,  // measure 34
00000230
00001000
00001000
00001300
,  // measure 35
00000100
00010000
00000000
00001000
00000000
00000000
01000000
00001000
,  // measure 36
00000000
00010000
00000000
00000000
00000010
00010000
00000000
00001000
,  // measure 37
00000000
00001000
00010000
00000000
01000000
00000000
10000000
00000000
,  // measure 38
20020000
00000000
30030000
00000000
,  // measure 39
10000000
01000000
00010000
01000000
,  // measure 40
10000000
01000000
00010000
00001000
,  // measure 41
00010000
00100000
00010000
00001000
,  // measure 42
00010000
00100000
00010000
00001000
,  // measure 43
00000010
00001000
00010000
00001000
,  // measure 44
00000010
00001000
00010000
00001000
,  // measure 45
00000100
00000001
00000100
00000010
,  // measure 46
00000200
00000000
00000300
00001001
,  // measure 47
00000001
00000100
00001000
00000100
,  // measure 48
00000001
00000100
00001000
00010000
,  // measure 49
00001000
00000010
00001000
00010000
,  // measure 50
00001000
00000010
00001000
00010000
,  // measure 51
00100000
00010000
00001000
00010000
,  // measure 52
00100000
00010000
00001000
00010000
,  // measure 53
01000000
10000000
01000000
00100000
,  // measure 54
02000000
00000000
00000000
03000000
,  // measure 55
00001000
00000000
00000100
00000000
,  // measure 56
00000001
00000000
00000010
00000000
,  // measure 57
00001000
00010000
00000000
00000100
00000000
00000000
00010000
00001000
,  // measure 58
00000000
01000000
00000000
00000000
00001000
00010000
00000000
00001000
,  // measure 59
00100000
00010000
01000000
00001000
,  // measure 60
00010000
00100000
10000000
01000000
,  // measure 61
00020000
00000000
00000000
00000000
,  // measure 62
00000000
00000000
00000000
00030000
,  // measure 63
00001000
00000000
00000000
00001000
00000100
00000000
00000010
00000000
,  // measure 64
00001000
00000000
00000001
00000100
00002000
00000000
00000000
00000000
,  // measure 65
00013000
00000000
00000000
00010000
01000000
00000000
00100000
00000000
,  // measure 66
02000000
13000000
02000000
03010000
,  // measure 67
00012000
00000000
00100000
00103000
,  // measure 68
00001000
00000000
00010000
00000100
00000000
00000000
00001000
00000001
,  // measure 69
00000010
00000000
00000001
00000100
00000000
00000100
00000010
00020000
,  // measure 70
00000000
00002000
00000000
00000000
00000000
00000000
00033000
00000000
,  // measure 71
00010000
00000000
00000000
00010000
01000000
00000000
00100000
00000000
,  // measure 72
00010000
00000000
10000000
01000000
00020000
00000000
00000000
00000000
,  // measure 73
00031000
00000000
00000000
00001000
00000100
00000000
00000010
00000000
,  // measure 74
00000200
00000301
00000200
00001300
,  // measure 75
00011000
00010000
01000000
10000000
,  // measure 76
00100000
00010000
00000010
00010000
,  // measure 77
00011000
00000000
00001000
00000010
00000000
00000001
00000010
00000001
,  // measure 78
00000000
00000010
00000100
00000010
00000000
00000100
00010000
00000100
,  // measure 79
00000000
00000000
00010000
00100000
00000000
00100000
10000000
00100000
,  // measure 80
01000000
00010000
00100000
00001000
,  // measure 81
00010000
00011000
00001000
00000010
,  // measure 82
00000001
00000100
00001000
01000000
,  // measure 83
00001000
00000010
00010000
00100000
,  // measure 84
00001000
00000100
00010000
01000000
,  // measure 85
02200000
00000000
00000000
00000000
,  // measure 86
00000000
00000000
00000000
00000000
,  // measure 87
00000000
00000000
00000000
00000000
,  // measure 88
00000000
00000000
00000000
00000000
,  // measure 89
03300000
00000000
00000000
00000000
;
