#TITLE:W-B-X ~W-Boiled Extreme~;
#ARTIST:Aya Kamiki W TAKUYA;
#BANNER:W-B-X ~W-Boiled Extreme~.png;
#BACKGROUND:W-B-X ~W-Boiled Extreme~-bg.png;
#MUSIC:W-B-X ~W-Boiled Extreme~.ogg;
#OFFSET:0.71;
#SAMPLESTART:42.126;
#SAMPLELENGTH:15;
#BPMS:0=140;

//---------------dance-single - Marten-ESP----------------
#NOTES:
     dance-single:
     Marten:
     Hard:
     11:
     0.473405,0.547731,0.299443,0.578923,0.194638,332,302,30,58,0,0,0.473405,0.547731,0.299443,0.578923,0.194638,332,302,30,58,0,0:
0000
0000
0000
0000
,
0000
0000
0000
0000
,
0000
0000
0000
0000
,
0000
0000
0000
0000
,
0000
0000
0000
0000
,
0001
0000
0010
0000
0100
0000
0020
0000
0000
0032
0000
0000
1003
0000
0000
0000
,
1000
0000
0010
0000
0100
0000
0001
0000
0000
0201
0000
0000
0310
0000
0000
0000
,
1000
0000
0010
0000
0100
0000
0020
0000
0000
2030
0000
0000
3001
0000
0000
0000
,
1000
0100
0001
0200
0000
2300
3002
0000
,
1003
0000
0010
0000
1000
0000
0010
0000
0100
0000
0010
0100
0000
0000
0100
0000
,
0001
0010
0000
0001
0100
0000
0001
0000
1000
0000
0100
2000
0000
0000
0000
0000
,
3001
0000
0010
0000
0001
0000
0010
0000
0100
0000
0010
0100
0000
0000
0100
0000
,
1000
0000
0010
0000
0100
0000
0001
0000
0200
0000
0000
0302
0000
0000
1003
0000
,
1010
0000
1000
0000
0100
0000
1000
0000
0001
0000
0100
0001
0000
0000
0001
0000
,
1000
0100
0000
1000
0010
0000
0100
0000
0001
0000
1000
0200
0000
0000
0000
0000
,
0310
0000
0001
0000
0100
0000
0001
0000
1000
0000
0100
0010
0000
0000
0001
0000
,
2000
0000
0000
3020
0000
0000
0230
0000
0000
0000
0301
0000
1000
0000
0001
0000
,
0021
0000
1000
0000
0130
0010
0001
1000
,
0020
0000
0230
1000
0000
0302
0000
1003
,
0200
0000
0001
0000
0010
0010
0310
0000
,
0200
0000
1300
0001
0100
0001
0010
0000
,
1002
0000
0010
0000
0103
0001
0100
0010
,
2000
0000
0000
0001
0000
0000
0002
0000
3000
0000
0000
0000
0013
0000
0000
0000
,
1000
0000
0010
0000
0010
0000
0001
0000
0010
0000
0000
1000
0000
0000
0001
0000
,
0022
0000
0000
0033
,
1100
0000
0101
0000
1001
0000
0001
0100
,
0020
0000
0000
2030
0000
0000
3001
0000
1000
0000
0010
0000
0100
0000
1000
0000
,
0200
0000
0000
0000
0001
0000
0000
0000
1000
0000
0000
0000
0310
0000
1000
0001
,
1000
0000
0001
0010
1000
0010
0001
0000
,
0101
0000
1100
0000
1001
0000
1000
0100
,
0020
0000
0000
0032
0000
0000
1003
0000
0001
0000
0010
0000
0100
0000
0001
0000
,
0200
0000
0000
0000
1300
0000
0001
0000
0002
0000
0000
0203
0000
0000
0301
0000
,
1001
0000
1000
0200
0000
1300
0001
1000
,
0020
1000
0001
0130
,
1010
0000
0000
0101
0000
0000
1001
0000
0000
1100
0000
0000
0010
0100
0010
0000
,
0011
0000
1010
0000
1001
0000
0001
0100
,
0010
0000
0000
0010
1000
0000
0100
0000
1000
0000
0000
1000
0001
0000
0010
0000
,
0200
0000
0001
0000
1000
0000
0310
0110
,
0000
0010
0001
1000
0010
0100
0110
0000
,
1010
0000
0011
0000
1001
0000
1000
0100
,
0010
0000
0000
0010
0001
0000
0100
0000
0001
0000
0000
0001
1000
0000
0010
0000
,
0200
0000
0000
0000
1300
0000
0100
0000
0001
0000
0000
1000
0010
0000
0001
0000
,
0020
0000
1030
0002
0000
0013
0100
1000
,
0020
0000
0001
0000
1000
0000
0130
0001
,
1000
0000
0100
0000
1000
0000
1001
0000
0000
0000
0011
0000
0000
0000
1000
0010
,
2000
0000
0000
0002
0000
0000
3003
0000
,
1000
0000
0010
0000
0100
0000
0020
0000
0000
2030
0000
0000
3001
0000
0000
0000
,
0001
0000
0010
0000
0100
0000
1000
0000
0000
1200
0000
0000
0310
0000
0000
0000
,
0001
0000
0010
0000
0100
0000
0020
0000
0000
0032
0000
0000
1003
0000
0000
0000
,
0001
0100
1000
0200
0000
0302
2003
0000
,
3010
0000
1000
0000
0001
0100
0001
0000
0000
2000
0000
0000
3100
0000
0000
0000
,
0010
0000
0001
0000
1000
0001
1000
0000
0000
0020
0000
0000
0130
0000
0000
0000
,
0001
0000
0100
0000
0010
1000
0010
0000
0000
2000
0000
0000
3100
0000
0000
0000
,
0010
0001
0010
2000
0000
3020
0031
0000
,
1001
2002
0000
0000
0000
3003
0000
0110
;

//---------------dance-single - Marten-BSP----------------
#NOTES:
     dance-single:
     Marten:
     Easy:
     5:
     0.235277,0.301252,0.249536,0.279480,0,165,140,25,28,0,0,0.235277,0.301252,0.249536,0.279480,0,165,140,25,28,0,0:
0000
0000
0000
0000
,
0000
0000
0000
0000
,
0000
0000
0000
0000
,
0000
0000
0000
0000
,
0000
0000
0000
0000
,
1000
0100
0000
1001
,
0001
0100
0000
0110
,
0010
0010
0010
0000
,
1000
0001
2002
3003
,
0001
0000
0001
0000
,
1000
0001
0100
0001
,
1000
0000
1000
0000
,
0010
0100
0010
0000
,
1000
0000
1000
0000
,
0100
1000
0001
0100
,
0001
0000
0001
0000
,
0010
0000
0110
0000
,
0002
0000
0003
1000
,
0010
0010
0100
0100
,
0002
0000
2003
0000
,
0000
3100
0100
0010
,
0002
0003
0000
0001
,
2000
0000
3002
0000
,
0103
0100
0010
0010
,
0220
0000
0000
0330
,
1001
1001
1001
0000
,
0001
0000
0001
1000
,
0200
0000
0310
0000
,
0010
0010
0001
1000
,
1001
1001
1001
0000
,
1000
0000
1000
0001
,
0200
0300
0001
0001
,
2000
3000
0100
0010
,
0220
0000
0000
0330
,
2000
0000
0000
0002
0000
0000
3003
0000
,
1001
1001
1001
0000
,
1000
0000
1000
0100
,
0020
0100
0000
0130
,
0010
0001
1000
1000
,
1001
1001
1001
0000
,
0001
0000
0001
0100
,
0020
0030
1000
0010
,
0200
0300
0001
1000
,
2002
0000
0000
3003
,
0001
0001
1000
1000
,
0020
0000
0200
0330
,
0001
0100
0000
1001
,
1000
0100
0000
0110
,
0010
0010
0010
0000
,
0001
1000
2002
3003
,
0001
0010
0001
0001
,
1000
0010
1000
1000
,
0100
0100
0100
0000
,
0010
0100
0110
0000
,
2002
0000
0000
0000
0000
3003
0000
1001
;

//---------------dance-single - Marten-DSP----------------
#NOTES:
     dance-single:
     Marten:
     Medium:
     8:
     0.365035,0.438185,0.269499,0.309424,0.114786,256,229,27,31,0,0,0.365035,0.438185,0.269499,0.309424,0.114786,256,229,27,31,0,0:
0000
0000
0000
0000
,
0000
0000
0000
0000
,
0000
0000
0000
0000
,
0000
0000
0000
0000
,
0000
0000
0000
0000
,
1000
0000
1000
0000
0000
0000
0010
0000
0000
0200
0000
0000
0301
0000
0000
0000
,
1000
0000
0010
0000
0000
0000
0100
0000
0000
0020
0000
0000
1030
0000
0000
0000
,
0001
0000
0001
0000
0000
0000
0010
0000
0000
0200
0000
0000
1300
0000
0000
0000
,
0001
1000
0001
1000
0000
1001
0000
0000
,
1000
0000
1100
0000
1000
0010
1000
0000
,
0001
0100
0001
0000
0100
0000
0110
0000
,
0001
0000
0100
0000
0001
0010
0001
0000
,
1000
0000
0100
0000
1000
0000
0000
0000
0010
0000
0000
0010
0000
0000
0010
0000
,
0000
0100
0001
0000
1000
0000
1001
0000
,
0001
0010
0001
0000
2000
0000
3100
0000
,
0010
0000
0100
0000
1000
0010
1000
0000
,
0001
0000
0000
0001
0000
0000
0001
0000
0000
0000
1000
0000
0001
0000
0000
0000
,
0020
0001
0000
0031
,
1001
1000
0010
1000
,
0200
0000
0000
0010
0310
0000
0001
0000
,
1000
0001
1000
0000
0010
0000
0100
0001
,
0200
0000
0000
0000
0301
0000
1000
0100
,
1000
0000
0000
1000
0000
0000
2000
0000
0000
0000
3002
0000
0000
0000
0103
0000
,
0020
0000
0000
0000
0100
0000
0000
0000
0130
0000
0000
0100
0000
0000
0100
0000
,
0020
0000
0000
0030
,
1010
0000
0011
0000
1001
0000
0000
0001
,
0001
0000
0000
1000
0000
0000
0100
0000
1000
0000
0000
0001
0000
0000
0100
0000
,
0020
1000
0000
1030
,
0100
0000
1000
0010
1000
0010
1000
0000
,
0011
0000
1010
0000
1001
0000
0000
1000
,
1000
0000
0000
0001
0000
0000
0100
0000
0001
0000
0000
1000
0000
0000
0100
0000
,
0020
0000
0000
0000
0030
0000
0001
0000
0010
0000
0000
0010
0000
0000
0010
0000
,
0200
0000
1300
0002
0000
0103
0001
0100
,
0020
0000
0000
0000
,
2030
0000
0000
0001
0000
0000
3001
0000
,
0101
0000
1100
0000
1001
0000
0000
0010
,
0001
0000
0000
0100
0000
0000
0010
0000
1000
0000
0000
0100
0000
0000
0010
0000
,
0002
1000
0000
1003
,
1000
0000
0001
0010
0001
0010
0001
0000
,
1100
0000
0101
0000
1001
0000
0000
0010
,
1000
0000
0000
0100
0000
0000
0010
0000
0001
0000
0000
0100
0000
0000
0010
0000
,
2000
0000
0000
0000
3001
0000
0100
0000
0010
0000
0000
0010
0000
0000
0010
0000
,
0200
0000
0301
2000
0000
3100
1000
0100
,
0020
0000
0000
0130
,
1000
0000
0001
1000
0000
0001
0000
0100
,
0020
0000
0000
0200
0000
0000
0330
0000
,
0001
0000
0001
0000
0000
0000
0010
0000
0000
0200
0000
0000
1300
0000
0000
0000
,
0001
0000
0010
0000
0000
0000
0100
0000
0000
0020
0000
0000
0031
0000
0000
0000
,
1000
0000
1000
0000
0000
0000
0010
0000
0000
0200
0000
0000
0301
0000
0000
0000
,
1000
0001
1000
0001
0000
1001
0000
0000
,
0001
0000
0100
0000
0000
0000
0001
0000
0000
0011
0000
0000
1001
0000
0000
0000
,
1000
0000
0100
0000
0000
0000
1000
0000
0000
1010
0000
0000
1001
0000
0000
0000
,
0100
0000
0010
0000
0000
0000
1000
0000
0000
1001
0000
0000
0110
0000
0000
0000
,
0100
0001
1000
0002
0000
2000
3003
0000
,
0110
0220
0000
0000
0000
0330
0000
1001
;

//---------------dance-single - NewbStepper-bSP----------------
#NOTES:
     dance-single:
     NewbStepper:
     Beginner:
     3:
     0.116925,0.219092,0.059889,0.149722,0,82,76,6,15,0,0,0.116925,0.219092,0.059889,0.149722,0,82,76,6,15,0,0:
0000
0000
0000
0000
,
0000
0000
0000
0000
,
0000
0000
0000
0000
,
0000
0000
0000
0000
,
0000
0000
0000
0000
,
0001
0000
0000
0000
,
0001
0000
0000
0000
,
0001
0000
0000
0000
,
0001
0000
0000
0000
,
1000
0000
0000
0000
,
1000
0000
0000
0000
,
0100
0000
0000
0000
,
0100
0000
0000
0000
,
0010
0000
0000
0000
,
0010
0000
0000
0000
,
0001
0000
0000
0000
,
0001
0000
0000
0000
,
1001
0000
0001
0000
,
0100
0000
0000
0000
,
0001
0001
0001
0000
,
1000
1000
1000
0000
,
1001
0000
1000
0000
,
0100
0000
0000
0000
,
2000
0000
3000
0000
,
0002
0000
0003
0000
,
0010
0010
0010
0000
,
1000
0000
0100
0000
,
0002
0000
0003
0000
,
2000
0000
3000
0000
,
0010
0010
0010
0000
,
0001
0000
0100
0000
,
2000
0000
3000
0000
,
0002
0000
0003
0000
,
2002
0000
3003
0000
,
1001
0000
0000
0000
,
0100
0100
0100
0000
,
0010
0000
0001
0000
,
0200
0000
0300
0000
,
2000
0000
3000
0000
,
0100
0100
0100
0000
,
0010
0000
1000
0000
,
0200
0000
0300
0000
,
0020
0000
0030
0000
,
2002
0000
3003
0000
,
0010
0010
0010
0000
,
2000
0000
0000
0000
,
3000
0000
0000
0000
,
0000
0000
0000
0000
,
0001
0001
1000
0000
,
0100
0000
0010
0010
,
0001
0000
0000
0000
,
0000
0000
0000
0000
,
1000
1000
0001
0000
,
0100
0000
0010
0010
,
1000
0000
0000
0000
0000
0000
0000
1001
;

//---------------dance-double - NewbStepper-EDP----------------
#NOTES:
     dance-double:
     NewbStepper:
     Hard:
     11:
     0.481961,0.547731,0.409239,0.139740,0.094824,338,297,41,14,0,0,0.481961,0.547731,0.409239,0.139740,0.094824,338,297,41,14,0,0:
00000000
00000000
00000000
00000000
,
00000000
00000000
00000000
00000000
,
00000000
00000000
00000000
00000000
,
00000000
00000000
00000000
00000000
,
00000000
00000000
00000000
00000000
,
10000000
00000000
01000000
00000000
00010000
00000000
00001000
00000000
00000000
00000110
00000000
00000000
00001001
00000000
00000000
00000000
,
00000001
00000000
00000100
00000000
00001000
00000000
00010000
00000000
00000000
01100000
00000000
00000000
10010000
00000000
00000000
00000000
,
10000000
00000000
01000000
00000000
00010000
00000000
00001000
00000000
00000000
00000110
00000000
00000000
00001001
00000000
00000000
00000000
,
00000001
00000000
00000100
00000000
00001000
00000000
00010000
00000000
00000000
01100000
00000000
00000000
10010000
00000000
00000000
00000000
,
00001000
00010000
01000000
00010000
00001000
00000100
00000001
00000000
,
00000010
00000001
00000100
00000001
00000010
00000000
00001010
00000000
,
00010000
00001000
00000010
00001000
00010000
00100000
10000000
00000000
,
00010000
00000000
01000000
00000000
00001000
00000000
00010000
00000000
00000100
00000000
00000000
00010000
00000000
00000000
00001000
00000000
,
00000000
00001000
00000100
00001000
00010000
01000000
10000000
00000000
,
00100000
10000000
01000000
10000000
00100000
00000000
00110000
00000000
,
00001000
00010000
00100000
00010000
00001000
00000010
00000001
00000000
,
00001000
00000100
00010000
00001000
01000000
00010000
10000000
01000000
,
00020000
00000100
01000000
00000100
,
00032000
00100000
00000010
00103000
,
00001000
00010000
01000000
10000000
00100000
00010000
00100000
10000000
,
00000000
01000000
00010000
00001000
00000100
00000001
00000100
00000000
,
00002000
01000000
00000100
01000000
,
00023000
00000010
00100000
00030010
,
00010000
00001000
00000100
00000001
00000010
00001000
00000010
00000001
,
00002000
00000000
00000000
00003000
,
00000101
00000000
00001100
00000000
00011000
00000000
00010000
00100000
,
10000000
00010000
10000000
01000000
00010000
00001000
00000100
00001000
,
00020000
00000000
01000000
00000000
00001000
00000000
00130000
00010000
,
00001000
00000000
00000010
00001000
00010000
01000000
10000000
00000000
,
10100000
00000000
00110000
00000000
00011000
00000000
00001000
00000100
,
00000001
00001000
00000001
00000010
00001000
00010000
00100000
00010000
,
00002000
00000000
00000000
00000000
00000000
00000000
00013000
00000000
01000000
00000000
00000000
10000000
00000000
00000000
01000000
00000000
,
00020000
00000000
00030000
00001000
00000100
00000001
00001000
00000001
,
00000100
00001000
00010000
00000000
00001000
00010000
01000000
00000000
,
00010000
00000000
00000000
00001000
00000000
00000000
00100000
00000000
00000000
00001000
00000000
00000000
00010000
00000000
01000000
00000000
,
11000000
00000000
01010000
00000000
00011000
00000000
00001000
00000010
,
00000001
00001000
00000001
00000100
00001000
00010000
01000000
00010000
,
00002000
00000000
00000100
00000000
00010000
00000000
00003010
00001000
,
00010000
00000000
00100000
00010000
00001000
00000100
00000001
00000000
,
00000011
00000000
00001010
00000000
00011000
00000000
00010000
01000000
,
10000000
00010000
10000000
00100000
00010000
00001000
00000010
00001000
,
00020000
00000000
00000000
00000000
00030000
00000000
00001000
00000000
00000100
00000000
00000000
00000001
00000000
00000000
00000100
00000000
,
00002000
00000000
00003000
00010000
01000000
10000000
00010000
10000000
,
01000000
00010000
00001000
00000000
00010000
00001000
00000100
00000000
,
00001000
00010000
01000000
00010000
00001000
00000100
00000001
00000010
,
00000200
00000000
00000000
00000000
00000000
00000000
00000000
00000000
00010300
00000000
00000000
00001000
00000000
00000000
00000100
00000000
,
00000001
00000000
00000010
00000000
00001000
00000000
00010000
00000000
00000000
01100000
00000000
00000000
10010000
00000000
00000000
00000000
,
10000000
00000000
00100000
00000000
00010000
00000000
00001000
00000000
00000000
00000110
00000000
00000000
00001001
00000000
00000000
00000000
,
00000001
00000000
00000010
00000000
00001000
00000000
00010000
00000000
00000000
01100000
00000000
00000000
10010000
00000000
00000000
00000000
,
10000000
00000000
00100000
00000000
00010000
00000000
00001000
00000000
00000000
00000110
00000000
00000000
00001001
00000000
00000000
00000000
,
00000010
00000000
00000001
00000000
00000100
00000000
00001100
00000000
00000000
00011000
00000000
00000000
00110000
00000000
00000000
00000000
,
00100000
00000000
10000000
00000000
01000000
00000000
01010000
00000000
00000000
00011000
00000000
00000000
00001010
00000000
00000000
00000000
,
00000010
00000000
00000001
00000000
00000100
00000000
00001100
00000000
00000000
00011000
00000000
00000000
00110000
00000000
00000000
00000000
,
00100000
00000000
10000000
00000000
01000000
00000000
00010000
00000000
00000000
00000000
00001000
00010000
00001000
00010000
00001000
00000000
,
00010000
00022000
00000000
00000000
00000000
00033000
00000000
00011000
;

//---------------dance-double - NewbStepper-DDP----------------
#NOTES:
     dance-double:
     NewbStepper:
     Medium:
     8:
     0.312276,0.383412,0.089833,0.199629,0.114786,219,210,9,20,0,0,0.312276,0.383412,0.089833,0.199629,0.114786,219,210,9,20,0,0:
// measure 0
00000000
00000000
00000000
00000000
,  // measure 1
00000000
00000000
00000000
00000000
,  // measure 2
00000000
00000000
00000000
00000000
,  // measure 3
00000000
00000000
00000000
00000000
,  // measure 4
00000000
00000000
00000000
00000000
,  // measure 5
00010000
00000000
00001000
00000000
00000000
00000000
00100000
00000000
00000000
00010000
00000000
00000000
01000000
00000000
00000000
00000000
,  // measure 6
00001000
00000000
00010000
00000000
00000000
00000000
00000010
00000000
00000000
00001000
00000000
00000000
00000100
00000000
00000000
00000000
,  // measure 7
00010000
00000000
00001000
00000000
00000000
00000000
00100000
00000000
00000000
00010000
00000000
00000000
01000000
00000000
00000000
00000000
,  // measure 8
00001000
00000000
00010000
00000000
00000000
00000000
00000010
00000000
00000000
00001000
00000000
00000000
00000100
00000000
00000000
00000000
,  // measure 9
00000010
00000001
00000010
00000000
00000100
00001000
00000100
00000000
,  // measure 10
00000010
00000000
00001000
00000000
00010000
00001000
00010000
00000000
,  // measure 11
01000000
10000000
01000000
00000000
00100000
00010000
00100000
00000000
,  // measure 12
01000000
00000000
00000000
00000000
00010000
00000000
00000000
00000000
00001000
00000000
00000000
00001000
00000000
00000000
00000010
00000000
,  // measure 13
00000000
00000001
00000100
00000000
00000010
00001000
00000010
00000000
,  // measure 14
00000100
00000000
00001000
00000000
00010000
00001000
00010000
00000000
,  // measure 15
00100000
10000000
00100000
00000000
01000000
00010000
01000000
00000000
,  // measure 16
00100000
00010000
00001000
00000010
,  // measure 17
00000002
00000000
00000000
00000000
00000003
00000100
00000010
00001000
,  // measure 18
00000010
00010000
00001000
01000000
,  // measure 19
00020000
00000000
00100000
00000000
10000000
00000000
00130000
00001000
,  // measure 20
00020000
00100000
00001000
00130000
,  // measure 21
20000000
00000000
00000000
00000000
30000000
01000000
00100000
00010000
,  // measure 22
00100000
00001000
00010000
00001000
,  // measure 23
00000020
00000000
00000000
00000000
00000030
00000001
00000000
00000100
,  // measure 24
00002000
00000000
00000000
00003000
,  // measure 25
00011000
00000000
00010000
00000000
01000000
00000000
00000000
10000000
,  // measure 26
01000000
00000000
00000000
01000000
00000000
00000000
01000000
00000000
00010000
00000000
00000000
00010000
00000000
00000000
00010000
00000000
,  // measure 27
00002000
00100000
00000000
00103000
,  // measure 28
00001000
00010000
01000000
00010000
,  // measure 29
00011000
00000000
00001000
00000000
00000010
00000000
00000000
00000001
,  // measure 30
00000010
00000000
00000000
00000010
00000000
00000000
00000010
00000000
00001000
00000000
00000000
00001000
00000000
00000000
00001000
00000000
,  // measure 31
00020000
00000000
00000000
00000000
00000000
00000000
00000000
00000000
00130000
00000000
00000000
01000000
00000000
00000000
00100000
00000000
,  // measure 32
20000000
00000000
00000000
00000000
30010000
00000000
00100000
01000000
,  // measure 33
00020000
00000000
00000000
00000000
,  // measure 34
00002000
00000000
00000000
00033000
,  // measure 35
00011000
00000000
00001000
00000000
00000100
00000000
00000000
00000001
,  // measure 36
00000100
00000000
00000000
00000100
00000000
00000000
00000100
00000000
00001000
00000000
00000000
00001000
00000000
00000000
00001000
00000000
,  // measure 37
00020000
00000010
00000000
00030010
,  // measure 38
00010000
00001000
00000100
00001000
,  // measure 39
00011000
00000000
00010000
00000000
00100000
00000000
00000000
10000000
,  // measure 40
00100000
00000000
00000000
00100000
00000000
00000000
00100000
00000000
00010000
00000000
00000000
00010000
00000000
00000000
00010000
00000000
,  // measure 41
00002000
00000000
00000000
00000000
00000000
00000000
00000000
00000000
00003010
00000000
00000000
00000100
00000000
00000000
00000010
00000000
,  // measure 42
00000002
00000000
00000000
00000000
00001003
00000000
00000010
00000100
,  // measure 43
00002000
00000000
00000000
00000000
,  // measure 44
00020000
00000000
00003000
00000000
,  // measure 45
00230000
00000000
00000000
20000000
00000000
00000000
30300000
00000000
,  // measure 46
00010000
00000000
00001000
00000000
00000000
00000000
00100000
00000000
00000000
00010000
00000000
00000000
01000000
00000000
00000000
00000000
,  // measure 47
00001000
00000000
00010000
00000000
00000000
00000000
00000010
00000000
00000000
00001000
00000000
00000000
00000100
00000000
00000000
00000000
,  // measure 48
00010000
00000000
00001000
00000000
00000000
00000000
00100000
00000000
00000000
00010000
00000000
00000000
01000000
00000000
00000000
00000000
,  // measure 49
00001000
00000000
00010000
00000000
00000000
00000000
00000010
00000000
00000000
00001000
00000000
00000000
00000100
00000000
00000000
00000000
,  // measure 50
00000010
00000000
00000001
00000000
00000000
00000000
00000100
00000000
00000000
00001000
00000000
00000000
00011000
00000000
00000000
00000000
,  // measure 51
00100000
00000000
10000000
00000000
00000000
00000000
01000000
00000000
00000000
00010000
00000000
00000000
00011000
00000000
00000000
00000000
,  // measure 52
00000100
00000000
00000001
00000000
00000000
00000000
00000010
00000000
00000000
00001000
00000000
00000000
00011000
00000000
00000000
00000000
,  // measure 53
01000000
00000000
10000000
00000000
00000000
00000000
00100000
00000000
00000000
00010000
00000000
00000000
00011000
00000000
00000000
00000000
,  // measure 54
00000200
00000020
00000000
00000000
00000000
00000330
00000000
00001001
;

//---------------dance-double - NewbStepper-BDP----------------
#NOTES:
     dance-double:
     NewbStepper:
     Easy:
     5:
     0.232425,0.301252,0.239554,0.259517,0,163,139,24,26,0,0,0.232425,0.301252,0.239554,0.259517,0,163,139,24,26,0,0:
// measure 0
00000000
00000000
00000000
00000000
,  // measure 1
00000000
00000000
00000000
00000000
,  // measure 2
00000000
00000000
00000000
00000000
,  // measure 3
00000000
00000000
00000000
00000000
,  // measure 4
00000000
00000000
00000000
00000000
,  // measure 5
00010000
01000000
00000000
00011000
,  // measure 6
00001000
00000100
00000000
00000110
,  // measure 7
00000010
00000010
00000010
00000000
,  // measure 8
00001000
00000001
00002002
00003003
,  // measure 9
00000001
00000000
00001000
00000000
,  // measure 10
00000100
00010000
00001000
01000000
,  // measure 11
00010000
00000000
10000000
00000000
,  // measure 12
00010000
01000000
00010000
00000000
,  // measure 13
10000000
00000000
00010000
00000000
,  // measure 14
01000000
00001000
00010000
00000100
,  // measure 15
00001000
00000000
00000001
00000000
,  // measure 16
00000010
00000000
00000110
00000000
,  // measure 17
00002000
00000000
00003000
00100000
,  // measure 18
00010000
00010000
10000000
10000000
,  // measure 19
02000000
00000000
03020000
00000000
,  // measure 20
00000000
00031000
00000100
00001000
,  // measure 21
00020000
00000000
00030010
00001000
,  // measure 22
00001000
00000001
00000001
00000100
,  // measure 23
00002000
00000000
00000000
00000000
,  // measure 24
00020000
00000000
00000000
00033000
,  // measure 25
00011000
00011000
00011000
00000000
,  // measure 26
01000000
00000000
01000000
00010000
,  // measure 27
20000000
00000000
30100000
00000000
,  // measure 28
00100000
00100000
00010000
00001000
,  // measure 29
00011000
00011000
00011000
00000000
,  // measure 30
00000010
00000000
00000010
00001000
,  // measure 31
00000002
00000003
00000100
00000100
,  // measure 32
00002000
00003000
00010000
00001000
,  // measure 33
00022000
00000000
00000000
00033000
,  // measure 34
02000000
00000000
00000000
00020000
00000000
00000000
03030000
00000000
,  // measure 35
00011000
00011000
00011000
00000000
,  // measure 36
00000100
00000000
00000100
00001000
,  // measure 37
00000002
00000000
00000013
00000000
,  // measure 38
00000010
00000010
00001000
00010000
,  // measure 39
00011000
00011000
00011000
00000000
,  // measure 40
00100000
00000000
00100000
00010000
,  // measure 41
20000000
30000000
01000000
01000000
,  // measure 42
00020000
00030000
00001000
00010000
,  // measure 43
00022000
00000000
00000000
00033000
,  // measure 44
00001000
00001000
00000100
00000100
,  // measure 45
00000002
00000000
00000200
00000303
,  // measure 46
00001000
00000100
00000000
00011000
,  // measure 47
00010000
01000000
00000000
01100000
,  // measure 48
00100000
00100000
00100000
00000000
,  // measure 49
00010000
10000000
20020000
30030000
,  // measure 50
00100000
10000000
00100000
00100000
,  // measure 51
00010000
00001000
00010000
00010000
,  // measure 52
00000100
00001000
00001000
00000000
,  // measure 53
00000010
00000100
00000110
00000000
,  // measure 54
00002002
00000000
00000000
00000000
00000000
00003003
00000000
00001001
;
