#VERSION:0.83;
#TITLE:Visterhv;
#ARTIST:Feryquitous;
#BANNER:Visterhv.png;
#BACKGROUND:Visterhv-bg.png;
#JACKET:Visterhv-jacket.png;
#MUSIC:Visterhv.ogg;
#OFFSET:2.515;
#SAMPLESTART:87.013;
#SAMPLELENGTH:15;
#DISPLAYBPM:96:191;
#BPMS:0=95.5,10=191,13.5=382,14.5=191,45=382,46=191,75=382,77=191,109=382,110=191,139=95.5,139.5=191,172.5=382,174.5=191,201=95.5,203=191,231.5=95.5,232.5=191,233.5=382,238.5=191,240.5=382,244.5=191,246.5=382,250.5=191,252.5=382,256.5=95.5,257=191,258=95.5,262=191,293.5=382,294.5=191,325=382,326=191;
#STOPS:13.5=0.314,45=0.314,74=0.314,109=0.079,109.5=0.079,233.5=0.04,233.75=0.039,234=0.04,234.25=0.039,234.5=0.314,235.5=0.314,236.5=0.314,237.5=0.314,240.5=0.314,241.5=0.314,242.5=0.314,243.5=0.314,246.5=0.314,247.5=0.314,248.5=0.314,249.5=0.314,252.5=0.314,253.5=0.314,254.5=0.314,255.5=0.314,293.5=0.314,325=0.314;
#TIMESIGNATURES:0=4=4,12=2=4,14=3=4,17=4=4,137=3=4,140=4=4,172=5=4,177=4=4,201=2=4,203=4=4,231=3=4,258=4=4,294=3=4,297=4=4;
#BGCHANGES:;

//---------------dance-single - Talkion-bSP----------------
#NOTEDATA:;
#CHARTNAME:Talkion-bSP;
#STEPSTYPE:dance-single;
#DESCRIPTION:Talkion-bSP;
#DIFFICULTY:Beginner;
#METER:6;
#RADARVALUES:0.215768,0.371369,0.116183,0.082988,0,182,168,14,10,0,0,0,0,0,0.215768,0.371369,0.116183,0.082988,0,182,168,14,10,0,0,0,0,0;
#CREDIT:Talkion;
#NOTES:
0000
0000
0000
0000
,
0000
0000
0000
0000
,
0000
0000
0000
0000
,
0000
0000
0000
0000
0000
0001
0000
0000
,
0000
0000
0001
0000
0000
0001
0000
0001
,
0000
0000
1000
0000
0000
1000
0000
0000
,
0000
0000
1000
0000
0000
1000
0000
1000
,
0000
0000
0001
0000
0000
0001
0000
0000
,
0000
0000
0001
0000
0000
0001
0000
0001
,
0000
0000
1000
0000
0000
1000
0000
0000
,
0000
0000
1000
0000
0000
1000
0000
1000
,
0000
0010
0000
0000
,
0000
0010
0000
0000
0010
0000
0010
0000
,
0000
0100
0000
0000
0100
0000
0000
0000
,
0000
0100
0000
0000
0100
0000
0100
0000
,
0000
0001
0000
0000
0001
0000
0000
0000
,
0000
0001
0000
0000
0001
0000
0001
0000
,
0000
1000
0000
0000
1000
0000
0000
0000
,
0000
2000
0000
0000
3000
0000
0000
0000
,
0000
0001
0000
0000
,
0001
0001
0000
0000
,
1000
1000
0000
0000
,
0001
0001
0000
0000
,
1000
1000
0000
0000
,
0001
0001
0000
0000
,
1000
1000
0000
0000
,
0001
0001
0000
0000
,
0000
0000
0000
0100
,
0000
0100
0000
0010
,
0000
0010
0000
1000
,
0000
1000
0000
0001
,
0000
0001
0000
1000
,
0000
1000
0000
0100
,
0000
0100
0000
0010
,
0000
0010
0000
0000
,
0010
0000
0000
0000
0000
0010
0000
0000
,
0001
0000
0000
0000
0000
0001
0000
0000
,
0100
0000
0000
0000
0000
0100
0000
0000
,
0010
0000
0000
0000
0000
0010
0000
0000
,
1000
0000
0000
0000
0000
1000
0000
0000
,
0100
0000
0000
0000
0000
0100
0000
0000
,
0010
0000
0000
0000
0000
0010
0000
0000
,
0001
0000
0000
0000
,
0000
0000
0000
0000
0000
0000
0000
1000
,
0000
0000
1001
0000
0000
0000
0000
0001
,
0000
0000
1001
0000
0000
0000
0000
1000
,
0000
0000
1001
0000
0000
0000
0000
0010
,
0000
0000
0110
0000
0000
0000
0000
0100
,
0000
0000
0110
0000
0000
0000
0000
0010
,
0000
0000
0110
0000
0000
0000
0000
0100
,
0000
0000
0110
0000
0000
0000
0000
2002
,
0000
0000
0000
0000
,
0000
0000
0000
0000
,
0000
0000
0000
0000
,
0000
0000
0000
0000
0000
3003
0000
0000
,
0000
0001
0000
0000
0000
0001
0000
0000
,
0000
0001
0000
0000
0000
0001
0000
0000
,
0000
1000
0000
0000
0000
1000
0000
0000
,
0000
0000
0000
0000
0000
0001
0000
0001
,
0000
0001
0000
0001
0000
1001
0000
0000
,
0000
1000
0000
1000
0000
1000
0000
1000
,
0000
1001
0000
0000
0000
0010
0000
0010
,
0000
0010
0000
0010
0000
0110
0000
0000
,
0000
0100
0000
0100
0000
0100
0000
0100
,
0000
0110
0000
0000
0110
0000
0000
0000
,
0000
0000
0001
0010
,
0000
0000
1000
0010
,
0000
0000
0002
0000
,
1000
1000
1003
0000
,
0000
0000
1000
0010
,
0000
0000
0001
0010
,
0000
0000
2000
0000
,
0000
0002
0000
0000
,
3003
0000
0000
0000
0000
1001
0000
0000
,
0000
0000
0000
0001
0000
0100
0000
0000
,
0000
0000
0000
0200
0000
0000
0000
0010
,
0000
0010
0000
0310
0000
0000
0000
0000
,
0000
0000
0000
1000
0000
0100
0000
0000
,
0000
0000
0000
0001
0000
0100
0000
0000
,
0000
0000
0000
2000
0000
0000
0000
0000
,
0000
0020
0000
0000
0000
0000
0000
0000
,
3030
0000
1000
0000
,
0000
1000
0000
0000
1000
0000
1000
0000
,
0000
0001
0000
0000
0001
0000
0000
0000
,
0000
0001
0000
0000
0001
0000
0001
0000
,
0000
0100
0000
0000
0100
0000
0000
0000
,
0000
0100
0000
0000
0100
0000
0100
0000
,
0000
0010
0000
0000
0010
0000
0000
0000
,
0000
0010
0000
0000
0010
0000
0000
0000
,
0000
0020
0000
0000
0030
0000
0000
0000
;

//---------------dance-single - Talkion-BSP----------------
#NOTEDATA:;
#CHARTNAME:Talkion-BSP;
#STEPSTYPE:dance-single;
#DESCRIPTION:Talkion-BSP;
#DIFFICULTY:Easy;
#METER:10;
#RADARVALUES:0.469472,0.519917,0.373444,0.224066,0.004149,396,351,45,27,0,0,0,0,0,0.469472,0.519917,0.373444,0.224066,0.004149,396,351,45,27,0,0,0,0,0;
#CREDIT:Talkion;
#NOTES:
0000
0000
0000
0000
,
0000
0000
0000
0000
,
0000
0000
0000
0000
,
0000
0000
0000
0000
0000
1001
0000
1000
,
0100
0000
1100
0000
0000
1000
1000
0002
,
0000
0000
0103
0000
0000
0110
0000
0010
,
1000
0000
1010
0000
0000
0010
0010
0200
,
0000
0000
0301
0000
0000
1001
0000
0001
,
0010
0000
0011
0000
0000
0001
0001
2000
,
0000
0000
3010
0000
0000
0110
0000
0100
,
0001
0000
0101
0000
0000
1000
0001
2000
,
0000
0000
3100
0000
0110
0000
0010
0001
,
0000
1001
0000
0000
1000
1000
0020
0000
,
0000
0130
0000
0000
0110
0000
0010
1000
,
0000
1001
0000
0000
0001
0001
0020
0000
,
0000
0031
0000
0000
0101
0000
0100
0010
,
0000
0110
0000
0000
0010
0010
2000
0000
,
0000
3100
0000
0000
0110
0000
0100
1000
,
0000
1000
0002
0000
0000
0000
0000
0000
,
0000
1003
1000
0000
,
1000
0100
0010
0000
0010
0000
0000
0000
,
0010
0001
0100
0000
0100
0000
0000
0000
,
0100
0010
1000
0000
1000
0000
0000
0000
,
1000
0001
0001
0000
0001
0000
0000
0000
,
0001
0010
0100
0000
0100
0000
0000
0000
,
0100
1000
0010
0000
0010
0000
0000
0000
,
0010
0100
0001
0000
0001
0000
1000
0001
,
1000
0001
0000
0000
0110
0000
0001
0100
,
0001
0100
0001
0000
1000
0000
0100
1000
,
0100
1000
0100
0000
1000
0000
0010
0100
,
0010
0100
0010
0000
0100
0000
0001
0010
,
0100
1000
0001
0000
1000
0000
0001
1000
,
0100
1000
0001
0000
0100
0000
0010
0100
,
0001
0100
0010
0000
1000
0000
0100
0010
,
0001
0010
0200
0000
0000
0000
1300
0000
,
1001
0000
0000
0001
0000
0100
0100
0000
,
0010
0000
0000
1000
0000
0010
0010
0100
,
0000
0001
0000
1000
0000
0100
0100
0000
,
0010
0000
0000
0001
0000
0010
0010
0100
,
0000
1000
0000
0001
0000
1000
1000
0000
,
0010
0000
0000
0100
0000
0010
0010
1000
,
0000
0001
0000
1000
0000
0001
0001
0000
,
0010
0000
0000
0100
0000
0010
0010
0100
,
0000
0000
0000
0000
0000
1001
0000
0001
,
0100
0001
0100
0000
1000
0100
0000
0010
,
0000
0010
0000
1000
0000
0001
0000
1000
,
0100
1000
0100
0000
0001
0100
0000
0010
,
0000
0010
0000
0001
0000
0100
0000
0001
,
0010
0001
0010
0000
1000
0010
0000
0100
,
0000
0100
0000
1000
0000
0100
0000
1000
,
0010
1000
0010
0000
0000
0000
0000
0220
,
0000
0000
0000
0000
,
0000
0000
0000
0000
,
0000
0000
0000
0000
,
0000
0000
0000
0000
0000
0330
0000
0000
,
0000
0011
0000
0000
0000
0011
0000
0000
,
0000
1010
0000
0000
0000
1010
0000
0000
,
0000
0110
0000
0000
0000
0110
0000
0000
,
0000
0000
0000
0000
0000
0001
0000
0011
,
0000
0110
0000
1100
0000
1000
0000
0000
,
0000
1000
0000
1010
0000
0110
0000
0101
,
0000
0001
0000
0000
0000
1000
0000
1100
,
0000
1001
0000
0101
0000
0001
0000
0000
,
0000
0001
0000
0011
0000
1001
0000
1010
,
0000
0000
1000
0000
0000
0000
0000
0000
0002
0000
0000
0000
0000
0000
0000
0103
,
0000
0000
0000
0000
0100
0010
2000
0000
,
0000
3100
1000
0000
0100
0010
0002
0000
,
0000
0103
0001
0000
2000
0000
0010
0000
,
3100
1000
0010
0200
0000
0302
0000
0000
,
1000
0000
0103
0000
0010
0100
0002
0000
,
0000
0013
0001
0000
0010
0100
2000
0000
,
0000
3010
1000
0000
0002
0000
0100
0000
,
0013
0001
0100
0020
0000
0000
0100
0130
,
0010
0000
0000
1001
0000
1000
0100
1000
,
0010
0000
0100
0000
0001
0010
0000
0001
,
0100
0000
0010
0000
1000
0100
0000
1000
,
0010
1000
0010
0000
0001
0010
0000
1000
,
0010
0001
0000
0010
0100
0010
0000
1000
,
0100
0000
1000
0000
0010
1000
0000
0100
,
0010
0000
0001
0000
0100
0010
0000
0100
,
0001
0010
0100
2000
0000
0000
0000
0000
,
0000
0000
3000
0000
1001
0000
0001
0100
,
0000
0110
0000
0000
0010
0010
2000
0000
,
0000
3100
0000
0000
0110
0000
0100
1000
,
0000
1001
0000
0000
0001
0001
0200
0000
,
0000
0310
0000
0000
0110
0000
0100
0001
,
0000
1001
0000
0000
1000
1000
0200
0000
,
0000
0301
0000
0000
0110
0000
1000
0001
,
0000
0100
0100
0010
0000
0010
0010
0100
,
0002
2000
0000
0000
3003
0000
0000
0000
;

//---------------dance-single - Talkion-DSP----------------
#NOTEDATA:;
#CHARTNAME:Talkion-DSP;
#STEPSTYPE:dance-single;
#DESCRIPTION:Talkion-DSP;
#DIFFICULTY:Medium;
#METER:14;
#RADARVALUES:0.672199,0.744813,0.406639,0.522822,0.157676,567,518,49,63,0,0,0,0,0,0.672199,0.744813,0.406639,0.522822,0.157676,567,518,49,63,0,0,0,0,0;
#CREDIT:Talkion;
#NOTES:
0000
0000
0000
0000
,
0000
0000
0000
0000
,
0000
0000
0000
0000
,
0000
0000
0000
0002
0000
1003
0000
0001
,
0010
0000
0001
0000
0100
0000
0000
0000
0100
0000
0100
0000
0000
0000
0010
1000
,
0010
1000
0001
0000
0100
0000
0000
0000
0100
0000
0020
0000
0000
0000
0031
0000
,
0010
0100
0010
0000
0010
0010
1000
0100
,
0010
0001
1000
0000
1000
0001
0000
1000
,
0010
0000
1000
0000
0100
0000
0000
0000
0100
0000
0100
0000
0000
0000
0010
0001
,
0010
0001
1000
0000
0100
0000
0000
0000
0100
0000
0020
0000
0000
0000
1030
0000
,
0010
0100
0010
0000
0010
0001
0010
0100
,
1000
0001
0200
0000
0310
0000
0100
0001
,
0100
0000
0010
0000
0000
0000
0010
0000
0010
0000
0000
0000
1000
0001
1000
0001
,
0010
0100
0000
0100
2000
0000
3010
1000
,
0100
0010
0000
0010
0010
0001
1000
0001
,
0100
0010
0000
0010
0100
0000
0010
1000
,
0010
0000
0100
0000
0000
0000
0100
0000
0100
0000
0000
0000
0001
1000
0001
1000
,
0100
0010
0000
0010
0002
0000
0103
0001
,
0000
0001
0100
2000
0000
0000
3100
0000
,
0000
0000
0001
0010
0001
0000
0001
0100
,
2000
3200
0300
0100
0001
0100
0010
1000
,
0200
0320
0030
0010
1000
0010
0001
0010
,
0200
2300
3000
1000
0001
0100
0001
0001
,
2000
3020
1030
0100
1000
0000
1000
0010
,
0002
0023
0030
0010
1000
0010
0100
0001
,
0020
0230
0300
0100
0001
0100
1000
0100
,
0020
0000
0032
0000
1003
0000
1000
0000
0010
0000
1000
0001
1000
0001
1000
0000
,
0020
0230
0310
0100
0001
0000
0002
0013
,
2000
3010
0001
1000
1001
0000
2000
3010
,
0002
0013
1000
0001
1001
0000
2000
3100
,
0020
0031
0100
0010
0110
0000
0100
0010
,
0100
0010
1000
0001
0100
0000
0001
0000
1001
0000
0000
0000
2000
0000
3100
0000
,
0002
0103
1000
0001
1001
0000
0002
0103
,
2000
3100
0001
1000
1001
0000
0002
0013
,
0200
0000
1300
0000
0001
0000
1000
0001
1000
0001
0000
0000
0200
0000
0000
0000
,
0310
0000
0000
2010
0000
0100
0100
0000
,
0010
0000
0000
0010
0000
0000
3002
0000
0000
0000
0100
0000
0103
0000
0001
0000
,
0000
0000
1000
0000
0000
0000
1002
0000
0000
0000
0013
0001
0000
0010
0001
0000
,
0200
0000
0000
1000
0000
0000
0001
0000
0000
0000
0310
0000
0100
0000
0010
0000
,
0100
0001
0000
0012
0000
0100
0100
0000
,
0010
0000
0000
0010
0000
0000
2003
0000
0000
0000
0100
0000
3100
0000
1000
0000
,
0000
0000
0001
0000
0000
0000
2001
0000
0000
0000
3010
1000
0000
0010
1000
0000
,
0200
0000
0000
0001
0000
0000
1000
0000
0000
0000
0310
0000
0100
0000
0010
0000
,
0100
2000
0000
0000
0000
3001
0000
0010
,
0001
0100
0101
0000
0100
0010
1000
1010
,
0010
0100
0110
0000
0100
0001
0010
0011
,
0001
1000
1001
0000
1000
0010
0001
0010
,
1000
0100
0010
0110
0000
1001
0000
0100
,
1000
0010
1010
0000
0010
0100
0001
0101
,
0100
0010
1010
0000
0010
1000
0100
1100
,
1000
0001
2002
0000
0000
3003
0000
0220
,
0000
0000
0000
0000
,
0000
0000
0000
0000
,
0000
0000
0000
0000
,
0000
0000
0000
0000
0000
0330
0000
1000
,
0000
1000
0000
0100
0000
0100
0000
0010
,
0000
0010
0000
0001
0000
0001
0000
0100
,
0000
0100
0000
0010
0000
0010
0000
2000
,
0000
0000
3002
0000
0000
0000
1003
0001
1000
0001
0100
0000
0000
0000
1010
0000
,
0000
0011
0000
0110
0000
1001
0000
0000
,
0000
1100
0000
0101
0000
1100
0000
0101
,
0000
1001
0000
0000
0000
1010
0000
0011
,
0000
1010
0000
0011
0000
1001
0000
0000
,
0000
0011
0000
0110
0000
1100
0000
1001
,
0000
0000
1001
0000
0000
0000
0000
0000
0201
0000
0000
0000
0000
0000
0000
0310
,
0000
0000
0020
0000
0000
2030
0000
0000
3001
0000
0010
0000
0002
0000
0000
0000
,
0000
0100
0103
1000
0100
0010
2000
0000
,
0000
0100
3100
0010
0001
1000
0010
0001
,
1000
0100
0001
1000
0100
0010
0001
0010
,
0100
1000
0001
0000
1000
0100
2000
0000
,
0000
0010
3010
0001
0010
0100
0002
0000
,
0000
0010
0013
0100
1000
0001
0100
1000
,
0001
0010
1000
0010
0001
1000
0100
0010
,
0100
0001
0000
1001
0000
1001
0000
1000
,
0010
0000
1000
0000
0100
0000
0000
0000
0100
0010
0100
0000
0010
0000
0001
0000
,
0001
0000
0000
0000
0101
0000
0000
0000
0100
0010
0100
0000
0010
0000
1000
0000
,
0100
0010
0001
0000
0001
0010
0100
1000
,
0010
0000
0100
0000
0001
0000
0000
0000
0001
0010
0001
0000
0010
0000
0100
0000
,
1000
0000
0000
0000
1001
0000
0000
0000
1000
0010
1000
0000
0010
0000
0100
0000
,
0001
0000
0010
0000
0100
0000
1000
0000
0001
0000
0100
0000
1000
0000
0100
0010
,
0100
0010
0100
0000
0001
0000
2000
0000
0000
0000
0000
0000
0000
0000
0000
0000
,
0000
0000
3100
0000
0110
0000
0010
0001
,
0100
0000
0010
0000
0000
0000
0010
0000
0010
0000
0000
0000
1000
0001
0100
0001
,
1000
0100
0000
0100
0020
0000
1030
0010
,
0001
0100
0000
0100
0100
0010
1000
0100
,
0010
0001
0000
0001
1000
0000
0010
1000
,
0100
0000
0010
0000
0000
0000
0010
0000
0010
0000
0000
0000
0001
1000
0100
1000
,
0001
0100
0000
0100
0020
0000
0031
0010
,
1000
0000
0100
0000
0010
0000
0001
1000
0001
0000
0100
0000
1000
0100
0010
0000
,
0100
0220
0000
0000
0000
0000
0330
0000
;

//---------------dance-single - Talkion-ESP----------------
#NOTEDATA:;
#CHARTNAME:Talkion-ESP;
#STEPSTYPE:dance-single;
#DESCRIPTION:Talkion-ESP;
#DIFFICULTY:Hard;
#METER:17;
#RADARVALUES:0.857143,0.965560,0.431535,0.738589,0.609959,723,671,52,89,0,0,0,0,0,0.857143,0.965560,0.431535,0.738589,0.609959,723,671,52,89,0,0,0,0,0;
#CREDIT:Talkion;
#NOTES:
// measure 0
0000
0000
0000
0000
,  // measure 1
0000
0000
0000
0000
,  // measure 2
0000
0000
0000
0000
,  // measure 3
0000
0000
0000
2002
3003
1001
0000
1000
,  // measure 4
0100
0000
1000
0000
0010
0000
0000
0000
0010
0000
0010
0000
0100
0000
0001
0100
,  // measure 5
0010
1000
0001
0100
0020
0000
0000
0000
0130
0000
0010
1000
0010
1000
0001
0000
,  // measure 6
0010
0000
0100
0000
1000
0000
0000
0000
1000
0000
1000
0000
0100
1000
0001
0000
,  // measure 7
0100
0001
0100
0000
0020
0000
0000
0000
0130
0000
0101
0000
0000
0000
0001
0000
,  // measure 8
0010
0000
0001
0000
0100
0000
0000
0000
0100
0000
0100
0000
0010
0000
1000
0010
,  // measure 9
0100
0001
1000
0010
0200
0000
0000
0000
0301
0000
1000
0010
0100
0010
1000
0000
,  // measure 10
0100
0000
0010
0000
0001
0000
0000
0000
0001
0100
0001
0000
0200
0000
0320
0000
,  // measure 11
2030
3200
0310
0000
0110
0000
0100
1000
,  // measure 12
0100
0000
0010
0000
0000
0000
0010
0000
0010
0000
0001
0000
1000
0010
0100
0001
,  // measure 13
1000
0010
0200
0000
0000
0000
0310
0000
0100
0001
0100
0001
0010
0000
0001
0000
,  // measure 14
0100
0000
0010
0000
0000
0000
0010
0000
0010
0000
1000
0001
0010
0000
0001
0010
,  // measure 15
0001
0200
0000
0310
0110
0000
0100
0001
,  // measure 16
0100
0000
0010
0000
0000
0000
0010
0000
0010
0000
1000
0000
0001
0010
0100
1000
,  // measure 17
0001
0010
0200
0000
0000
0000
1300
0000
0010
1000
0100
1000
0020
0000
0100
0000
,  // measure 18
0000
0130
0002
2000
3003
0000
1001
0000
,  // measure 19
0000
0000
0000
0000
1000
0000
0100
0000
1000
0000
0100
0000
0010
0100
0010
0100
,  // measure 20
0010
0000
0001
0000
1000
0001
0100
0001
1000
0001
0100
0000
0010
0000
0010
0000
,  // measure 21
1000
0000
0000
0000
0001
0010
0100
0010
0001
0010
0100
0000
1000
0000
1000
0000
,  // measure 22
0001
0000
0100
0000
0010
0100
0010
0000
0100
0010
0100
0000
0001
0010
0100
1000
,  // measure 23
0001
0000
0000
0000
0001
0000
0010
0000
0001
0000
0010
0000
0100
0010
0100
0010
,  // measure 24
0100
0000
1000
0000
0001
1000
0010
1000
0001
1000
0010
0000
0100
0000
0100
0000
,  // measure 25
0001
0000
0000
0000
1000
0100
0010
0100
1000
0100
0010
0000
0001
0000
0001
0000
,  // measure 26
0100
0000
0010
0000
1000
0001
0010
0000
0001
1000
0010
0000
1000
0100
0010
0001
,  // measure 27
1000
0100
1000
0000
0002
0000
0203
0000
0310
0000
0000
0000
0010
0000
1000
0010
,  // measure 28
1000
0000
0010
0000
0001
0000
0010
0000
1000
0000
0100
0000
0010
0000
0001
1000
,  // measure 29
0001
0000
0100
0000
1000
0000
0100
0000
0001
0000
0100
0000
0010
0000
1000
0010
,  // measure 30
1000
0001
0010
0100
2100
0000
3010
1000
,  // measure 31
0001
0010
0100
1000
0002
0000
2003
0000
3010
0000
0000
0000
0010
0000
0100
0001
,  // measure 32
0100
0000
0001
0000
1000
0000
0100
0000
0001
0000
1000
0000
0010
0000
0001
0010
,  // measure 33
0001
0000
1000
0000
0001
0000
0100
0000
1000
0000
0001
0000
0010
0000
1000
0010
,  // measure 34
1000
0000
0001
0000
1000
0100
0010
0001
0010
0100
1000
0000
0002
0000
0000
0000
,  // measure 35
0103
0000
0000
0000
0100
0000
0110
0000
0000
0000
0010
0000
0010
1000
0000
0000
,  // measure 36
1100
0000
0000
1000
0100
0010
0001
0000
0001
0000
1000
0000
0000
1000
0020
0000
,  // measure 37
0000
0000
0130
0000
0000
0000
0110
0000
0000
0000
0100
0001
0000
0001
0010
0000
,  // measure 38
0001
0000
0000
0001
0010
0100
1000
0000
1000
0000
0001
0100
0010
0100
0001
0000
,  // measure 39
1000
0000
1001
0000
0000
0000
1100
0000
0000
0000
1000
0000
1000
0010
0000
0000
,  // measure 40
0010
0000
0000
0010
1000
0100
0010
0000
0010
0000
0001
1000
0010
1000
0002
0000
,  // measure 41
0000
0000
0013
0000
0000
0000
0011
0000
0000
0000
0001
0100
0000
0100
0010
0000
,  // measure 42
0100
0000
0000
0100
0001
0010
0100
0000
1000
0100
0010
0000
0001
0010
0100
0000
,  // measure 43
1000
0020
0000
0000
0000
0130
0000
0201
,  // measure 44
0010
0310
0100
0010
1000
1200
0010
0310
,  // measure 45
0001
1000
0002
0000
0000
0000
0103
0000
0001
0000
0001
0000
0000
0000
0021
0000
,  // measure 46
0100
0130
0010
0100
1000
1020
0100
0130
,  // measure 47
0001
1000
0002
0000
0000
0000
0013
0000
0100
0000
1000
0000
0000
0000
2010
0000
,  // measure 48
0100
3100
1000
0001
0010
0012
0100
0103
,  // measure 49
0001
1000
0200
0000
0000
0000
0310
0000
0100
0000
0100
0000
0000
0000
0100
0000
,  // measure 50
1000
0100
0010
0000
2002
0000
0000
0000
0000
0000
3003
0000
0000
0000
0220
0000
,  // measure 51
0000
0000
0000
0000
,  // measure 52
0000
0000
0000
0000
,  // measure 53
0000
0000
0000
0000
,  // measure 54
0000
0000
0000
0000
0000
0330
0000
0100
,  // measure 55
0000
0101
0000
0001
0000
0011
0000
0010
,  // measure 56
0000
1010
0000
1000
0000
1100
0000
0100
,  // measure 57
0000
0101
0000
0001
0000
1001
0000
2000
,  // measure 58
3100
0010
0002
0000
0000
0000
1003
0001
1000
0001
0200
0000
0300
0000
2020
0000
,  // measure 59
3030
0022
0033
2002
3003
1001
0000
0000
,  // measure 60
0000
2200
3300
0202
0303
0022
0033
2020
,  // measure 61
3030
1001
0000
0000
0000
0022
0033
2020
,  // measure 62
3030
2200
3300
0202
0303
1001
0000
0000
,  // measure 63
0000
2200
3300
0220
0330
0022
0033
2002
,  // measure 64
3003
0000
1001
0000
0000
0000
0000
0000
2100
0000
0000
0000
0000
0000
0000
3010
,  // measure 65
0000
0000
0020
0000
0000
0230
0000
0000
0301
0000
0010
0000
0001
0000
0002
0000
,  // measure 66
0000
0000
0103
0001
0010
0000
0001
0000
1000
0000
0100
0000
1000
0000
2000
0000
,  // measure 67
0000
0000
3010
1000
0100
0000
1000
0000
0001
0000
0100
0010
0100
0000
0001
0000
,  // measure 68
0010
0100
0010
0000
0001
0000
1000
0010
0001
0000
0001
0000
0010
0000
0100
0000
,  // measure 69
0100
0010
1000
0100
1000
0010
1000
2000
,  // measure 70
0000
0000
3100
1000
0010
0000
1000
0000
0001
0000
0010
0000
0001
0000
0002
0000
,  // measure 71
0000
0000
0103
0001
0010
0000
0001
0000
1000
0000
0010
0100
0010
0000
1000
0000
,  // measure 72
0100
0010
0100
0000
1000
0000
0001
0000
0001
0000
0100
0010
1000
0001
0100
0010
,  // measure 73
1000
0001
0200
0000
0300
0000
0110
0000
0000
0000
0110
0000
1000
0100
0010
0001
,  // measure 74
1000
0000
0001
0000
0002
0000
0000
0000
0103
0001
0010
0000
0001
0100
1000
0100
,  // measure 75
0001
0000
1000
0000
2000
0000
0000
0000
3100
1000
0010
0000
0100
0001
0010
0001
,  // measure 76
0100
0001
0010
0000
0002
0000
0000
0000
1003
0001
0100
0000
1000
0100
0010
0100
,  // measure 77
1000
0100
0010
0000
0200
0000
0000
0000
0310
0100
0001
0000
1000
0010
0001
0010
,  // measure 78
1000
0000
0100
0000
0200
0000
0000
0000
0301
0100
0010
0000
0100
1000
0010
1000
,  // measure 79
0100
1000
0010
0000
0001
0010
0100
0000
0001
0010
0100
0000
1000
0000
0100
0010
,  // measure 80
0001
0100
0010
1000
0100
0010
0002
0000
0000
0000
1003
0000
0001
1000
0100
1000
,  // measure 81
0001
0100
0010
0000
0110
0000
0100
0001
,  // measure 82
0010
0000
0001
0000
0000
0000
0001
0000
0001
0000
1000
0000
0001
0010
0100
1000
,  // measure 83
0001
0010
0200
0000
0000
0000
1300
0000
0001
0100
1000
0100
0001
0000
1000
0000
,  // measure 84
0100
0000
1000
0000
0000
0000
1000
0000
1000
0000
0010
0100
0001
0000
0010
0100
,  // measure 85
0001
0200
0000
1300
1001
0000
0001
0100
,  // measure 86
0001
0000
0010
0000
0000
0000
0010
0000
0010
0000
0001
0000
1000
0010
0100
0001
,  // measure 87
1000
0010
0200
0000
0000
0000
0301
0000
1000
0010
0001
0010
1000
0000
0001
0000
,  // measure 88
0010
0000
0001
0000
0100
1000
0100
0000
0001
0000
0010
0100
1000
0100
0010
0000
,  // measure 89
0001
2002
0000
0000
3003
0000
0000
0000
;

//---------------dance-double - Talkion-BDP----------------
#NOTEDATA:;
#CHARTNAME:Talkion-BDP;
#STEPSTYPE:dance-double;
#DESCRIPTION:Talkion-BDP;
#DIFFICULTY:Easy;
#METER:11;
#RADARVALUES:0.471844,0.594191,0.315353,0.215768,0.004149,398,360,38,26,0,0,0,0,0,0.471844,0.594191,0.315353,0.215768,0.004149,398,360,38,26,0,0,0,0,0;
#CREDIT:Talkion;
#NOTES:
00000000
00000000
00000000
00000000
,
00000000
00000000
00000000
00000000
,
00000000
00000000
00000000
00000000
,
00000000
00000000
00000000
00000000
00000000
00001001
00000000
00000001
,
00000010
00000000
00002000
00000000
00000000
00013000
00010000
00001000
,
00000000
00100000
00010000
00000000
00000000
10010000
00000000
10000000
,
00100000
00000000
00020000
00000000
00000000
00031000
00001000
00010000
,
00000000
00000010
00001000
00000000
00000000
00001100
00000000
00000100
,
00000010
00000000
00002000
00000000
00000000
00013000
00010000
00001000
,
00000000
01000000
00010000
00000000
00000000
00110000
00000000
00100000
,
01000000
00000000
20000000
00000000
00000000
30010000
00100000
00002000
,
00000000
00000000
00013000
00000000
00011000
00000000
00001000
00000100
,
00000000
00000002
00000000
00000000
00000103
00000100
00001000
00000000
,
00010000
00001000
00000000
00000000
00011000
00000000
00010000
01000000
,
00000000
20000000
00000000
00000000
31000000
01000000
00010000
00000000
,
00001000
00100000
00000000
00000000
00110000
00000000
00100000
00001000
,
00000000
00020000
00000000
00000000
00031000
00001000
00000010
00000000
,
00000001
00000010
00000000
00000000
00000011
00000000
00000010
00000100
,
00000000
00000100
00020000
00000000
00000000
00000000
00000000
00000000
,
00000000
00031000
00010000
00100000
,
10000000
00100000
00010000
00001000
,
00000010
00000001
00001000
00010000
,
00001000
00000100
00000010
00000001
,
00001000
00000001
00000010
00001000
,
00100000
00001000
00010000
00100000
,
10000000
00010000
10000000
01000000
,
00100000
00000000
00001000
00000000
00001000
00000000
00010000
00001000
,
00010000
00000000
00000000
00000000
00011000
00000000
00001000
00000100
,
00001000
00000100
00000001
00000000
00001000
00000000
00000001
00001000
,
00000001
00001000
00000100
00000000
00010000
00000000
00001000
00100000
,
00001000
00100000
00010000
00000000
10000000
00000000
00010000
01000000
,
00100000
10000000
00010000
00000000
10000000
00000000
00010000
00100000
,
00010000
00100000
10000000
00000000
00100000
00000000
00010000
00100000
,
00010000
00100000
00001000
00000000
00010000
00000000
00001000
00010000
,
00001000
00010000
00000200
00000000
00000000
00000000
00001300
00000000
,
00001001
00000000
00000000
00000001
00000000
00000100
00000100
00000000
,
00010000
00000000
00000000
00001000
00000000
00100000
00100000
01000000
,
00000000
00010000
00000000
10000000
00000000
01000000
01000000
00000000
,
00100000
00000000
00000000
00001000
00000000
00100000
00010000
00100000
,
00000000
00010000
00000000
10000000
00000000
00100000
00100000
00000000
,
00001000
00000000
00000000
00010000
00000000
00000100
00000100
00000010
,
00000000
00001000
00000000
00000001
00000000
00000010
00000010
00000000
,
00001000
00000000
00000000
00010000
00000000
00001000
00010000
00001000
,
00000000
00000000
00000000
00000000
00000000
00011000
00000000
00100000
,
00010000
00100000
00010000
00000000
10000000
00100000
00000000
00010000
,
00000000
00001000
00000000
00000100
00000000
00000001
00000000
00000010
,
00000100
00000010
00000100
00000000
00001000
00000010
00000000
00001000
,
00000000
00010000
00000000
00100000
00000000
01000000
00000000
10000000
,
00010000
10000000
00010000
00000000
01000000
00100000
00000000
00010000
,
00000000
00001000
00000000
00000010
00000000
00000100
00000000
00001000
,
00000001
00001000
00000001
00000000
00000000
00000000
00000000
00002002
,
00000000
00000000
00000000
00000000
,
00000000
00000000
00000000
00000000
,
00000000
00000000
00000000
00000000
,
00000000
00000000
00000000
00000000
00000000
00003003
00000000
00000000
,
00000000
00000110
00000000
00000000
00000000
00011000
00000000
00000000
,
00000000
01100000
00000000
00000000
00000000
00011000
00000000
00000000
,
00000000
00000110
00000000
00000000
00000000
00011000
00000000
00000000
,
00000000
00000000
00000000
00000000
00000000
00100000
00000000
10010000
,
00000000
01100000
00000000
10010000
00000000
00011000
00000000
00000000
,
00000000
00000010
00000000
00000110
00000000
00001001
00000000
00000110
,
00000000
00011000
00000000
00000000
00000000
01001000
00000000
01100000
,
00000000
01001000
00000000
00011000
00000000
00010100
00000000
00000000
,
00000000
00010010
00000000
00000110
00000000
00010010
00000000
00011000
,
00000000
00000000
00101000
00000000
00000000
00000000
00000000
00000000
00200000
00000000
00000000
00000000
00000000
00000000
00000000
01300000
,
00000000
00000000
00000000
00000000
10000000
00100000
10000000
00000000
,
00100000
00000000
00010000
00000000
00001000
00010000
00001000
00000000
,
00000010
00000001
00002000
00000010
,
00013000
00001000
00000100
00000020
00000000
00002030
00000000
00000000
,
00010000
00000000
00003010
00000000
00000001
00000100
00000001
00000000
,
00000100
00000000
00001000
00000000
00010000
00001000
00010000
00000000
,
01000000
10000000
00020000
01000000
,
00031000
00010000
00100000
02000000
00000000
03020000
00000000
00000000
,
00001000
00031000
00000000
00011000
00000000
00010000
00000100
00001000
,
00000100
00000000
00001000
00000000
00000001
00000100
00000000
00001000
,
00000100
00000000
00000010
00000000
00010000
00001000
00000000
00100000
,
00010000
00100000
00010000
00000000
01000000
00100000
00000000
00010000
,
00100000
10000000
00000000
00010000
10000000
00010000
00000000
10000000
,
01000000
10000000
01000000
00000000
00010000
00001000
00000000
00000010
,
00000100
00000000
00001000
00000000
00000001
00000100
00000000
00001000
,
00010000
00001000
00100000
02000000
00000000
00000000
00000000
00000000
,
00000000
00000000
03000000
00000000
10010000
00000000
10000000
00100000
,
00000000
02000000
00000000
00000000
03001000
00001000
00010000
00000000
,
00001000
00000010
00000000
00000000
00001000
00000000
00010000
00001000
,
00000000
00000200
00000000
00000000
00000301
00000001
00001000
00000000
,
00000100
00001000
00000000
00000000
00001000
00000000
00000001
00000100
,
00000000
00000020
00000000
00000000
00010030
00010000
00001000
00000000
,
00010000
01000000
00000000
00000000
20000000
00000000
30010000
10000000
,
00000000
00100000
00100000
00010000
00000000
00010000
00010000
00001000
,
00020000
00002000
00000000
00000000
00033000
00000000
00000000
00000000
;

//---------------dance-double - Talkion-DDP----------------
#NOTEDATA:;
#CHARTNAME:Talkion-DDP;
#STEPSTYPE:dance-double;
#DESCRIPTION:Talkion-DDP;
#DIFFICULTY:Medium;
#METER:15;
#RADARVALUES:0.634262,0.668465,0.315353,0.406639,0.082988,535,497,38,49,0,0,0,0,0,0.634262,0.668465,0.315353,0.406639,0.082988,535,497,38,49,0,0,0,0,0;
#CREDIT:Talkion;
#NOTES:
00000000
00000000
00000000
00000000
,
00000000
00000000
00000000
00000000
,
00000000
00000000
00000000
00000000
,
00000000
00000000
00000000
20000000
00000000
30010000
00000000
10000000
,
00100000
10000000
01000000
00000000
00010000
00010000
00000000
00001000
,
00010000
00100000
00001000
00000000
00001000
00000020
00000000
00001030
,
00000010
00000100
00000001
00000000
00000010
00000010
00000001
00001000
,
00000100
00000010
00000001
00000000
00000001
00001000
00000000
00000001
,
00000100
00000001
00000010
00000000
00001000
00001000
00000000
00010000
,
00001000
00000100
00010000
00000000
00010000
02000000
00000000
03010000
,
01000000
00100000
10000000
00000000
01000000
01000000
10000000
00100000
,
00010000
00001000
00200000
00000000
00310000
00000000
01000000
00010000
,
00100000
00010000
00000000
10000000
10000000
00000000
01000000
00010000
,
00001000
01000000
00000000
01000000
00020000
00000000
00031000
00010000
,
00001000
00000100
00000000
00000010
00000010
00000100
00001000
00000001
,
00000010
00000100
00000000
00000100
00001000
00000000
00000010
00001000
,
00000100
00001000
00000000
00000001
00000001
00000000
00000010
00001000
,
00010000
00000010
00000000
00000010
00002000
00000000
00013000
00100000
,
00000000
00100000
01000000
20000000
00000000
00000000
30010000
00000000
,
00000000
00000000
10000000
00100000
10000000
00000000
00100000
00010000
,
00002000
00023000
00130000
01000000
00001000
00000000
00010000
00001000
,
00000020
00000230
00001300
00000001
00000100
00000000
00001000
00010000
,
02000000
03020000
00031000
00010000
00100000
00001000
00010000
00001000
,
00000100
00000010
00000001
00000100
00000001
00000000
00000100
00001000
,
00020000
00032000
00003100
00000010
00010000
00000000
00001000
00010000
,
02000000
03200000
00310000
10000000
00100000
00000000
00010000
00001000
,
00000020
00000000
00002030
00000000
00013000
00000000
00001000
00000000
00000100
00000000
00000010
00000100
00000010
00000000
00000100
00000000
,
00000002
00002003
00003200
00000320
00000031
00000000
00000001
00001000
,
00010000
00001000
00000100
00000010
00001000
00000000
00000010
00001000
,
00100000
00010000
01000000
00100000
10000000
00000000
10000000
00010000
,
00001000
00010000
00100000
01000000
00010000
00000000
01000000
00010000
,
00001000
00000100
00000001
00001000
00000100
00000000
00000100
00001000
,
00010000
00000100
00001000
00010000
00000010
00000000
00000100
00001000
,
00010000
01000000
00100000
00010000
10000000
00000000
00100000
00010000
,
00100000
00000000
10000000
00000000
01000000
00000000
00100000
01000000
00100000
00000000
00000000
00000000
00002000
00000000
00000000
00000000
,
00013000
00000000
00000000
00010200
00000000
00000010
00000010
00000000
,
00000001
00000000
00000000
00001000
00000000
00000000
00020300
00000000
00000000
00000000
00031000
00000000
00010000
00000000
00010000
00000000
,
00000000
00000000
00012000
00000000
00000000
00000000
00003100
00000000
00000010
00000000
00000100
00000001
00000000
00000100
00000001
00000000
,
00000020
00000000
00000000
00001000
00000000
00000000
00001000
00000000
00000000
00000000
00010030
00000000
00000010
00000000
00000100
00000000
,
00010000
00001000
00000000
00201000
00000000
01000000
01000000
00000000
,
10000000
00000000
00000000
00010000
00000000
00000000
00302000
00000000
00000000
00000000
00013000
00000000
00001000
00000000
00001000
00000000
,
00000000
00000000
00021000
00000000
00000000
00000000
00130000
00000000
01000000
00000000
00100000
10000000
00000000
00100000
10000000
00000000
,
02000000
00000000
00000000
00010000
00000000
00000000
00010000
00000000
00000000
00000000
03001000
00000000
01000000
00000000
00100000
00000000
,
00001000
00020000
00000000
00000000
00000000
00031000
00000000
00000100
,
00000001
00000010
00000011
00000000
00000010
00000210
00000000
00001300
,
00010000
00100000
01000000
00000000
10000000
11000000
00000000
01000000
,
00010000
00001000
00000100
00000000
00000100
00000110
00000000
00000001
,
00001000
00010000
00010000
00000000
00010000
10010000
00000000
00100000
,
10000000
01000000
11000000
00000000
01000000
01200000
00000000
00310000
,
00001000
00000100
00000010
00000000
00000001
00000011
00000000
00000010
,
00000100
00000010
00000200
00000000
00000000
00000300
00000000
00002002
,
00000000
00000000
00000000
00000000
,
00000000
00000000
00000000
00000000
,
00000000
00000000
00000000
00000000
,
00000000
00000000
00000000
00000000
00000000
00003003
00000000
00000001
,
00000000
00001000
00000000
00010000
00000000
10000000
00000000
00010000
,
00000000
00001000
00000000
00000001
00000000
00000010
00000000
00001000
,
00000000
00100000
00000000
00001000
00000000
00000010
00000000
00000002
,
00000000
00000000
00000203
00000000
00000000
00000000
00000310
00000100
00000010
00000100
00000010
00000000
00000000
00000000
00011000
00000000
,
00000000
00110000
00000000
10100000
00000000
10010000
00000000
00000000
,
00000000
11000000
00000000
01010000
00000000
00011000
00000000
00001100
,
00000000
00000101
00000000
00000000
00000000
00000011
00000000
00001010
,
00000000
00011000
00000000
00110000
00000000
10100000
00000000
00000000
,
00000000
10010000
00000000
00011000
00000000
00000110
00000000
00011000
,
00000000
00000000
10010000
00000000
00000000
00000000
00000000
00000000
12000000
00000000
00000000
00000000
00000000
00000000
00000000
03010000
,
00000000
00000000
00020000
00000000
00000000
00032000
00000000
00000000
00003100
00000000
00000001
00000000
00000010
00000000
00000000
00000000
,
00000001
00000010
00001000
00000000
00000010
00001000
00010000
00000000
,
00001000
00010000
00100000
00000000
10000000
00100000
00010000
00001000
,
01000000
00010000
00001000
00000010
00000100
00001000
00010000
01000000
,
10000000
00010000
10000000
00000000
00100000
10000000
01000000
00000000
,
10000000
01000000
00010000
00000000
01000000
00010000
00001000
00000000
,
00010000
00001000
00000100
00000000
00000001
00000100
00001000
00010000
,
00000010
00001000
00010000
00100000
01000000
10000000
00020000
00000000
,
01000000
01030000
00000000
01100000
00000000
10010000
00000000
10000000
,
01000000
00000000
10000000
00000000
00100000
00000000
00000000
00000000
00010000
00001000
00010000
00000000
00001000
00000000
00000010
00000000
,
00000001
00000000
00000000
00000000
00001001
00000000
00000000
00000000
00000001
00000100
00000001
00000000
00000100
00000000
00001000
00000000
,
00000001
00000010
00001000
00010000
00000100
00001000
00010000
01000000
,
00100000
00000000
00010000
00000000
10000000
00000000
00000000
00000000
10000000
00010000
10000000
00000000
01000000
00000000
00010000
00000000
,
00001000
00000000
00000000
00000000
00011000
00000000
00000000
00000000
00001000
00000100
00001000
00000000
00000100
00000000
00000001
00000000
,
00000010
00001000
00100000
00001000
00000010
00001000
00010000
00100000
,
10000000
01000000
00100000
00020000
00000000
00000000
00000000
00000000
,
00000000
00000000
01030000
00000000
01100000
00000000
00100000
10000000
,
01000000
10000000
00000000
00100000
00100000
00000000
00010000
00000010
,
00000100
00001000
00000000
00001000
00020000
00000000
00031000
00000010
,
00000001
00001000
00000000
00010000
00010000
00001000
00000100
00000010
,
00000001
00001000
00000000
00001000
00000001
00000000
00000100
00000001
,
00000010
00000001
00000000
00000100
00000100
00000000
00001000
01000000
,
00100000
00010000
00000000
00010000
00002000
00000000
00013000
01000000
,
10000000
00000000
00100000
00000000
00010000
00000000
00000010
00000000
00000100
00000000
00000000
00000100
00000010
00000100
00000010
00000000
,
00002000
00000002
00000000
00000000
00003003
00000000
00000000
00000000
;

//---------------dance-double - Talkion-EDP----------------
#NOTEDATA:;
#CHARTNAME:Talkion-EDP;
#STEPSTYPE:dance-double;
#DESCRIPTION:Talkion-EDP;
#DIFFICULTY:Hard;
#METER:17;
#RADARVALUES:0.845287,0.928423,0.514523,0.406639,0.514523,713,651,62,49,0,0,0,0,0,0.845287,0.928423,0.514523,0.406639,0.514523,713,651,62,49,0,0,0,0,0;
#CREDIT:Talkion;
#NOTES:
00000000
00000000
00000000
00000000
,
00000000
00000000
00000000
00000000
,
00000000
00000000
00000000
00000000
,
00000000
00000000
00000000
00022000
00033000
00011000
00000000
00001000
,
00000010
00000000
00000100
00000000
00000010
00000000
00000000
00000000
00000010
00000000
00000010
00000000
00000001
00000000
00001000
00000010
,
00000100
00000001
00001000
00000010
00000200
00000000
00000000
00000000
00001300
00000000
00010000
00001000
00010000
00001000
00010000
00000000
,
01000000
00000000
00100000
00000000
00010000
00000000
00000000
00000000
00010000
00000000
00010000
00000000
00100000
00001000
00010000
00000000
,
00001000
00100000
00010000
00000000
00200000
00000000
00000000
00000000
01300000
00000000
01100000
00000000
00000000
00000000
01000000
00000000
,
10000000
00000000
00100000
00000000
10000000
00000000
00000000
00000000
10000000
00000000
10000000
00000000
00010000
00000000
00100000
01000000
,
10000000
00010000
00100000
01000000
20000000
00000000
00000000
00000000
30010000
00000000
01000000
00100000
01000000
00100000
01000000
00000000
,
00100000
00010000
00001000
00000000
00001000
00001000
00000020
00000032
,
00000203
00002300
00013000
00000000
00011000
00000000
00010000
01000000
,
00100000
00000000
01000000
00000000
00000000
00000000
01000000
00000000
01000000
00000000
10000000
00000000
00010000
01000000
00100000
10000000
,
00010000
01000000
00200000
00000000
00000000
00000000
00310000
00000000
00001000
00010000
00001000
00010000
00001000
00000000
00000010
00000000
,
00000100
00000000
00001000
00000000
00000000
00000000
00001000
00000000
00001000
00000000
00000100
00010000
00001000
00000000
00010000
00000100
,
00001000
00000020
00000000
00000130
00000110
00000000
00000100
00001000
,
00010000
00000000
00001000
00000000
00000000
00000000
00001000
00000000
00001000
00000000
00000010
00000000
00000001
00000010
00000100
00001000
,
00000001
00000010
00000200
00000000
00000000
00000000
00010300
00000000
00001000
00010000
00001000
00010000
00002000
00000000
00100000
00000000
,
00000000
00103000
00020000
20000000
30030000
00000000
10010000
00000000
,
00000000
00000000
00000000
00000000
10000000
00000000
00100000
00000000
10000000
00000000
00100000
00000000
00010000
00001000
00010000
00001000
,
00010000
00000000
00001000
00000000
00000010
00000100
00001000
00000000
00000010
00000100
00001000
00000000
00000100
00000000
00000100
00000000
,
00000010
00000000
00000000
00000000
00000010
00001000
00000100
00000000
00000010
00001000
00010000
00000000
00001000
00000000
00001000
00000000
,
00010000
00000000
00100000
00000000
01000000
00010000
00100000
00000000
01000000
00010000
00001000
00000000
00000010
00000000
00000010
00000000
,
00000001
00000000
00000000
00000000
00000001
00000000
00000100
00000000
00000001
00000000
00000100
00000000
00001000
00010000
00001000
00010000
,
00001000
00000000
00010000
00000000
01000000
00100000
00010000
00000000
01000000
00100000
00010000
00000000
00100000
00000000
00100000
00000000
,
01000000
00000000
00000000
00000000
01000000
00010000
00100000
00000000
10000000
00100000
00010000
00000000
00001000
00000000
00001000
00000000
,
00000010
00000000
00000100
00000000
00000010
00001000
00000100
00000000
00000001
00000100
00001000
00000000
00000010
00010000
00000010
00010000
,
00001000
00010000
00200000
02300000
03100000
00000000
10000000
00100000
,
00001000
00100000
00010000
00001000
00100000
01000000
10000000
01000000
,
00010000
00001000
00000100
00000001
00001000
00000001
00000010
00010000
,
00000010
00001000
00010000
00000010
00000100
00000001
00000100
00001000
,
00010000
00001000
00100000
00010000
02000000
00000000
00000000
00000000
03100000
00000000
00000000
00000000
01000000
00000000
10000000
00000000
,
00010000
00100000
10000000
00010000
00001000
00010000
00100000
00001000
,
00000010
00000100
00001000
00000001
00000100
00010000
00000100
00001000
,
00010000
00000000
00000100
00000000
00001000
00000001
00001000
00000001
00000100
00000010
00001000
00000000
00000200
00000000
00000000
00000000
,
00010300
00000000
00000000
00000000
00010000
00000000
00011000
00000000
00000000
00000000
00010000
00000000
00010000
00100000
00000000
00000000
,
01100000
00000000
00000000
00100000
10000000
01000000
00100000
00000000
00100000
00000000
00001000
00000000
00000000
00001000
00020000
00000000
,
00000000
00000000
00031000
00000000
00000000
00000000
00001010
00000000
00000000
00000000
00000010
00000001
00000000
00000001
00000100
00000000
,
00000010
00000000
00000000
00000010
00001000
00000100
00000010
00000000
00001000
00000000
00010000
00001000
00010000
00001000
00010000
00000000
,
00000100
00000000
00010100
00000000
00000000
00000000
00011000
00000000
00000000
00000000
00010000
00000000
00010000
01000000
00000000
00000000
,
11000000
00000000
00000000
01000000
10000000
00100000
01000000
00000000
01000000
00000000
00001000
00100000
00010000
00100000
00002000
00000000
,
00000000
00000000
00013000
00000000
00000000
00000000
00010100
00000000
00000000
00000000
00000100
00000010
00000000
00000010
00001000
00000000
,
00010000
00000000
00000000
00010000
00100000
01000000
00010000
00000000
00100000
01000000
10000000
00000000
01000000
00100000
00010000
00000000
,
10000000
00200000
00000000
00000000
00000000
01300000
00000000
01010000
,
01000000
00001000
00011000
00010000
00000100
00001100
00001000
00000001
,
00000001
00000100
00000020
00000000
00000000
00000000
00001030
00000000
00000010
00000000
00000010
00000000
00000000
00000000
00001010
00000000
,
00000010
00010000
00011000
00001000
00100000
00110000
00010000
10000000
,
10000000
00100000
02000000
00000000
00000000
00000000
03010000
00000000
01000000
00000000
01000000
00000000
00000000
00000000
00011000
00000000
,
00001000
00000010
00000011
00000001
00000100
00001100
00001000
00010000
,
00010000
00001000
00200000
00000000
00000000
00000000
00310000
00000000
00100000
00000000
00100000
00000000
00000000
00000000
00100000
00000000
,
00001000
00010000
00001000
00000000
00022000
00000000
00000000
00000000
00000000
00000000
00000000
00000000
00033000
00000000
00000220
00000000
,
00000000
00000000
00000000
00000000
,
00000000
00000000
00000000
00000000
,
00000000
00000000
00000000
00000000
,
00000000
00000000
00000000
00000000
00000000
00000330
00000000
00000101
,
00000000
00011000
00000000
00000101
00000000
00011000
00000000
10100000
,
00000000
00011000
00000000
10100000
00000000
00011000
00000000
00000110
,
00000000
00011000
00000000
01100000
00000000
00011000
00000000
00000210
,
00000302
00000000
00002003
00000000
00000000
00000000
00003100
00010000
00000100
00010000
00001000
00000000
00000000
00000000
00110000
00000000
,
00000000
11000000
00000000
00110000
00000000
00011000
00000000
00000000
,
00000000
00011000
00000000
00001010
00000000
00000101
00000000
00001010
,
00000000
00011000
00000000
00000000
00000000
01100000
00000000
11000000
,
00000000
00110000
00000000
00011000
00000000
00001010
00000000
00000000
,
00000000
00000110
00000000
00000101
00000000
00001010
00000000
00011000
,
00000000
00000000
00110000
00000000
00000000
00000000
00000000
00000000
10020000
00000000
00000000
00000000
00000000
00000000
00000000
00130000
,
00000000
00000000
00002000
00000000
00000000
00003020
00000000
00000000
00000031
00000000
00000100
00000000
00010000
00000000
00000100
00000000
,
00001000
00000000
00010000
00001000
00010000
00000000
00001000
00000000
00010000
00000000
01000000
00000000
00001000
00000000
01000000
00000000
,
10000000
00000000
00010000
10000000
00010000
00000000
10000000
00000000
00100000
00000000
00010000
00001000
00010000
00000000
00001000
00000000
,
00000010
00000100
00000010
00000000
00001000
00000000
00010000
00001000
00010000
00000000
00100000
00000000
10000000
00000000
01000000
00000000
,
00100000
00010000
10000000
00000000
10000000
00100000
00001000
00100000
,
00010000
00000000
00001000
00010000
00001000
00000000
00010000
00000000
00001000
00000000
00000010
00000000
00010000
00000000
00000010
00000000
,
00000001
00000000
00001000
00000001
00001000
00000000
00000001
00000000
00000100
00000000
00001000
00010000
00001000
00000000
00010000
00000000
,
01000000
00100000
01000000
00000000
00100000
00000000
00010000
00000000
01000000
00000000
00100000
10000000
00010000
01000000
00100000
10000000
,
00010000
01000000
00200000
00000000
00300000
00000000
01100000
00000000
00000000
00000000
10000000
00000000
01000000
10000000
01000000
00000000
,
00010000
00000000
00001000
00000000
00002000
00000000
00000000
00000000
00003001
00000100
00001000
00000000
00000001
00000100
00001000
00000000
,
00010000
00000000
00001000
00000000
00002000
00000000
00000000
00000000
00013000
01000000
10000000
00000000
00010000
01000000
00100000
10000000
,
00010000
00000000
10000000
00000000
20000000
00000000
00000000
00000000
31000000
00010000
00001000
00000000
00100000
00001000
00010000
00001000
,
00100000
00000000
00001000
00000000
00002000
00000000
00000000
00000000
00003100
00000000
00000001
00000000
00000010
00000001
00000010
00000000
,
00001000
00000000
00010000
00000000
00020000
00000000
00000000
00000000
10030000
00100000
00010000
00000000
10000000
00100000
00010000
00000000
,
00001000
00010000
00000100
00010000
00001000
00000000
00010000
00000000
01000000
00000000
00010000
00001000
00010000
00000000
00001000
00000100
,
00001000
00000100
00000001
00000100
00000001
00000100
00000020
00000000
00000000
00000000
00001030
00000000
00000100
00010000
00001000
00010000
,
00000100
00010000
00022000
00033000
00011000
00000000
00010000
01000000
,
00100000
00000000
01000000
00000000
00000000
00000000
01000000
00000000
01000000
00000000
10000000
00000000
01000000
00100000
00010000
10000000
,
01000000
00100000
00002000
00000000
00000000
00000000
00013000
00000000
00100000
00010000
00100000
00010000
00001000
00000000
00000010
00000000
,
00000100
00000000
00000010
00000000
00000000
00000000
00000010
00000000
00000010
00000000
00001000
00000010
00000001
00000000
00001000
00000010
,
00000001
00000020
00000000
00000130
00000110
00000000
00000010
00001000
,
00000010
00000000
00000100
00000000
00000000
00000000
00000100
00000000
00000100
00000000
00000001
00000000
00001000
00000100
00010000
00000010
,
00001000
00000100
00020000
00000000
00000000
00000000
00031000
00000000
00000010
00001000
00000010
00001000
00010000
00000000
00000100
00000000
,
00001000
00000000
00000100
00000000
00010000
00000000
01000000
00000000
00100000
00000000
01000000
00100000
01000000
00100000
00010000
00000000
,
10000000
20020000
00000000
00000000
30030000
00000000
00000000
00000000
;
