#VERSION:0.83;
#TITLE:Vanquish The Ghost(XX-Special);
#ARTIST:BEMANI Sound Team "TAG";
#ARTISTTRANSLIT:TAG;
#BANNER:Vanquish The Ghost(XX-Special).png;
#BACKGROUND:Vanquish The Ghost(XX-Special)-bg.png;
#JACKET:Vanquish The Ghost(XX-Special)-jacket.png;
#MUSIC:Vanquish The Ghost(XX-Special).ogg;
#SAMPLESTART:63.483;
#SAMPLELENGTH:15;
#DISPLAYBPM:78:155;
#BPMS:0=155,96=310,99=155,100=77.5,116=155,132=77.5,140=155,172=77.5,188=155;
#STOPS:96=0.194,97=0.194,98=0.194;

//---------------dance-single - Marten-CSP----------------
#NOTEDATA:;
#CHARTNAME:Marten-CSP;
#STEPSTYPE:dance-single;
#DESCRIPTION:Marten-CSP;
#DIFFICULTY:Challenge;
#METER:17;
#CREDIT:Marten;
#NOTES:
0000
0000
0000
0000
,
0000
0000
0000
0000
,
0000
0000
0000
0000
,
0000
0000
0000
0000
,
0000
0000
0000
0000
,
0011
0010
0110
0100
1100
1000
1010
0010
,
0110
0100
0101
0001
1001
0010
1001
0100
,
0001
0000
0000
0010
0000
0000
0100
0000
0000
0010
0000
0000
1000
0000
0000
0010
0000
0000
0001
0000
0000
1000
0000
0000
0010
0000
0000
0100
0000
0000
0010
0000
0000
1000
0000
0000
0001
0000
0010
0000
0100
0000
1000
0000
0100
0000
0010
0000
,
0000
0000
0001
1000
0001
0000
0100
0000
0010
0000
0100
0000
1001
0000
0000
0000
,
0001
0000
0001
0100
0000
0100
1000
0000
1000
0001
0000
0001
0020
0000
0000
0000
,
0000
0000
0000
0000
1030
0010
0100
0001
,
1000
0000
1000
0100
0000
0100
0001
0000
0001
1000
0000
1000
0020
0000
0000
0000
,
0000
0000
0000
0000
0031
0100
0010
1000
,
0001
0000
0001
0010
0000
0010
1000
0000
1000
0001
0000
0001
0200
0000
0000
0000
,
0000
0000
0000
0000
1300
0100
0010
0001
,
1000
0000
1000
0010
0000
0010
0001
0000
0001
1000
0000
1000
0200
0000
0310
1000
,
0100
0010
0000
2000
0000
3020
0000
0032
0000
0000
1003
0000
0010
0000
0100
0000
,
0101
0000
0000
0001
0100
0000
0010
0000
1000
0100
0000
0001
0200
0000
0000
0000
,
0010
0000
0000
0000
1300
0000
0000
0000
0001
0000
0001
0000
1000
0000
0001
0010
,
0100
0000
0000
1000
0100
0000
0010
0000
0001
0100
0000
1000
0200
0000
0000
0000
,
0010
0000
0000
0000
0301
0000
0000
0000
1000
0000
1000
0000
0001
0000
1000
0010
,
0100
0000
1000
0100
1000
0000
0001
0000
0010
1000
0010
0000
0100
0000
0001
0100
,
0001
0000
1000
0000
0010
0001
0010
0000
1000
0000
0100
0000
0010
0000
0001
1000
,
0010
0000
0000
0100
0000
0000
0010
0000
0000
1000
0000
0000
0100
0000
0000
0001
0000
0000
0100
0000
0000
0010
0000
0000
0001
0000
0000
1000
0000
0000
0010
0000
0000
0100
0000
0000
0010
0000
1000
0000
0010
0000
0100
0000
0001
0000
0100
0000
,
0010
1000
0001
1002
,
1003
0000
0001
0100
1000
0100
0001
0100
1000
0100
0001
0100
1000
0000
1100
0000
0101
0000
0001
0010
0100
1000
0001
0000
0001
0100
0010
1000
0001
0000
0000
0000
,
0001
0000
1000
0100
0001
0100
1000
0100
0001
0100
1000
0100
0001
0000
0101
0000
0200
0000
2300
0000
3020
0000
0230
0000
2300
0000
0000
0000
3200
0000
0000
0000
,
0301
0000
1000
0010
0001
0010
1000
0010
0001
0010
1000
0010
0001
0000
0011
0000
1010
0000
1000
0010
0100
0001
1000
0000
1000
0100
0010
0001
1000
0000
0000
0000
,
1000
0000
0001
0010
1000
0010
0001
0010
1000
0010
0001
0010
1000
0000
1010
0000
0010
0001
0000
0001
0100
0000
0100
0010
0000
0010
1000
0000
0001
0000
0000
0000
,
1001
0000
0001
0100
0100
0100
0001
0100
0100
0100
0001
0100
0100
0000
1100
0000
,
0000
0000
0010
0000
0011
0000
0001
0100
0000
0101
0000
0100
0010
0000
1010
0000
,
1001
0000
1000
0100
0100
0100
1000
0100
0100
0100
1000
0100
0100
0000
0101
0000
,
0002
0023
2030
3002
0203
0000
2300
0000
,
3001
0000
1000
0010
0010
0010
1000
0010
0010
0010
1000
0010
0010
0000
0011
0000
0101
0000
0001
0100
0010
1000
0100
0000
1000
0100
0010
0001
0100
0000
0000
0000
,
0100
0000
0001
0010
0010
0010
0001
0010
0010
0010
0001
0010
0010
0000
1010
0000
1000
0010
0000
0010
0100
0000
0100
0001
0000
0001
1000
0000
0001
0000
0000
0000
,
0200
0000
0301
0010
1000
0010
0200
0000
1300
0010
0001
0010
0200
0000
0001
0000
,
0310
1000
0001
0000
0010
0001
1000
0000
0100
0010
0001
0000
0100
0000
0100
0000
,
0020
0000
0031
0010
1000
0100
0020
0000
1030
0010
0001
0100
0020
0000
0100
0000
,
1030
0100
0010
0000
0001
0100
0010
0000
1000
0100
0001
0100
1000
0000
0001
0000
,
0200
0000
0310
1000
0100
0010
2000
0000
3010
0001
0100
0010
0002
0000
1000
0000
,
0013
1000
0100
0000
0100
1000
0010
0000
0100
0001
0010
0000
0010
0001
0100
0000
,
0020
0000
0130
0001
0010
0100
0002
0000
0103
1000
0010
0100
2000
0000
0000
0000
,
3100
0001
0010
0110
,
1100
0000
0000
0000
0000
0000
0000
0000
0000
0000
0000
0000
0000
0000
0000
0000
0000
0000
0100
0000
0000
0100
0000
0000
0001
0000
0000
0000
0000
0000
0000
0000
0000
0000
0000
0000
0000
0000
0000
0000
0000
0000
0000
0000
0000
0000
0000
0000
0000
0000
0000
0000
0000
0000
0010
0000
0100
0000
0010
0000
0100
0000
0000
1000
0000
0000
0001
0000
0000
1000
0000
0000
0010
0000
0000
0000
0000
0000
0000
0000
0000
0000
0000
0000
1000
0000
0000
0000
0000
0000
1010
0000
0000
0000
0000
0000
,
0101
0000
0000
0000
0000
0000
0000
0000
0000
0000
0000
0000
0000
0000
0000
0000
0000
0000
0100
0000
0000
0100
0000
0000
1000
0000
0000
0000
0000
0000
0000
0000
0000
0000
0000
0000
0000
0000
0000
0000
0000
0000
0000
0000
0000
0000
0000
0000
0000
0000
0000
0000
0000
0000
0010
0000
0100
0000
0010
0000
0100
0000
0000
0001
0000
0000
1000
0000
0000
0001
0000
0000
0010
0000
0000
0000
0000
0000
0000
0000
0000
0000
0000
0000
0001
0000
0000
0100
0000
0000
1000
0000
0000
0100
0000
0000
,
0001
0000
0000
0000
0000
0000
0000
0000
0000
0000
0000
0000
0000
0000
0000
0000
0000
0000
0010
0000
0000
0010
0000
0000
1000
0000
0000
0000
0000
0000
0000
0000
0000
0000
0000
0000
0000
0000
0000
0000
0000
0000
0000
0000
0000
0000
0000
0000
0000
0000
0000
0000
0000
0000
0001
0000
0010
0000
0100
0000
1000
0000
0000
0001
0000
0000
0100
0000
0000
0010
0000
0000
1000
0000
0000
0000
0000
0000
0000
0000
0000
0000
0000
0000
0001
0000
0000
0000
0000
0000
0011
0000
0000
0000
0000
0000
,
1100
0000
0000
0000
0000
0000
0010
0010
0001
0000
0000
0000
0000
0000
0000
0000
0001
0100
0000
1000
0001
0000
0010
1000
0000
0100
0001
0000
1000
0000
0010
0000
,
0011
0000
0001
0100
0100
0100
0001
0010
0010
0010
0001
0100
0100
0000
1100
0000
,
1001
0000
1000
0100
0001
0100
1000
0000
0001
0100
1000
0100
0001
0000
0000
0000
,
1010
0000
1000
0100
0100
0100
1000
0010
0010
0010
1000
0100
0100
0000
0101
0000
,
1001
0000
0001
0010
1000
0010
0001
0000
1000
0010
0001
0010
1000
0000
0000
0000
,
0001
0100
0010
0000
0001
0010
1000
0000
1000
0100
0010
0000
1000
0010
0001
0000
,
1000
0010
0100
0000
1000
0100
0001
0000
0001
0010
0100
0000
0001
0100
1000
0000
,
0010
0000
0000
1000
0000
0000
0100
0000
0000
0001
0000
0000
0100
0000
0000
1000
0000
0000
0001
0000
0000
0100
0000
0000
1000
0000
0000
0100
0000
0000
0001
0000
0000
0010
0000
0000
0001
0000
0100
0000
0010
0000
1000
0000
0010
0000
0100
0000
,
0001
0010
0000
1000
0001
0000
0100
1000
0000
0010
0001
0000
1000
0000
0100
0000
,
1001
0000
0000
0000
;

//---------------dance-double - t7r-CDP----------------
#NOTEDATA:;
#CHARTNAME:t7r-CDP;
#STEPSTYPE:dance-double;
#DESCRIPTION:t7r-CDP;
#DIFFICULTY:Challenge;
#METER:17;
#CREDIT:t7r;
#NOTES:
00000000
00000000
00000000
00000000
,
00000000
00000000
00000000
00000000
,
00000000
00000000
00000000
00000000
,
00000000
00000000
00000000
00000000
,
00000000
00000000
00000000
00000000
,
11000000
01000000
01100000
00100000
00110000
00100000
00101000
00001000
,
00011000
00010000
00010010
00000010
00001010
00000010
00000110
00000100
,
00000001
00000010
00000001
00000010
00000100
00001000
00000100
00010000
00001000
00100000
00010000
00100000
01000000
10000000
00100000
01000000
,
00001000
00000000
00010000
00001000
00000200
00000000
00000301
00000000
00000010
00000000
00000100
00000000
00012000
00000000
00000000
00000000
,
01003000
00000000
00010000
01000000
00000000
01000000
10000000
00000000
00010000
00100000
00000000
00100000
20000000
00000000
00000000
00000000
,
00000000
00000000
00000000
00000000
00000000
00000000
00000000
00000000
31000000
00010000
00001000
00000000
00000100
00000010
00001000
00000000
,
00000001
00000000
00001000
00000100
00000000
00000100
00000001
00000000
00001000
00000010
00000000
00000010
00000002
00000000
00000000
00000000
,
00000000
00000000
00000000
00000000
00000000
00000000
00000000
00000000
00000103
00001000
00010000
00000000
00100000
10000000
00010000
00000000
,
10000000
00000000
00010000
01000000
00000000
01000000
10000000
00000000
00100000
00010000
00000000
00010000
20000000
00000000
00000000
00000000
,
00000000
00000000
00000000
00000000
00000000
00000000
00000000
00000000
31000000
00100000
00001000
00000000
00010000
00000010
00001000
00000000
,
00000001
00000000
00001000
00000100
00000000
00000100
00000001
00000000
00000010
00001000
00000000
00001000
00000001
00000000
00000010
00000001
,
00001000
00000010
00000000
00000100
00000000
00001000
00000000
00020000
00000000
00000000
00130000
00000000
10000000
00000000
00010000
00000000
,
10010000
00000000
00000000
10000000
01000000
00000000
00100000
00000000
00010000
01000000
00000000
01000000
20000000
00000000
00000000
00000000
,
30100000
00000000
01000000
00010000
10000000
00000000
01000000
00000000
00010000
00000000
00001000
00000000
00000100
00000000
00000010
00000100
,
00000010
00000000
00001000
00000100
00000000
00000100
00000001
00000000
00001000
00000010
00000000
00000010
00000002
00000000
00000000
00000000
,
00000013
00000000
00000001
00000100
00000010
00000000
00001000
00000000
00000001
00000000
00000010
00000000
00001000
00000000
00010000
00001000
,
00010000
00000000
00010000
00000100
00020000
00000000
00001000
00000000
00031000
01000000
00001000
00000000
00020000
00000000
00001000
00000000
,
00031000
00000000
00000010
00000100
00001000
00000000
00000001
00000000
00000200
00000000
00001000
00000000
00001300
00000000
00010000
00001000
,
00010000
00000100
00010000
00000100
00010000
00001000
00010000
00001000
01000000
00010000
01000000
00010000
10000000
01000000
00010000
00001000
,
00000100
00000001
00000010
00021000
,
00031000
00000000
00000100
00000010
00000100
00000010
00001000
00000100
00000010
00000001
00001000
00000001
00000010
00000000
00000010
00000000
00001000
00000000
00000100
00010000
00001000
00010000
00000100
00000000
00010000
00001000
01000000
00010000
00100000
00000000
00100000
00000000
,
10000000
00000000
01000000
00100000
01000000
00100000
00010000
10000000
00100000
10000000
00010000
10000000
01000000
00000000
01000000
00000000
00020000
00000000
20030000
00000000
30200000
00000000
00320000
00000000
00032000
00000000
00000000
00000000
00003020
00000000
00000000
00000000
,
00000031
00000000
00001000
00000100
00001000
00000100
00000010
00000001
00000100
00000010
00001000
00000001
00000100
00000000
00000100
00000000
00001000
00000000
00000010
00010000
00001000
00010000
00000010
00000000
00010000
00001000
00100000
00010000
01000000
00000000
01000000
00000000
,
10000000
00000000
00100000
10000000
00010000
10000000
00100000
10000000
00010000
01000000
00100000
10000000
00100000
00000000
00100000
00000000
00010000
10000000
00000000
01000000
00010000
00000000
00001000
00010000
00000000
00001000
00000100
00000000
00000110
00000000
00000000
00000000
,
00000101
00000000
00000001
00000010
00000001
00000010
00000100
00001000
00000001
00000100
00000010
00001000
00000100
00000000
00000100
00000000
,
00000001
00000000
00000010
00000000
00001000
00000000
00010000
00001000
00000000
00001000
00000000
00010000
01000000
00000000
01000000
00000000
,
10000000
00000000
00100000
10000000
00100000
10000000
00010000
10000000
01000000
00100000
00010000
10000000
00100000
00000000
00100000
00000000
,
00020000
20030000
32000000
03020000
00032000
00000000
00003100
00000010
,
00011000
00000000
00001000
00000100
00001000
00000100
00000010
00000100
00000001
00000010
00001000
00010000
00001000
00000000
00001000
00000000
00000001
00000000
00000100
00001000
00010000
00000100
00001000
00000100
00000010
00000001
00000100
00001000
00010000
00000000
00010000
00000000
,
10000000
00000000
01000000
00100000
01000000
00100000
00010000
10000000
00100000
01000000
00010000
00100000
00001000
00000000
00001000
00000000
00000001
00000010
00000000
00001000
00010000
00000000
00100000
10000000
00000000
01000000
00100000
00000000
00011000
00000000
00000010
00000000
,
00001001
00000000
00000001
00000100
00000010
00000100
00000001
00000000
00000010
00000100
00001000
00000001
00000200
00000000
00001000
00000000
,
00000010
00000000
00000301
00000000
00000010
00000100
00001000
00000000
00000001
00000000
00000010
00000000
00001010
00000000
00001000
00000000
,
00011000
00000000
00010000
00100000
01000000
00100000
10000000
00000000
01000000
00100000
00010000
10000000
00200000
00000000
00010000
00000000
,
01000000
00000000
10300000
00000000
01000000
00100000
00010000
00000000
10000000
00000000
00100000
00000000
00110000
00000000
00010000
00000000
,
00011000
00000000
00001000
00000010
00000100
00000010
00000001
00000000
00000100
00000010
00001000
00000001
00000020
00000000
00001000
00000000
,
00000100
00000000
00000031
00000000
00000100
00000010
00001000
00000000
00000001
00000000
00000100
00000000
00001100
00000000
00001000
00000000
,
00011000
00000000
00010000
01000000
00100000
01000000
10000000
00000000
00100000
01000000
00010000
10000000
02000000
00000000
00010000
00000000
,
03100000
00000000
00001000
00010000
00000010
00001000
00000001
00001000
00000001
00000010
00000100
00010000
00002000
00000000
00000000
00000000
,
00013000
00000000
01000000
10000000
00010000
00000000
01000000
01000000
10000000
00000000
01000000
00100000
00010000
00000000
10000000
00100000
01000000
00000000
00020000
00000000
00130000
00100000
10000000
00010000
10000000
00000000
01000000
00000000
01010000
00000000
00010000
00001000
,
00010000
00000000
00001000
00000100
00000001
00000000
00000100
00000100
00001000
00000000
00000100
00000010
00000001
00000000
00000100
00000010
00001000
00000000
00000002
00000000
00000013
00000010
00001000
00000001
00001001
00000000
00000001
00000000
00000100
00001000
00010000
00001000
,
00100000
00000000
00010000
01000000
00100000
10000000
00010000
00100000
00001000
00000000
00010000
00000010
00001000
00000000
00000001
00000010
00000100
00000000
00002000
00000000
00013000
00010000
00001000
00010000
00100000
00000000
10000000
00000000
10010000
00000000
10000000
00010000
,
01000000
00000000
00010000
00100000
00001000
00010000
00000010
00001000
00000001
00000000
00000100
00000010
00001000
00000000
00000100
00000000
00000001
00000100
00000000
00010000
00001000
00000000
10000000
00100000
00000000
00010000
00001000
00000000
00011000
00000000
00000010
00000000
,
00001001
00000000
00000001
00000010
00000100
00001000
00000001
00000100
00000010
00010000
00001000
01000000
00100000
00000000
00100000
00000000
,
00010000
00000000
10000000
00100000
01000000
00010000
10000000
00000000
01000000
00010000
00001000
00000100
00000010
00000000
00000010
00000001
,
00001000
00000000
00000001
00000100
00000010
00001000
00000001
00000010
00000100
00010000
00001000
00100000
01000000
00000000
01000000
00000000
,
00010000
00000000
10000000
01000000
00100000
00010000
10000000
00000000
00100000
00010000
00001000
00000010
00000200
00000000
00000000
00000300
,
00001001
00000000
00000001
00000010
00000100
00001000
00000001
00000100
00001000
00010000
00100000
10000000
00010000
00000000
00010000
00000000
,
00001000
00000000
00010000
01000000
10000000
00100000
01000000
00000000
00010000
00100000
00001000
00010000
00001000
00000000
00001000
00000001
,
00001000
00000010
00001000
00000010
00010000
00000100
00010000
00000100
00010000
00001000
00010000
00001000
00100000
00010000
10000000
00010000
,
10000000
00100000
00000000
00010000
00001000
00000000
00000001
00000100
00000000
00010000
00001000
00000000
00011000
00000000
00100000
00000000
,
10010000
00000000
00000000
00000000
;
