#TITLE:VICIOUS PSYCLE;
#ARTIST:Snooze.;
#BANNER:VICIOUS PSYCLE.png;
#BACKGROUND:VICIOUS PSYCLE-bg.png;
#MUSIC:VICIOUS PSYCLE.ogg;
#SAMPLESTART:39.52;
#SAMPLELENGTH:15;
#BPMS:0=170;

//---------------dance-single - t7r-bSP----------------
#NOTES:
     dance-single:
     t7r:
     Beginner:
     5:
     :
0000
0000
0000
0000
,
0000
0000
0000
0000
,
0000
0000
0000
0000
,
0000
0000
0000
0000
,
0000
0000
0000
0000
,
0000
0000
0000
0000
,
0000
0000
0000
0000
,
0000
0000
0000
0000
,
0000
0001
0000
0001
,
0000
1000
0000
1000
,
0000
0010
0000
0010
,
0000
0100
0000
0100
,
0100
0000
0000
0000
,
0010
0000
0000
0000
,
1000
0000
0000
0000
,
0100
0000
0100
0000
,
1000
0000
0000
0000
,
0001
0000
0000
0000
,
0100
0000
0100
0000
,
0010
0000
0000
0000
,
1000
0000
1000
0000
,
0100
0000
0100
0000
,
0010
0000
0010
0000
,
0001
0000
0001
0000
,
0100
0000
0100
0000
,
0010
0000
0010
0000
,
1000
0000
1000
0000
,
0001
0001
0001
0000
,
1000
0000
0000
0000
,
0100
0000
0000
0000
,
0001
0000
0000
0000
,
0010
0000
0000
0000
,
0001
0000
0000
0000
,
0100
0000
0000
0000
,
1000
0000
0000
0000
,
0010
0000
0000
0000
,
0100
0000
0100
0000
,
0010
0000
0110
0000
,
1000
0000
1000
0000
,
0001
0000
1001
0000
,
1000
0000
1000
0000
,
0100
0000
0110
0000
,
0001
0000
0001
0000
,
0100
0000
0110
0000
,
0010
0010
0010
0000
,
1000
1000
1000
0000
,
0001
0001
0001
0000
,
0010
0010
0010
0000
,
0100
0000
0100
0000
,
1000
1000
1000
0000
,
0001
0000
0001
0000
,
0100
0100
0100
0000
,
0010
0000
0010
0000
,
1000
0000
1000
0000
,
0001
0001
0001
0000
,
1000
1000
1000
0000
,
0100
0000
0100
0000
,
0010
0000
0010
0000
,
0001
0001
0001
0000
,
1000
1000
1000
0000
,
0010
0000
0010
0000
,
0100
0100
0000
0000
,
0010
0000
0010
0000
,
1000
1000
0000
0000
,
0001
0000
0001
0000
,
0010
0010
0000
0000
,
0001
0000
0001
0000
,
0100
0100
0000
0000
,
0010
0000
0000
0000
,
1000
0000
0000
0000
,
0100
0000
0000
0000
,
0001
0000
0000
0000
,
0010
0000
0000
0000
,
0001
0000
0000
0000
,
0100
0000
0000
0000
,
1000
0000
0000
0000
,
0110
0000
0000
0000
,
1000
0000
1000
0000
,
0100
0100
0100
0000
,
0010
0000
0010
0000
,
0001
0000
0001
0000
,
1000
1000
1000
0000
,
0010
0000
0010
0000
,
0100
0100
0100
0000
,
0001
0001
0001
0001
,
0001
0000
0001
0000
,
1000
1000
1000
1000
,
1000
0000
1000
0000
,
0010
0000
0010
0000
,
0100
0000
0100
0000
,
0001
0001
0001
0001
,
1000
0000
0000
0000
,
1001
0000
0000
0000
;

//---------------dance-single - t7r-BSP----------------
#NOTES:
     dance-single:
     t7r:
     Easy:
     9:
     :
0000
0000
0000
0000
,
0000
0000
0000
0000
,
0000
0000
0000
0000
,
0000
0000
0000
0000
,
0000
0000
0000
0000
,
0000
0000
0000
0000
,
0000
0000
0000
0000
,
0000
0000
0000
0000
,
0010
1000
0100
0010
,
0001
0100
0010
1000
,
0001
0010
0100
1000
,
0010
0010
0100
0100
,
0001
0010
0002
1003
,
0001
0100
0010
1000
,
0100
0010
0002
1003
,
0010
0100
0010
0010
,
1000
0100
0020
0031
,
1000
0010
0100
0100
,
0001
0010
0002
1003
,
0010
0000
0000
0100
0000
0000
0100
0000
0000
0001
0000
0000
0001
0000
0000
0000
,
1000
0000
0100
0010
0002
0000
0003
0000
,
1000
0010
0100
0001
,
0010
0000
0100
1000
0002
0000
0003
0000
,
0100
0100
0010
0010
,
1000
0000
0001
0100
0020
0000
0030
0000
,
1000
0100
0001
0001
,
0100
1000
0020
0130
,
0001
0000
0000
1000
0000
0000
1000
0000
0000
0010
0000
0000
0010
0000
0000
0000
,
1000
0000
0001
0000
0100
0100
0000
0000
,
0001
0000
1000
0000
0010
0010
0000
0000
,
1000
0000
0100
0000
0010
0010
0000
0000
,
0001
0000
0100
0000
0010
0010
0000
0000
,
1000
0100
1000
0000
0001
0001
0000
0000
,
1000
0010
1000
0000
0100
0100
0000
0000
,
0010
0001
1000
0000
0001
0001
0000
0000
,
0100
0000
0000
0010
0000
0000
0010
0000
0000
1000
0000
0000
0001
0000
0000
0000
,
2001
0000
0000
0000
,
3100
0000
0010
0000
,
0002
0000
0000
0000
,
0103
0000
0010
0000
,
1000
0000
1000
0000
,
0001
0000
0001
0000
,
0100
0000
0100
0000
,
0010
0010
0010
0000
,
2000
0000
0100
0000
,
3001
0000
0000
0001
0000
0000
0100
0000
0100
0000
0000
0000
,
0002
0000
0100
0000
,
1003
1000
0001
1000
,
0001
0010
0100
0010
,
0001
0001
0200
0320
,
1030
0100
0010
0100
,
1000
1001
0001
0200
,
0301
0010
0001
1000
,
0010
1010
1000
0100
,
1000
0010
1000
0001
,
1000
1100
0100
0010
,
0001
0100
1000
0100
,
0010
0110
0100
0001
,
1000
0100
0001
0100
,
0010
0110
0100
1000
,
0002
0010
1000
0013
,
0011
0011
0001
1000
,
0100
0010
0100
0001
,
0100
0110
1000
0001
,
2000
0010
0001
3010
,
1010
1010
1000
0001
,
0100
0010
0100
1000
,
0100
0110
0001
1000
,
0001
0000
0100
0010
0000
0000
1000
0000
,
0002
0000
0013
0200
0000
0000
2300
0000
,
3010
0000
0100
0110
0000
0010
0110
0000
,
2000
0000
3100
0020
0000
0000
0032
0000
,
1003
0000
0100
0100
0000
0010
0010
0000
,
0002
0000
0000
2003
0000
0000
3010
0000
,
0100
0000
0010
0110
0000
0100
0110
0000
,
0001
0000
0010
0000
0100
0100
1000
0000
,
0001
0000
1000
0000
0001
0100
0001
0000
,
1000
0000
0001
0000
1000
0100
1000
0000
,
0001
0000
1000
0000
0001
0010
0001
0000
,
1000
0000
0001
0000
1000
0010
1000
0000
,
0100
0000
0010
0000
0100
1000
0001
0000
,
0100
0000
0010
0000
0100
0001
1000
0000
,
0010
0000
0100
0000
0001
1000
0010
0000
,
1000
0000
0100
0000
0010
0001
1000
0000
,
0001
0001
0100
0100
,
0010
0010
1000
1000
,
0100
0100
0010
0010
,
0001
0001
1000
1000
,
0010
0000
0110
0000
,
0100
0000
0110
0000
,
1000
1000
0100
0100
,
0010
0000
0010
0000
0001
1000
0001
0000
,
0200
0000
0000
0000
,
0000
0000
0000
0000
,
0300
0000
0000
0000
;

//---------------dance-single - t7r-DSP----------------
#NOTES:
     dance-single:
     t7r:
     Medium:
     13:
     :
0000
0000
0000
0000
,
0000
0000
0000
0000
,
0000
0000
0000
0000
,
0000
0000
0000
0000
,
0000
0000
0000
0000
,
0000
0000
0000
0000
,
0000
0000
0000
0000
,
0000
0000
0000
0000
,
1000
0000
0000
0100
1000
0000
0000
0000
0001
0000
0000
0000
1000
0000
0000
0000
,
0001
0000
0000
0100
0001
0000
0000
0000
1000
0000
0000
0000
0001
0000
0000
0000
,
1000
0000
0000
0010
1000
0000
0000
0000
0001
0000
0000
0000
1000
0000
0000
0000
,
0001
0110
0100
0100
,
0001
0000
0010
0000
0001
0000
0000
0000
2000
0000
0000
3010
0000
0000
1000
0000
,
0100
1000
0000
0000
0001
0000
0000
0000
1000
0100
0000
0000
1000
0000
0000
0000
,
0001
0000
0010
0000
0100
0000
0000
0000
0020
0000
0000
0031
0000
0000
1000
0000
,
0010
0010
0100
0000
0001
1000
0001
1000
,
0100
0000
0010
0000
0001
0000
0000
0000
2000
0000
0000
3100
0000
0000
1000
0000
,
0001
0100
0010
0000
1000
0100
0010
0000
,
0001
0000
1000
0000
1000
0000
0000
0000
0020
0000
0000
0130
0000
0000
0001
0000
,
1000
0000
0000
1000
0000
0000
0100
0000
0000
0110
0000
0000
0011
0000
0000
0000
,
0001
0000
0100
0000
0001
0000
1000
0000
0002
0000
0000
0013
0000
0000
0001
0000
,
1000
0100
0000
0000
1100
0000
0000
0000
0001
0100
0000
0000
0101
0000
0000
0000
,
1000
0000
0010
0000
0100
0000
0010
0000
2000
0000
0000
3001
0000
0000
1000
0000
,
0100
0100
0100
0000
0010
0001
1000
0001
,
0100
0000
0010
0000
1000
0000
0000
0000
0002
0000
0000
0013
0000
0000
0100
0000
,
0010
0000
0001
0000
1000
0000
0000
0000
0010
0000
0000
0010
0000
0000
0010
0000
,
0100
0000
0001
0000
0001
0000
1000
0000
0200
0000
0000
0310
0000
0000
0100
0000
,
1000
0000
0000
0100
0000
0000
1000
0000
0000
0001
0000
0000
1001
0000
0000
0000
,
0001
0100
0001
0000
2000
3020
1030
0000
,
0001
0010
0001
0000
2000
3200
1300
0000
,
0001
0100
0010
0000
2000
3002
0103
0000
,
0010
1000
0001
0000
2000
3200
0310
0000
,
0100
1000
0100
1000
0002
0023
0031
0000
,
0100
0001
0100
0001
2000
3020
1030
0000
,
0010
0100
0010
0100
0002
2003
3100
0000
,
0010
0000
0000
0001
0000
0000
1000
0000
0000
0010
0000
0000
0110
0000
0000
0000
,
2010
0000
0001
0000
,
3100
0000
0010
0001
0000
0000
2002
0000
0000
3003
0000
0000
,
0012
0000
1000
0000
,
0103
0000
0010
1000
0000
0000
2001
0000
0000
3010
0000
0000
,
1000
0000
0100
0010
0000
0000
0100
0000
0000
1000
0000
0000
,
0001
0000
0100
0010
0000
0000
0100
0000
0100
0000
0100
0000
,
0010
0000
0000
1000
0000
0000
0100
0000
0010
0001
0000
0000
,
1000
0000
0010
0100
0000
0010
1000
0000
0001
1000
0001
1000
,
0002
0100
1000
0013
,
0001
0000
0100
0010
0000
0000
1000
0000
1010
0000
0000
0000
,
2000
0100
0001
3010
,
1000
0000
0100
0010
0000
0000
0001
0000
1000
0001
1000
0001
,
1000
0000
0010
0100
0000
0000
0010
0000
0010
0000
0010
0000
,
1000
0000
0001
0100
0000
0000
0001
0000
1000
0010
0000
0000
,
1000
0000
0100
0010
0000
0000
0100
0000
0100
0000
0100
0000
,
1000
0000
0000
1001
0000
0000
0110
0000
0000
0010
0100
0010
,
1000
1100
1000
1001
,
0001
0000
0100
0010
0000
0100
0001
0000
0000
1000
0000
0000
,
0001
0011
0001
1001
,
1000
0000
0010
1000
0000
0001
1000
0000
0100
0010
0100
0010
,
0001
0000
0100
0010
0000
0000
0100
0000
0001
1000
0000
0000
,
0011
1001
0101
1001
,
1000
0000
0100
0010
0000
0000
0100
0000
1000
0001
0000
0000
,
1001
0000
0000
1010
0000
0000
1001
0000
0000
1000
0001
1000
,
0200
0001
0010
1300
,
1010
0000
0000
1010
0000
0000
1000
0100
1000
0001
0000
0000
,
0200
1000
0010
0301
,
0011
0000
0000
0011
0000
0000
0001
0100
0001
1000
0000
0000
,
0001
0000
0010
0100
0000
1000
0001
0000
0010
0100
0000
0000
,
1001
0000
0000
1001
0000
0000
1000
0001
0100
0001
0000
0000
,
1000
0000
0010
0100
0000
0001
1000
0000
0010
0100
0000
0000
,
1001
0000
0000
1001
0000
0000
0001
1000
0100
1000
0001
1000
,
0001
0000
0100
0010
0000
0100
0101
0000
,
0002
0023
0230
2300
3002
0023
0230
2300
,
3001
0100
0100
0010
0100
0100
0001
0000
,
2000
3200
0320
0032
2003
3200
0320
0032
,
1003
0000
0100
0001
0000
0100
1100
0000
,
0002
2003
3020
0230
0302
2003
3010
0000
,
0100
0010
0010
0100
0001
0001
1000
1000
,
0010
0000
0110
0000
0002
0203
2300
3200
,
0301
0000
0010
0000
0001
0000
0010
0000
0001
0000
0000
1000
0001
0000
1000
0000
,
0001
0000
0100
0000
0001
0000
0100
0000
0001
0000
0000
1000
0100
0000
0010
0000
,
0001
0000
1000
0000
0001
0000
1000
0000
0001
0000
0000
0100
0010
0000
1000
0000
,
0001
0000
0100
0000
0001
0000
1000
0000
0001
0000
0000
0010
0001
0000
1000
0000
,
0100
0000
0010
0000
0100
0000
0000
1000
0000
0010
0000
1000
0001
0000
1000
0000
,
0010
0000
0100
0000
0010
0000
0000
1000
0000
0100
0000
1000
0001
0000
1000
0000
,
0001
0000
0010
0000
0001
0000
0000
0100
0000
0001
0000
1000
0001
0000
0010
0000
,
0001
0000
0100
0000
0010
0000
0000
1000
0000
0100
0000
0010
0001
0000
1000
0000
,
0001
0000
0000
0000
0100
0000
0000
0010
0000
0010
0000
0100
0001
0000
1000
0000
,
0100
0000
0000
0000
0010
0000
0000
0100
0000
0100
0000
1000
0001
0000
1000
0000
,
0010
0000
0000
0000
0100
0000
0000
0001
0000
0001
0000
1000
0010
0000
1000
0000
,
0100
0000
0000
0000
0010
0000
0000
0100
0000
0100
0000
1000
0001
0000
0100
0000
,
0010
0000
0110
0000
,
1001
0000
1100
0000
,
0001
0001
1000
1000
,
0010
0000
0010
0000
0010
0000
0010
0000
0100
0000
0100
0000
0001
1000
0001
0000
,
0020
0000
0000
0000
,
0000
0000
0000
0000
,
0030
0000
0000
0000
;

//---------------dance-single - t7r-ESP----------------
#NOTES:
     dance-single:
     t7r:
     Hard:
     16:
     :
0000
0000
0000
0000
,
0000
0000
0000
0000
,
0000
0000
0000
0000
,
0000
0000
0000
0000
,
0000
0000
0000
0000
,
0000
0000
0000
0000
,
0000
0000
0000
0000
,
0000
0000
0000
0000
,
1000
0000
0000
1000
0100
0000
0000
0100
0010
0000
0000
0010
0001
0000
0000
0001
,
0100
0000
0000
0100
0010
0000
0000
0010
1000
0000
0000
1000
0001
0000
0000
0001
,
0010
0000
0000
0010
0100
0000
0000
0100
1000
0000
0000
1000
0001
0000
0000
0001
,
0100
0110
0010
0010
,
1000
0000
0001
0000
0001
0000
1000
0000
0200
0000
0000
0310
0000
0100
1000
0000
,
0001
0100
0000
0001
0000
1000
0000
0001
0100
0001
0000
0010
0001
0000
1000
0000
,
0001
0000
0010
0000
0100
0000
1000
0000
0020
0000
0000
0130
0010
0000
1000
0000
,
0100
0000
0010
0100
0010
0000
0100
0000
1000
0010
0000
1000
0001
1000
0000
0001
,
1000
0000
0100
0000
0100
0000
0010
0000
0002
0000
0000
0103
0010
0000
0100
0000
,
0001
0000
0010
0000
0001
1000
0001
0000
1000
0000
0100
0010
0000
0100
0010
0000
,
0100
0000
1000
0000
0001
0000
0100
0000
0020
0000
0000
1030
0001
0000
1000
0000
,
0100
0000
0000
1100
0000
0000
1010
0000
0000
1001
0000
0000
0101
0000
0001
0000
,
0010
0000
0001
0000
0100
0000
1000
0000
0200
0000
0000
0310
0100
0000
0001
0000
,
1000
0100
0000
0010
0000
0010
0000
0100
0010
0100
0000
1000
0001
0000
1000
0000
,
0010
0000
1000
0000
0100
0000
0001
0000
0200
0000
0000
0310
0001
0000
1000
0000
,
0010
0000
0100
0010
0100
0000
0001
0000
1000
0100
0000
1000
0001
0100
0000
0001
,
1000
0000
0010
0000
0001
0000
0010
0000
0200
0000
0000
0310
1000
0000
0001
0000
,
0010
0000
0001
0000
0001
0000
0100
0000
0010
0000
0100
1000
0000
0100
0010
0000
,
1000
0000
0100
0000
0001
0000
0100
0000
0020
0000
0000
0031
1000
0000
0001
0000
,
0100
0000
0000
0101
0000
0000
0011
0000
0000
1001
0000
0000
0110
0000
0010
0000
,
1000
0000
0100
0000
0010
0000
1000
0000
0020
0000
0230
0000
1300
0001
1000
0000
,
0001
0000
0100
0000
0010
0000
0001
0000
0020
0000
0230
0000
0301
1000
0001
0000
,
1000
0000
0010
0000
0100
0000
1000
0000
0200
0000
0320
0000
1030
0001
1000
0000
,
0001
0000
0010
0000
0100
0000
0001
0000
0200
0000
0320
0000
0031
1000
0001
0000
,
1000
0000
0100
0000
0010
0100
0000
0010
2000
0000
3020
0000
0031
0000
1000
0000
,
0001
0000
0100
0000
0010
0100
0000
0010
0002
0000
0023
0000
1030
0000
0001
0000
,
1000
0000
0010
0000
0100
1000
0000
0100
0020
0000
2030
0000
3001
0000
0010
0000
,
0110
0000
0000
1100
0000
0000
1001
0000
0000
0101
0000
0000
1001
0000
1000
0000
,
2100
0001
0010
3100
,
1000
0000
0100
0010
0000
0000
2001
0000
0000
3100
0000
0000
,
1002
0010
1000
0103
,
0001
0000
0100
0010
0000
0000
0210
0000
0000
0301
0000
0001
,
1000
0000
0100
0010
0000
0000
0100
1000
0001
1000
0000
0000
,
0001
0000
0100
0010
0000
0000
0100
0000
0101
0000
0101
0000
,
0001
0000
0010
0100
0000
0000
0010
0001
1000
0001
0000
0000
,
1000
0000
0010
0100
0000
0000
0010
0000
1000
0001
1000
0001
,
2000
0100
0001
3010
,
1000
0100
0010
0001
0000
0000
1100
0000
1100
0000
0000
0000
,
0002
0100
1000
0013
,
0001
0000
0100
0010
0000
1000
0100
0000
0010
0001
1000
0001
,
1000
0000
0010
0100
0010
0000
0001
0000
0001
0000
0010
0000
,
1000
0000
0100
0010
0000
0100
0001
0000
0100
0010
0100
1000
,
0001
0000
0100
0010
0100
0000
1000
0000
1000
0000
0100
0001
,
1000
0000
0100
0001
0000
0100
0010
0000
0001
1000
1000
1000
,
0001
0100
0001
1000
0100
1000
0001
0100
0001
1000
0100
1000
,
0001
0010
0100
1000
0000
0001
0010
0100
1000
0001
1000
0001
,
1000
0100
1000
0001
0100
0001
1000
0100
1000
0001
0100
0001
,
1000
0010
0100
0001
0000
1000
0010
0100
0001
1000
0001
1000
,
0100
1000
0001
0100
0001
1000
0010
1000
0001
0010
0001
1000
,
0001
0010
0100
1000
0000
0001
0010
0100
1000
0001
1000
0001
,
0010
0001
1000
0010
1000
0001
0100
0001
1000
0100
1000
0001
,
1000
0100
0010
0001
0000
1000
0100
0010
0001
1000
0001
1000
,
0200
0000
0001
0001
0000
0000
0010
0000
0000
1300
0000
0000
,
0001
0100
0010
1000
0000
0001
1000
0100
0010
0001
1000
0001
,
0100
0000
1000
0100
0010
0100
0001
0000
1000
0100
0010
0100
,
0001
0000
0100
0010
0000
0100
1000
0001
0100
0010
1000
0001
,
0020
0000
1000
1000
0000
0000
0100
0000
0000
0031
0000
0000
,
0100
0010
0100
1000
0000
0100
0010
0100
0001
1000
0100
0010
,
0001
0100
0010
1000
0001
1000
0001
0010
0100
1000
0001
1000
,
0100
0001
0100
0010
1000
0010
0001
0000
0100
0010
0010
0010
,
1000
0010
0010
0100
1000
1000
0100
0001
,
2000
3200
0302
2003
3020
0032
2003
3002
,
1003
0000
0100
1000
0100
0000
1000
0000
0001
0000
1000
0000
1000
0000
0001
0000
,
2000
3020
0032
2003
3200
0302
2003
3002
,
1003
0000
0100
0010
0100
0000
1000
0000
0001
0100
0010
0000
0100
0001
0100
0000
,
0002
0023
2030
3002
0203
2300
3001
1000
,
1001
0000
0001
0100
0010
0000
1000
0000
0100
0010
0001
0000
1000
0000
0001
1000
,
0200
0000
0000
0000
0001
0000
0000
0000
0010
0000
0010
0000
1300
0001
1000
0001
,
1000
0000
0000
1000
0100
0000
1000
0010
0000
0100
0000
0010
1000
0000
0001
0000
,
0010
0000
0000
0010
0001
0000
0100
0010
0000
1000
0000
0001
0010
0000
0001
0000
,
1000
0000
0000
1000
0010
0000
0100
0010
0000
1000
0000
0001
0010
0000
0001
0000
,
0100
0000
0000
0100
0010
0000
1000
0001
0000
0010
0000
0001
0100
0000
0010
0000
,
1000
0000
0000
0100
0010
0000
0100
0001
0000
0100
0000
0010
0100
0000
1000
0000
,
0001
0000
0000
0100
0010
0000
0100
1000
0000
0100
0000
0010
0100
0000
0001
0000
,
1000
0000
0000
0010
0100
0000
0010
0001
0000
0010
0000
0100
0010
0000
1000
0000
,
0001
0000
0000
0010
0100
0000
0010
1000
0000
0010
0000
0100
0010
0000
0001
0000
,
1000
0000
0100
1000
0100
0000
0000
1000
0000
0001
0000
0100
0010
0000
1000
0000
,
0001
0000
0010
0001
0010
0000
0000
0001
0000
1000
0000
0010
0100
0000
0010
0000
,
1000
0000
0100
0010
0100
0000
0000
0001
0000
0100
0000
1000
0001
0000
1000
0000
,
0001
0000
0100
0010
0100
0000
0000
1000
0000
0100
0000
0001
1000
0000
0010
0000
,
0100
0000
0110
0000
,
1001
0000
1100
0000
,
1001
1100
1001
0101
,
0001
0000
0001
0000
0100
0000
0100
0000
0010
0000
0010
0000
1000
0001
1000
0001
,
0020
0000
0000
0000
,
0000
0000
0000
0000
,
0030
0000
0000
0000
;

//---------------dance-double - t7r-BDP----------------
#NOTES:
     dance-double:
     t7r:
     Easy:
     10:
     :
00000000
00000000
00000000
00000000
,
00000000
00000000
00000000
00000000
,
00000000
00000000
00000000
00000000
,
00000000
00000000
00000000
00000000
,
00000000
00000000
00000000
00000000
,
00000000
00000000
00000000
00000000
,
00000000
00000000
00000000
00000000
,
00000000
00000000
00000000
00000000
,
00100000
00010000
10000000
00100000
,
10000000
01000000
00100000
00010000
,
00001000
00000010
00000100
00000010
,
00001000
00001001
00000001
00000001
,
00000100
00000100
00001000
00001000
,
00010000
01000000
10000000
00010000
,
10000000
10000000
00200000
10300000
,
00010000
00010000
10000000
01000000
,
00010000
00010000
00001000
00001000
,
00010000
00001000
00000100
00000001
,
00001000
00000010
00000200
00000310
,
00001000
00000000
00000000
00000100
00000000
00000000
00000100
00000000
00000000
00010000
00000000
00000000
00010000
00000000
00000000
00000000
,
00001000
00010000
02000000
13000000
,
00010000
01000000
00100000
10000000
,
00100000
00100000
00020000
00031000
,
00010000
00001000
00010000
00000000
00001000
00000000
00001000
00000000
,
00000010
00000010
00000200
00001300
,
00000001
00000001
00000100
00000100
,
00001000
00001000
00020000
00031000
,
00010000
00000000
00000000
00100000
00000000
00000000
00100000
00000000
00000000
01000000
00000000
00000000
01000000
00000000
00000000
00000000
,
00010000
00000000
10000000
00000000
01000000
01000000
00000000
00000000
,
10000000
00000000
00100000
00000000
00010000
00010000
00000000
00000000
,
00001000
00000000
00000100
00000000
00000001
00000001
00000000
00000000
,
00001000
00000000
00000100
00000000
00000010
00000010
00000000
00000001
,
00001000
00000000
00000001
00000000
00000100
00000100
00000000
00000000
,
00001000
00000000
00010000
00000000
01000000
01000000
00000000
00000000
,
00100000
00000000
00001000
00000000
00010000
00001000
00010000
00000000
,
00001000
00000000
00000000
00000010
00000000
00000000
00000010
00000000
00000000
00000100
00000000
00000000
00000100
00000000
00000000
00000000
,
00020000
00000000
00000000
00000000
,
00031000
00000000
00010000
00000000
,
02000000
00000000
00000000
00000000
,
03100000
00000000
00010000
00000000
,
10000000
00000000
00100000
00000000
,
00010000
00001000
00011000
00000000
,
00001000
00000000
00000010
00000000
,
00000001
00000001
00001000
00000000
,
00001002
00000000
00000100
00000000
,
00001003
00000000
00000000
00000100
00000000
00000000
00010000
00000000
00010000
00000000
00000000
00000000
,
00021000
00000000
01000000
00000000
,
00031000
00010000
00100000
10000000
,
00100000
01000000
00001000
00010000
,
00001000
00001000
00000010
00000001
,
00001000
00000010
00000100
00000001
,
00000010
00000110
00000100
00020000
,
00031000
00010000
01000000
00100000
,
00010000
10010000
10000000
00100000
,
00010000
00001000
00000100
00000010
,
00001000
00001001
00000001
00000010
,
00000100
00010000
00000100
00010100
,
00010000
00010000
00001000
00010000
,
01000000
00100000
01000000
10000000
,
00100000
01100000
00010000
10000000
,
02000000
10000000
00000000
03010000
,
00001000
00000000
00000000
00011000
00000000
00000000
00001000
00000000
00010000
00001000
00000000
00000000
,
00000100
00000100
00000010
00001000
,
00000100
00010100
00010000
00001000
,
00200000
01000000
00000000
00301000
,
00010000
00010000
00001000
00000010
,
00000001
00000000
00000000
00000100
00000000
00000000
00001000
00000000
00010000
00001000
00000000
00000000
,
00011000
00000000
00000000
00011000
00000000
00000000
00001000
00000000
00100000
00010000
00000000
00000000
,
10000000
00000000
00100000
01000000
00000000
00000000
00001000
00000000
,
00020000
00000000
00000000
00032000
00000000
00000000
00013000
00000000
,
00011000
00000000
00001000
00011000
00000000
00010000
00011000
00000000
,
00002000
00000000
00000000
00003200
00000000
00000000
00000302
00000000
,
00001003
00000000
00000100
00010000
00000000
00000010
00010000
00000000
,
00000002
00000000
00000000
00000203
00000000
00000000
00002300
00000000
,
00013000
00000000
00001000
00011000
00000000
00010000
00011000
00000000
,
00010000
00000000
01000000
00000000
10000000
10000000
00010000
00000000
,
10000000
00000000
00100000
00000000
10000000
01000000
10000000
00000000
,
01000000
00000000
00100000
00000000
00001000
00010000
00001000
00000000
,
00010000
00000000
00000010
00000000
00000100
00000010
00000100
00000000
,
00000001
00000000
00000010
00000000
00000001
00001000
00000100
00000000
,
00001000
00000000
00000010
00000000
00000100
00000001
00001000
00000000
,
00000001
00000000
00000010
00000000
00000100
00010000
00001000
00000000
,
01000000
00000000
00010000
00000000
00100000
00010000
10000000
00000000
,
00100000
00000000
01000000
00000000
00010000
00100000
00001000
00000000
,
00010000
00000000
00001000
00000000
00000100
00000100
00000010
00000000
,
00001000
00000000
00000001
00000000
00000010
00000010
00000100
00000000
,
00010000
00000000
00001000
00000000
00010000
00010000
01000000
00000000
,
10000000
00000000
00100000
00000000
01000000
01000000
00010000
00000000
,
00100000
00000000
00011000
00000000
,
00000010
00000000
00011000
00000000
,
00001000
00001000
00010000
00010000
,
00001000
00000100
00000010
00000000
00001000
00000100
00010000
00000000
,
00022000
00000000
00000000
00000000
,
00000000
00000000
00000000
00000000
,
00033000
00000000
00000000
00000000
;

//---------------dance-double - t7r-DDP----------------
#NOTES:
     dance-double:
     t7r:
     Medium:
     13:
     :
00000000
00000000
00000000
00000000
,
00000000
00000000
00000000
00000000
,
00000000
00000000
00000000
00000000
,
00000000
00000000
00000000
00000000
,
00000000
00000000
00000000
00000000
,
00000000
00000000
00000000
00000000
,
00000000
00000000
00000000
00000000
,
00000000
00000000
00000000
00000000
,
00000010
00000000
00000000
00001000
00000001
00000000
00000000
00000000
00000100
00000000
00000000
00000000
00000010
00000000
00000000
00000000
,
00001000
00000000
00000000
00000100
00010000
00000000
00000000
00000000
00001000
00000000
00000000
00000000
01000000
00000000
00000000
00000000
,
00010000
00000000
00000000
00100000
00010000
00000000
00000000
00000000
10000000
00000000
00000000
00000000
00100000
00000000
00000000
00000000
,
10000000
01000000
00010000
00010000
,
00001000
00000000
00010000
00000000
00001000
00000000
00000000
00000000
00000200
00000000
00000000
00000310
00000000
00000000
00000100
00000000
,
00000001
00000010
00000000
00000000
00000001
00000000
00000000
00000000
00000100
00000010
00000000
00000000
00001000
00000000
00000000
00000000
,
00000001
00000000
00000010
00001000
00020000
00000000
00031000
00000000
,
00010000
00100000
00100000
00000000
01000000
00010000
00010000
00000000
,
10000000
00000000
01000000
00000000
10000000
00000000
00000000
00000000
00020000
00000000
00000000
10030000
00000000
00000000
00100000
00000000
,
01000000
00000000
00000000
00010000
10000000
00000000
00000000
00000000
01000000
00000000
00000000
00100000
00010000
00000000
00000000
00000000
,
00001000
00000000
00000100
00000000
00001000
00000000
00000000
00000000
00000002
00000000
00000000
00001003
00000000
00000000
00000001
00000000
,
00000100
00000000
00000000
00000100
00000000
00000000
00001000
00000000
00000000
00010000
00000000
00000000
00011000
00000000
00000000
00000000
,
00010000
00000000
00000000
00000000
00100000
00000000
10000000
00000000
00020000
00000000
00000000
10030000
00000000
00000000
00010000
00000000
,
10000000
01000000
00000000
00000000
11000000
00000000
00000000
00000000
10000000
00010000
00000000
00000000
01010000
00000000
00000000
00000000
,
00010000
00000000
00100000
00000000
00001000
00000000
00010000
00000000
00000020
00000000
00000000
00000130
00000000
00000000
00000001
00000000
,
00001000
00001000
00001000
00000000
00000001
00000100
00001000
00010000
,
00001000
00000000
00100000
00000000
00010000
00000000
00000000
00000000
20000000
00000000
00000000
30010000
00000000
00000000
10000000
00000000
,
01000000
00000000
00100000
00000000
00010000
00000000
00000000
00000000
00001000
00000000
00000000
00000010
00000000
00000000
00000010
00000000
,
00000100
00000000
00000001
00000000
00000001
00000000
00001000
00000000
00000200
00000000
00000000
00010300
00000000
00000000
00001000
00000000
,
00010000
00000000
00000000
00010000
00000000
00000000
01000000
00000000
00000000
10000000
00000000
00000000
10010000
00000000
00000000
00000000
,
10000000
00100000
01000000
00000000
00200000
20300000
30010000
00000000
,
10000000
01000000
00010000
00000000
00002000
00023000
00031000
00000000
,
00000100
00000010
00001000
00000000
00000002
00000023
00000031
00000000
,
00000100
00000010
00001000
00000000
00000200
00020300
00031000
00000000
,
00010000
01000000
10000000
01000000
00200000
00302000
00013000
00000000
,
00001000
00000100
00000001
00000100
00000020
00020030
00031000
00000000
,
00010000
00100000
10000000
00100000
00020000
00032000
00013000
00000000
,
00001000
00000000
00000000
00000010
00000000
00000000
00000001
00000000
00000000
00000100
00000000
00000000
00000110
00000000
00000000
00000000
,
00001002
00000000
00000100
00000000
,
00001003
00000000
00000001
00000010
00000000
00000000
00000200
00000000
00000000
00000300
00000000
00000000
,
00021000
00000000
00000100
00000000
,
00031000
00000000
01000000
00010000
00000000
00000000
10000000
00000000
00000000
00100000
00000000
00000000
,
10000000
00000000
01000000
00100000
00000000
00000000
01000000
00000000
00000000
10000000
00000000
00000000
,
00010000
00000000
01000000
00010000
00000000
00000000
10000000
00000000
01000000
00000000
00010000
00000000
,
00001000
00000000
00010000
00000100
00000000
00000000
00001000
00000000
00000000
00000010
00000000
00000000
,
00000100
00000000
00000001
00001000
00000000
00000100
00010000
00000000
00001000
00010000
00000000
00100000
,
20000000
01000000
00010000
30100000
,
10000000
00000000
01000000
00100000
00000000
00000000
00001000
00000000
00001000
00000000
00000000
00000000
,
00020000
00000100
00001000
00030010
,
00000100
00000000
00000001
00001000
00000000
00000000
00000010
00000000
00010000
00001000
00010000
00001000
,
00010000
00000000
00100000
01000000
00000000
00000000
00010000
00000000
00010000
00000000
00010000
00000000
,
10000000
00000000
01000000
00100000
00000000
00000000
01000000
00000000
10000000
00010000
00000000
00000000
,
01000000
00000000
00010000
00100000
00000000
00000000
00001000
00000000
00001000
00000000
00001000
00000000
,
00010000
00000000
00000000
00001000
00000000
00000000
00000010
00000000
00000000
00000001
00001000
00000001
,
00000100
00000110
00000010
00001010
,
00001000
00000000
00000100
00010000
00000000
00000000
00001000
00000000
00010000
01000000
00000000
00000000
,
00100000
00110000
00010000
10010000
,
10000000
00000000
00100000
00010000
00000000
00000000
00001000
00000000
00000000
00010000
00000000
00000000
,
00001000
00000110
00000001
00001001
,
00000001
00000000
00000100
00000010
00000000
00000000
00001000
00000000
00000000
00001100
00000000
00000000
,
00000100
00000000
00010000
00001000
00000000
00000000
01000000
00000000
00001000
00010000
00000000
00000000
,
00011000
00000000
00000000
00011000
00000000
00000000
00001000
00000000
00010000
01000000
00000000
10000000
,
00020000
00100000
10000000
01030000
,
00010000
00000000
00100000
00001000
00000000
00010000
00001000
00000000
00000000
00011000
00000000
00000000
,
00002000
00000100
00010000
00103000
,
00011000
00000000
00000000
00011000
00000000
00000000
00001000
00000000
00000010
00000100
00000000
00000010
,
00000001
00000000
00000100
00000010
00000000
00000000
00001000
00000000
00000000
00010000
00000000
00000000
,
00110000
00000000
00000000
00110000
00000000
00000000
10010000
00000000
10000000
01000000
00000000
00000000
,
10000000
00000000
00100000
01000000
00000000
00000000
00010000
00000000
00000000
00001000
00000000
00000000
,
00001010
00000000
00000000
00001010
00000000
00000000
00001001
00000000
00000001
00000100
00000000
00000000
,
00000001
00000000
00000010
00000100
00000000
00001000
00010000
00000000
,
00200000
00000000
01300000
20000000
00000000
30010000
10000000
00000000
,
11000000
01000000
10000000
00010000
00000000
00010000
00100000
00000000
,
00002000
00000000
00013000
00000020
00000000
00001030
00000001
00000000
,
00000100
00000000
00001000
00010000
00000000
00001000
00011000
00000000
,
00020000
00000000
00130000
20000000
00000000
30010000
10000000
00000000
,
01000000
00010000
00010000
00001000
00000100
00000100
00000010
00000000
,
00010000
00011000
00001000
00011000
,
00010000
00000000
01000000
00000000
00100000
00000000
00000000
00010000
00000000
00000000
10000000
00000000
00100000
00000000
10000000
00000000
,
00010000
00000000
00100000
00000000
00001000
00000000
00000000
00010000
00000000
00000000
00000010
00000000
00001000
00000000
00000001
00000000
,
00000100
00000000
00000010
00000000
00001000
00000000
00000000
00000001
00000000
00000000
00000100
00000000
00001000
00000000
00010000
00000000
,
01000000
00000000
00100000
00000000
00010000
00000000
00000000
10000000
00000000
00000000
00100000
00000000
10000000
00000000
00010000
00000000
,
10000000
00000000
01000000
00000000
00100000
00000000
00000000
10000000
00000000
00000000
00100000
00000000
00001000
00000000
00010000
00000000
,
00001000
00000000
00000100
00000000
00000010
00000000
00000000
00001000
00000000
00000000
00000001
00000000
00000010
00000000
00000100
00000000
,
00000001
00000000
00000100
00000000
00001000
00000000
00000000
00000001
00000000
00000000
00000100
00000000
00001000
00000000
00010000
00000000
,
01000000
00000000
00100000
00000000
00010000
00000000
00000000
10000000
00000000
00000000
00100000
00000000
00010000
00000000
00001000
00000000
,
00010000
00000000
00000000
00000000
01000000
00000000
00000000
00100000
00000000
00100000
00000000
00001000
00010000
00000000
00001000
00000000
,
00010000
00000000
00000000
00000000
00001000
00000000
00000000
00000100
00000000
00000100
00000000
00000010
00001000
00000000
00000001
00000000
,
00000010
00000000
00000000
00000000
00001000
00000000
00000000
00010000
00000000
00010000
00000000
00001000
00010000
00000000
00100000
00000000
,
01000000
00000000
00000000
00000000
00010000
00000000
00000000
10000000
00000000
10000000
00000000
01000000
00100000
00000000
00010000
00000000
,
00001000
00000000
00000110
00000000
,
00000001
00000000
00001001
00000000
,
00000001
00000100
00001000
00010000
,
01000000
00000000
00100000
00000000
00010000
00000000
00000000
00000000
00000100
00000000
00000001
00000000
00001000
00000001
00001000
00000000
,
00000020
00000000
00000000
00000000
,
00000000
00000000
00000000
00000000
,
00000030
00000000
00000000
00000000
;

//---------------dance-double - t7r-EDP----------------
#NOTES:
     dance-double:
     t7r:
     Hard:
     16:
     :
00000000
00000000
00000000
00000000
,
00000000
00000000
00000000
00000000
,
00000000
00000000
00000000
00000000
,
00000000
00000000
00000000
00000000
,
00000000
00000000
00000000
00000000
,
00000000
00000000
00000000
00000000
,
00000000
00000000
00000000
00000000
,
00000000
00000000
00000000
00000000
,
00000010
00000000
00000000
00000010
00001000
00000000
00000000
00001000
00000001
00000000
00000000
00000001
00000100
00000000
00000000
00000100
,
00000010
00000000
00000000
00000010
00001000
00000000
00000000
00001000
00000100
00000000
00000000
00000100
00010000
00000000
00000000
00010000
,
00001000
00000000
00000000
00001000
01000000
00000000
00000000
01000000
00010000
00000000
00000000
00010000
00100000
00000000
00000000
00100000
,
00010000
10010000
10000000
10000000
,
01000000
00000000
00100000
00000000
00100000
00000000
00010000
00000000
20000000
00000000
00000000
30100000
00000000
10000000
00010000
00000000
,
10000000
01000000
00000000
00100000
00000000
00100000
00000000
00010000
10000000
00010000
00000000
01000000
00010000
00000000
10000000
00000000
,
01000000
00000000
00100000
00010000
00100000
00000000
00001000
00000000
00020000
00000000
00000000
00030010
00001000
00000000
00000001
00000000
,
00001000
00000000
00000100
00001000
00000100
00000000
00001000
00000000
00000001
00000100
00000000
00001000
00010000
00001000
00000000
00010000
,
00001000
00000000
00010000
00000000
00010000
00000000
01000000
00000000
00200000
00000000
00000000
00310000
10000000
00000000
00100000
00000000
,
10000000
00000000
01000000
00000000
00010000
00000000
00001000
00000000
00000200
00000000
00000310
00000000
00000100
00000001
00000100
00000000
,
00000001
00000000
00000010
00000000
00000010
00000000
00000001
00000000
00002000
00000000
00000000
00003010
00010000
00000000
00001000
00000000
,
00011000
00000000
00000000
00010100
00000000
00000000
00011000
00000000
00000000
01001000
00000000
00000000
00011000
00000000
00001000
00000000
,
00010000
00000000
00100000
00000000
01000000
00000000
00010000
00000000
00200000
00000000
00000000
00301000
00010000
00000000
01000000
00000000
,
00100000
00001000
00000000
00010000
00000000
00010000
00000000
00001000
00000010
00000100
00000000
00000010
00000001
00000000
00001000
00000000
,
00000001
00000000
00000010
00000000
00000001
00000000
00000100
00000000
00002000
00000000
00000000
00013000
00001000
00000000
00010000
00000000
,
01000000
00000000
00100000
01000000
00100000
00000000
00010000
00000000
10000000
00000000
00100000
00000000
00010000
00000000
00001000
00010000
,
00001000
00000000
00000100
00000000
00000010
00000000
00001000
00000000
00000200
00000000
00000000
00010300
00001000
00000000
00000010
00000000
,
00000100
00010000
00001000
00000000
00010000
00000000
00010000
00000000
01000000
00000000
00100000
01000000
00000000
10000000
00010000
00000000
,
10000000
00000000
01000000
00000000
10000000
00000000
00100000
00000000
00020000
00000000
00000000
00031000
00010000
00000000
00001000
00000000
,
00011000
00000000
00000000
00010010
00000000
00000000
00011000
00000000
00000000
00101000
00000000
00000000
00011000
00000000
00001000
00000000
,
00010000
00000000
00001000
00000000
00000100
00000000
00000001
00000000
00002000
00000000
00003200
00000000
00001300
00000001
00001000
00000000
,
00000001
00000000
00000100
00000000
00001000
00000000
00010000
00000000
00002000
00000000
00023000
00000000
00031000
01000000
00000000
00010000
,
00100000
00000000
00010000
00000000
01000000
00000000
10000000
00000000
02000000
00000000
03200000
00000000
10300000
00010000
10000000
00000000
,
01000000
00000000
00100000
00000000
00010000
00000000
10000000
00000000
00200000
00000000
00320000
00000000
00031000
00010000
00000000
00010000
,
00001000
00000000
00010000
00000000
00100000
00000000
10000000
00000000
00020000
00000000
00230000
00000000
00310000
10000000
00010000
00000000
,
10000000
00000000
00100000
00000000
00010000
00000000
00001000
00000000
00020000
00000000
00032000
00000000
00013000
00000010
00000000
00001000
,
00000100
00001000
00000010
00000001
00000020
00002030
00003100
00010000
,
00011000
00000000
00000000
00010100
00000000
00000000
00011000
00000000
00000000
00101000
00000000
00000000
00011000
00000000
00001000
00000000
,
02000000
10000000
00100000
03010000
,
10000000
00000000
10000000
01000000
00000000
00000000
00110000
00000000
00000000
10000000
00100000
01000000
,
00002000
00000100
00010000
00103000
,
00001000
00000000
00000000
00001000
00000000
00000000
00011000
00000000
00000000
00010000
00000000
00001000
,
00000100
00000000
00000000
00000010
00000100
00000001
00001000
00000000
00000000
00000001
00000000
00000010
,
00000100
00000000
00000000
00001000
00000000
00000100
00010000
00000000
00011000
00000000
00011000
00000000
,
00010000
00000000
01000000
10000000
00000000
00000000
00100000
01000000
00010000
10000000
00000000
00000000
,
01000000
00000000
00100000
00001000
00000000
00010000
00001000
00000000
00010000
00000100
00001000
00000001
,
00000200
00001000
00000010
00000301
,
00000010
00000100
00010000
00001000
00000000
00000000
00011000
00000000
00011000
00000000
00000000
00000000
,
00200000
10000000
01000000
00310000
,
10000000
00000000
00100000
01000000
00000000
00010000
10000000
00000000
01000000
00100000
00010000
00100000
,
00001000
00000000
00010000
00000100
00010000
00000000
00001000
00000000
00000100
00000000
00000001
00000000
,
00000010
00000000
00000100
00000010
00000000
00000001
00001000
00000000
00000001
00000100
00000001
00001000
,
00000100
00000000
00000010
00000001
00000010
00000000
00000001
00000000
00000100
00000000
00001000
00000000
,
00010000
00000000
00100000
01000000
00000000
00010000
10000000
00000000
01000000
00100000
00001000
00010000
,
00001000
01000000
00010000
00100000
00010000
00100000
01000000
10000000
01000000
00100000
00010000
00100000
,
00001000
00010000
00001000
00000100
00000000
00000001
00001000
00000001
00000010
00000100
00000000
00010000
,
00001000
00100000
00010000
01000000
00010000
01000000
00100000
10000000
00100000
01000000
00010000
01000000
,
00001000
00010000
00001000
00000010
00000000
00000001
00001000
00000001
00000100
00000010
00000000
00010000
,
00001000
00000100
00000010
00000100
00000001
00000010
00000100
00010000
00001000
00010000
00000000
01000000
,
10000000
00100000
01000000
00100000
10000000
00010000
10000000
01000000
00010000
00001000
00000000
00010000
,
00001000
00000010
00000100
00000010
00000001
00000100
00000010
00010000
00001000
00010000
00000000
00100000
,
10000000
01000000
00100000
01000000
10000000
00010000
10000000
00100000
00010000
00001000
00000000
00010000
,
00021000
00000000
01000000
01000000
00000000
00000000
00031000
00000000
00000000
00011000
00000000
00000000
,
00001000
00000010
00000001
00001000
00000000
00000001
00000100
00001000
00010000
00001000
00000000
00000000
,
00010000
00000100
00001000
00000001
00000000
00000100
00000010
00010000
00001000
00010000
00000000
00001000
,
00010000
00100000
10000000
00010000
00000000
10000000
01000000
00100000
00001000
00010000
00000000
00001000
,
00012000
00000000
00000010
00000010
00000000
00000000
00013000
00000000
00000000
00011000
00000000
00000000
,
00010000
01000000
10000000
00010000
00000000
10000000
00100000
00010000
00001000
00010000
00000000
00001000
,
00100000
00010000
10000000
00100000
01000000
00010000
01000000
00001000
00010000
00001000
00000100
00000010
,
00001000
00000000
00000000
00001010
00000000
00001000
00000100
00001000
00000001
00000100
00000010
00001000
,
00000100
00010000
00010000
00001000
00010000
00100000
00100000
01000000
,
00020000
20030000
32000000
03020000
02030000
03200000
00302000
00023000
,
00031000
00000000
00010000
00001000
00010000
00000000
00001000
00000000
00000010
00000000
00000100
00000000
00000100
00000000
00001000
00000000
,
00000002
00000203
00000320
00002030
00003200
00020300
00032000
02003000
,
03010000
00000000
10000000
01000000
10000000
00000000
00010000
00000000
01000000
00100000
10000000
00000000
01000000
00100000
00001000
00000000
,
00020000
02030000
03200000
00302000
00023000
00032000
00003200
00000320
,
00001030
00000000
00000001
00000100
00000010
00000000
00001000
00000000
00000100
00010000
00001000
00000000
00010000
00000000
00100000
00000000
,
02000000
00000000
00000000
00000000
10000000
00000000
00000000
00000000
03100000
00000000
00100000
00000000
10000000
01000000
10000000
01000000
,
10000000
00000000
00000000
10000000
00100000
00000000
01000000
00010000
00000000
10000000
00000000
00010000
00100000
00000000
00001000
00000000
,
00010000
00000000
00000000
00010000
00000010
00000000
00001000
00000100
00000000
00001000
00000000
00000001
00000100
00000000
00000010
00000000
,
00001000
00000000
00000000
00001000
00000001
00000000
00000010
00000100
00000000
00000010
00000000
00000001
00000100
00000000
00001000
00000000
,
00010000
00000000
00000000
00010000
01000000
00000000
00100000
01000000
00000000
00100000
00000000
00010000
10000000
00000000
00100000
00000000
,
10000000
00000000
00000000
01000000
00100000
00000000
01000000
00010000
00000000
00001000
00000000
00000100
00000010
00000000
00000100
00000000
,
00000001
00000000
00000000
00000010
00000100
00000000
00000010
00001000
00000000
00010000
00000000
00100000
01000000
00000000
00100000
00000000
,
10000000
00000000
00000000
00100000
01000000
00000000
00100000
00010000
00000000
00001000
00000000
00000010
00000100
00000000
00000010
00000000
,
00000001
00000000
00000000
00000100
00000010
00000000
00000100
00001000
00000000
00010000
00000000
01000000
00100000
00000000
01000000
00000000
,
10000000
00000000
00100000
10000000
00010000
00000000
10000000
01000000
00000000
00100000
00000000
00010000
10000000
00000000
00100000
00000000
,
00010000
00000000
00001000
00010000
00000010
00000000
00001000
00000100
00000000
00001000
00000000
00000001
00000100
00000000
00000010
00000000
,
00000100
00000000
00000001
00001000
00000100
00000000
00000010
00000001
00000000
00001000
00000000
00000001
00000100
00000000
00001000
00000000
,
00010000
00000000
01000000
00100000
00010000
00000000
10000000
00100000
00000000
01000000
00000000
00100000
10000000
00000000
00010000
00000000
,
10000000
00000000
00010000
00000000
,
00001000
00000000
00000001
00000000
,
00000100
00000100
00001000
00001000
,
00010000
00000000
00010000
00000000
00001000
00000000
00001000
00000000
00000100
00000001
00000010
00000100
00010000
00001000
01000000
00010000
,
20000000
00000000
00000000
00000000
,
00000000
00000000
00000000
00000000
,
30000000
00000000
00000000
00000000
;
