#TITLE:Unseen Horizon;
#ARTIST:Drisello;
#BANNER:Unseen Horizon.png;
#BACKGROUND:Unseen Horizon-bg.png;
#MUSIC:Unseen Horizon.ogg;
#OFFSET:2.666;
#SAMPLESTART:24;
#SAMPLELENGTH:15;
#BPMS:0=90,114=45,116.625=120,147=60,147.5=120,180=60;
#STOPS:116.625=0.313,147.5=0.25;

//---------------dance-single - Marten-bSP----------------
#NOTES:
     dance-single:
     Marten:
     Beginner:
     4:
     :
0000
0000
0000
0000
,
0000
0000
0000
0000
,
0000
0000
0000
0000
,
0000
0000
0000
0000
,
2000
0000
3000
1000
,
0000
0001
0002
0000
,
0003
0001
0000
0100
,
0200
0000
0300
0100
,
0000
0010
0020
0000
,
0030
0010
0000
0100
,
0100
0000
0001
0001
,
0000
1000
1000
0000
,
0010
0010
0000
1000
,
1000
0000
0001
0001
,
0000
0010
0010
0000
,
0100
0100
0000
0000
,
2000
0000
3000
0001
,
0000
0002
0000
0003
,
1000
0000
0200
0000
,
0300
0010
0000
0020
,
0000
0030
0100
0000
,
1000
0000
0000
1000
0000
0000
0001
0000
,
0000
0001
0000
0000
0100
0000
0000
0100
,
0000
0000
0010
0000
0000
0010
0000
0000
,
1000
0000
0000
0100
0000
0000
0010
0000
,
0000
0001
0000
0000
1000
0000
0000
0010
,
0000
0000
0100
0000
0000
0001
0000
0000
,
1001
0000
0000
0110
,
0000
0000
2002
0000
,
0000
0000
0000
0000
0000
3003
0000
0000
0001
0000
0000
0000
0000
0000
0000
0000
0000
0000
0000
0000
0000
0000
0000
0000
1000
0000
0000
0000
0000
0000
0000
0000
,
0000
0001
0000
1000
,
0000
0010
0000
0100
,
0000
0000
0010
0000
,
0100
0000
0001
0000
,
0001
0000
1000
0000
,
1000
0000
0100
0000
,
0100
0000
0000
0000
0020
0000
0000
0030
,
0001
0000
0001
0001
,
0001
0000
1000
1000
,
1000
0000
0010
0010
,
0010
0000
0100
0100
,
0200
0300
0001
0000
,
1000
0000
0100
0000
,
0010
0000
0001
0000
,
1000
1000
0001
0001
,
0200
0300
0001
1000
,
0200
0300
0010
0020
,
0030
0000
0000
0000
;

//---------------dance-single - Marten-BSP----------------
#NOTES:
     dance-single:
     Marten:
     Easy:
     7:
     :
0000
0000
0000
0000
,
0000
0000
0000
0000
,
0000
0000
0000
0000
,
0000
0000
0000
0000
,
2000
3200
0320
0032
,
0000
1000
1003
0000
0002
0000
0203
0000
,
0320
0000
2030
0000
0000
0001
3001
0000
,
0200
0320
2030
3200
,
0000
0010
0310
0000
0200
0000
0320
0000
,
0032
0000
0203
0000
0000
0010
0310
0000
,
0100
1001
1010
0102
,
0000
1000
1003
0000
0100
0000
1010
0000
,
1001
0000
0021
0000
0000
0000
0100
0100
,
0130
0110
1001
2100
,
0000
0001
3001
0000
0100
0000
0010
0000
,
0110
0000
1002
0000
0000
1000
1003
1000
,
0200
0000
0000
0310
0000
0100
0100
0000
,
0000
0000
0200
0000
0000
0310
0000
0100
,
0100
0000
2000
0000
0000
3010
0000
0100
,
0100
0000
0000
0002
,
0000
0000
0013
0000
0000
0000
0100
0000
0100
0000
0100
0000
0000
0100
0000
0000
,
1000
0001
0001
0100
0000
0100
0001
1000
,
1000
0100
0000
0100
0010
0001
0001
1000
,
0000
0010
0100
0010
0010
1000
0000
0001
,
0200
0000
0000
0310
0000
0100
0100
0000
,
0001
0001
0000
1000
2000
0000
0000
3010
,
0000
0100
0100
0000
0001
1000
0001
0001
,
0100
0100
0000
0002
0000
0000
1003
1000
,
0000
0000
0200
0000
0000
0000
0000
0000
0310
0010
0000
0002
0000
0000
0000
0000
,
0000
0000
0000
0000
0000
0000
0000
0000
0000
0000
0000
0000
0000
0000
0000
0000
0000
0000
0000
0000
0000
0000
0000
0000
0000
0000
0000
0000
0000
0000
1003
0000
0000
0000
0000
0000
0000
0000
0000
0000
0000
0000
0000
0000
0000
0000
0000
0000
1001
0000
0000
0000
0000
0000
0000
0000
0000
0000
0000
0000
0000
0000
0000
0000
0000
0000
0000
0000
0000
0000
0000
0000
0000
0000
0000
0000
0000
0000
0000
0000
0000
0000
0000
0000
0000
0000
0000
0000
0000
0000
0000
0000
0000
0000
0000
0000
1000
0000
0000
0000
0000
0000
0000
0000
0000
0000
0000
0000
0000
0000
0000
0000
0000
0000
0000
0000
0000
0000
0000
0000
0000
0000
0000
0000
0000
0000
0000
0000
1000
0000
0000
0000
0000
0000
0000
0000
0000
0000
0000
0000
0000
0000
0000
0000
0100
0000
0000
0000
0000
0000
0000
0000
0000
0000
0000
0000
0000
0000
0000
0000
0000
0000
0000
0000
0000
0000
0000
0000
0000
0000
0000
0000
0000
0000
0000
0000
0000
0000
0000
0000
0000
0000
0000
0000
0000
0000
0000
0000
0000
0000
0000
0000
,
0010
0000
0000
0001
0000
0000
0100
0000
0100
0010
0000
0000
,
0100
0000
0000
0001
0000
0000
1000
0000
1000
0100
0000
0000
,
0010
0000
0000
0001
0000
0000
0100
0000
0100
0010
0000
0010
,
1000
0000
1000
0001
0000
0000
0011
0000
0000
0100
0000
0000
,
1000
0000
0001
0100
0000
0000
0110
0000
0000
1000
0000
0000
,
0001
0000
1000
0010
0000
0000
0110
0000
0000
0100
0000
0000
,
0001
0000
0000
0000
0010
0000
0100
0000
0000
0000
0000
0000
1000
0000
0001
0000
2000
0000
0000
0000
0000
3010
0000
0000
,
0120
0000
1030
0000
0001
0000
1000
1000
,
0100
0000
0000
0000
0000
0000
0110
0000
0000
0000
0000
0000
0010
0000
0000
0000
0001
0000
0010
0000
0000
0010
0000
0000
,
0100
0000
1001
0000
0001
0000
0100
0100
,
0010
0000
1000
0000
0001
0001
1000
1000
,
0020
0000
0000
0000
0000
0000
0130
0000
0000
0000
0000
0000
0001
0000
0000
0000
1000
0000
0001
0000
0000
0001
0000
0000
,
1000
0000
0000
0000
0000
0000
0100
0000
0000
0000
0100
0000
0010
0000
0000
0000
0010
0000
0001
0000
0000
0001
0000
0000
,
1000
0000
1001
0000
0100
0000
0010
0010
,
1000
0000
0001
0000
1000
1000
0001
0001
,
0200
0000
0000
0300
0000
0000
0001
0000
0001
1000
0000
1000
,
0200
0000
0000
0300
0000
0000
1000
0000
1000
0020
0000
0000
,
0030
0000
0000
0000
;

//---------------dance-single - Marten-DSP----------------
#NOTES:
     dance-single:
     Marten:
     Medium:
     10:
     :
0000
0000
0000
0000
,
0000
0000
0000
0000
,
0000
0000
0000
0000
,
0000
0000
0000
0000
,
0002
2003
3020
0230
,
0000
0001
0301
0000
2000
0000
3002
0000
,
0023
0000
0230
0010
0310
0001
1000
0001
,
0200
0320
2030
3002
,
0000
0010
0013
0000
0200
0000
0320
0000
,
0032
0000
2003
0010
3010
0100
0010
0010
,
1000
0000
1001
0000
0001
0010
0020
0100
,
0130
1000
0001
0000
0100
0000
0101
0000
,
1001
0000
2010
0000
3100
0010
0001
0001
,
1000
0000
1001
0000
0100
0010
0020
0000
,
1030
0100
1000
0000
0001
0000
1001
0000
,
0010
0001
0002
0000
0103
0001
0010
0100
,
2100
0000
0000
3010
0100
0110
0110
0000
,
0000
0000
0102
0000
0000
0013
0100
0110
,
0110
0000
0000
0000
1020
0000
0000
0130
,
0001
1000
1000
0001
0100
0001
0021
0000
,
0000
0000
0130
0000
1000
0000
0001
0000
0001
0000
1000
0001
0000
1000
0001
0000
,
0200
0010
0310
1000
0001
0010
0200
0010
,
0310
0001
1000
0001
0020
0100
0130
1000
,
0001
1000
0020
0100
0130
0001
1000
0001
,
2000
0100
3100
0010
0001
1000
0002
0100
,
0103
0010
1000
0001
0020
0100
0130
1000
,
0001
1000
0020
0100
0130
0001
1000
0001
,
0100
0001
0100
0000
0000
0000
0020
0000
0000
0000
0000
0000
1030
0100
1000
0000
,
0000
0000
0002
0000
0000
0000
0000
0000
0103
0100
0000
0020
0000
0000
0000
0000
,
0000
0000
0000
0000
0000
0000
0000
0000
0000
0000
0000
0000
0000
0000
0000
0000
0000
0000
0000
0000
0000
0000
0000
0000
0000
0000
0000
0000
0000
0000
0130
0000
0000
0000
0000
0000
0000
0000
0000
0000
0000
0000
0000
0000
0000
0000
0000
0000
1001
0000
0000
0000
0000
0000
0000
0000
0000
0000
0000
0000
0000
0000
0000
0000
0000
0000
0000
0000
0000
0000
0000
0000
0000
0000
0000
0000
0000
0000
0000
0000
0001
0000
0000
0000
0000
0000
0000
0000
0000
0000
0000
0000
0000
0000
0000
0000
0010
0000
0000
0000
0000
0000
0000
0000
0000
0000
0000
0000
0000
0000
0000
0000
0000
0000
0000
0000
0000
0000
0000
0000
0000
0000
0000
0000
0000
0000
0000
0000
0010
0000
0000
0000
0000
0000
0000
0000
0000
0000
0000
0000
0000
0000
0000
0000
0001
0000
0000
0000
0000
0000
0000
0000
0000
0000
0000
0000
0000
0000
0000
0000
0000
0000
0000
0000
0000
0000
0000
0000
0000
0000
0000
0000
0000
0000
0000
0000
0001
0000
0000
0000
0000
0000
0000
0000
0000
0000
0000
0000
0000
0000
0000
0000
,
1000
0000
0010
0100
0000
0100
0010
0000
0010
1000
0000
1000
,
0001
0000
0010
0001
0000
0001
0100
0000
0100
0010
0000
0010
,
0100
0000
0001
1000
0000
1000
0100
0000
0100
0010
0000
0010
,
0001
1000
0001
0100
0000
0001
1000
0000
0100
0010
0000
0001
,
0010
0000
0100
1000
0000
0001
0100
0000
0010
0100
0000
0001
,
1000
0000
0100
0010
0000
0001
0010
0000
0100
0010
0000
0001
,
1000
0000
0000
0000
0010
0000
0100
0000
0000
0000
0001
0000
1000
0000
0001
0000
0200
0000
0000
0000
0000
0310
0000
0000
,
2001
0000
0000
0000
0000
0000
3100
0000
0010
0000
0100
0000
1000
0000
0000
0000
0001
0000
0100
0000
0000
0010
0000
0000
,
0100
0000
0000
0000
0001
0000
0010
0000
0001
0000
0010
0000
0100
0000
0000
0000
1000
0000
0001
0000
0000
0100
0000
0000
,
0001
0000
0000
0000
0000
0000
1000
0000
0010
0000
1000
0000
0010
0000
0000
0000
0100
0000
0010
0000
0000
1000
0000
0000
,
0001
0000
0000
0000
0000
0000
0010
0000
0001
0000
0010
0000
0100
0000
0000
0000
1000
0000
0001
0000
0000
1000
0000
0000
,
0020
0000
0000
0000
0000
0000
0130
0000
0001
0000
1000
0000
0001
0000
0000
0000
0010
0000
0001
0000
0000
1000
0000
0000
,
0010
0000
0000
0000
0000
0000
0100
0000
0010
0000
0100
0000
0010
0000
0000
0000
1000
0000
0001
0000
0000
0010
0000
0000
,
0100
0000
0000
0000
0000
0000
1000
0000
0100
0000
0010
0000
0001
0000
0000
0000
0100
0000
0001
0000
0000
0100
0000
0000
,
0001
0000
0010
0000
0001
0000
1000
0000
0100
0000
1000
0000
0010
0000
1000
0000
0010
0000
0100
0000
0000
0001
0000
0000
,
0020
0000
0000
0030
0000
0000
0001
0001
0001
1000
1000
1000
,
0020
0000
0000
0030
0000
0000
1000
1000
1000
0100
0100
0100
;

//---------------dance-single - Marten-ESP----------------
#NOTES:
     dance-single:
     Marten:
     Hard:
     13:
     :
0000
0000
0000
0000
,
0000
0000
0000
0000
,
0000
0000
0000
0000
,
0000
0000
0000
0000
,
0002
0010
2003
0010
3002
0100
2003
0100
,
3001
0010
0110
0000
2000
0100
3002
0100
,
2003
0010
3002
0010
1003
0100
0010
0001
,
2000
0010
3200
0010
0320
1000
0032
0100
,
0013
0100
0110
0000
0002
0010
0203
0010
,
0320
0001
2030
0100
3010
0100
0110
1001
,
1100
0010
0001
1000
0010
0110
0101
0001
,
1000
0100
0010
0011
1100
0010
1010
0100
,
0001
0000
1001
0000
0110
0000
0100
0000
0012
0000
1003
0000
0100
0010
0000
0010
,
0100
0010
0011
1000
0010
0110
0101
0001
,
0010
1000
0010
0011
1010
0010
0100
0001
,
0100
0110
1001
0001
0010
1000
0100
0001
,
2001
0000
0000
3010
0100
0101
1100
0000
,
0000
0000
1002
0000
0000
0013
0100
1100
,
0101
0000
0000
0000
0000
0000
0000
0000
1002
0000
0103
0001
0010
1000
0010
0000
,
0100
0000
0011
0000
1010
0000
0001
0010
0000
1000
0010
0000
2001
0000
3100
1000
,
0010
0000
0001
0000
0010
0000
0000
0000
0100
0000
0000
0000
1010
0000
0000
0000
0011
0000
0000
0000
0100
1000
0100
1000
0100
0000
0010
0001
0010
0001
0010
0000
,
0002
0000
1003
0010
0100
1000
0100
0010
1000
0001
0010
0100
1000
0000
0010
1000
,
0001
1000
0010
0001
0010
0100
0001
1000
0100
0000
0010
0001
0010
0100
0010
0001
,
1000
0010
0001
0010
0100
0000
0001
1000
0100
1000
0001
0010
1000
0010
0001
0100
,
0010
0000
1000
0010
0001
1000
0100
0001
1000
0100
0010
0100
1000
0000
0001
0010
,
1000
0001
0100
1000
0001
0100
0010
0100
0001
0000
1000
0100
0010
0001
0010
0001
,
0100
0000
0010
0100
0010
0000
1000
0010
1000
0000
0000
0000
0001
0000
0010
0000
1000
0000
0010
0000
0001
0000
0100
0010
0100
0000
0001
0000
1000
0100
1000
0000
,
0001
0001
0001
0000
0000
0000
1000
0000
1000
0000
1000
0000
0010
0010
0010
0000
,
0000
0000
0200
0000
0000
0000
0000
0000
0301
0001
0000
2000
0000
0000
0000
0000
,
0000
0000
0000
0000
0000
0000
0000
0000
0000
0000
0000
0000
0000
0000
0000
0000
0000
0000
0000
0000
0000
0000
0000
0000
0000
0000
0000
0000
0000
0000
3001
0000
0000
0000
0000
0000
0000
0000
0000
0000
0000
0000
0000
0000
0000
0000
0000
0000
1001
0000
0000
0000
0000
0000
0000
0000
0000
0000
0000
0000
0000
0000
0000
0000
0000
0000
0000
0000
0000
0000
0000
0000
0000
0000
0000
0000
0000
0000
0000
0000
0001
0000
0000
0000
0000
0000
0000
0000
0000
0000
0000
0000
0000
0000
0000
0000
0010
0000
0000
0000
0000
0000
0000
0000
0000
0000
0000
0000
0000
0000
0000
0000
0001
0000
0000
0000
0000
0000
0000
0000
0000
0000
0000
0000
0000
0000
0000
0000
1000
0000
0000
0000
0000
0000
0000
0000
0000
0000
0000
0000
0000
0000
0000
0000
0010
0000
0000
0000
0000
0000
0000
0000
0000
0000
0000
0000
0000
0000
0000
0000
0100
0000
0000
0000
0000
0000
0000
0000
0000
0000
0000
0000
0000
0000
0000
0000
0001
0000
0000
0000
0000
0000
0000
0000
0000
0000
0000
0000
0000
0000
0000
0000
,
1000
0100
0010
0001
0000
1000
0100
1000
0010
0100
0010
1000
,
0001
0010
0100
1000
0000
0010
0100
1000
0001
0010
0100
0001
,
0010
0100
1000
0001
0000
0010
0100
0001
1000
0010
0100
1000
,
0010
0000
0100
0000
0001
0000
1000
0000
0000
0000
0000
0000
0001
0000
0100
0000
0010
0000
1000
0000
0001
0010
0001
0000
,
1000
0000
0010
1000
0010
0000
0100
0000
0000
0000
0001
0000
1000
0000
0010
0000
0100
0000
0001
0000
0010
0000
0100
0000
,
1000
0000
0010
1000
0010
0000
0100
0000
0000
0000
0000
0000
0001
0000
0010
0000
0100
0000
0010
0000
0001
0000
1000
0000
,
0010
0000
0100
0010
0100
0000
0001
0000
0000
0000
1000
0100
1000
0000
0001
0000
0200
0000
0000
0000
0000
0301
0000
0000
,
0120
0000
0000
0000
0000
0000
0000
0000
0000
0000
0000
0000
1030
0000
0000
0000
0100
0000
0000
0000
0010
0000
0000
0000
0100
0000
0000
0000
1000
0000
0001
0000
1000
0000
0000
0000
0001
0000
0000
0100
0000
0000
0001
0000
0000
0010
0000
0000
,
0100
0000
0000
0000
0000
0000
0000
0000
1000
0000
0000
0000
0100
0000
0000
0000
0010
0000
0000
0000
0001
0000
0000
0000
0100
0000
0000
0000
0001
0000
0000
0000
1000
0000
0010
0000
1000
0000
0000
0100
0000
0000
0010
0000
0000
0001
0000
0000
,
1000
0000
0000
0000
0000
0000
0000
0000
0000
0000
0000
0000
0001
0000
0000
0000
0100
0000
0000
0000
0010
0000
0000
0000
0001
0000
0000
0000
0010
0000
0000
0000
1000
0000
0000
0000
0001
0000
0000
0010
0000
0000
0001
0000
0000
1000
0000
0000
,
0100
0000
0000
0000
0000
0000
0000
0000
0000
0000
0000
0000
0010
0000
0000
0000
0001
0000
0000
0000
0100
0000
0000
0000
0010
0000
0000
0000
1000
0000
0001
0000
1000
0000
0000
0000
0100
0000
0000
0010
0000
0000
0100
0000
0000
1000
0000
0000
,
0002
0000
0000
0000
0000
0000
0000
0000
0000
0000
0000
0000
0103
0000
0000
0000
0001
0000
0000
0000
1000
0000
0000
0000
0100
0000
0000
0000
1000
0000
0010
0000
1000
0000
0000
0000
0001
0000
0000
0010
0000
0000
0001
0000
0000
1000
0000
0000
,
0010
0000
0000
0000
0000
0000
0000
0000
0100
0000
0000
0000
0001
0000
0000
0000
1000
0000
0000
0000
0010
0000
0000
0000
1000
0000
0000
0000
0100
0000
0010
0000
0100
0000
0000
0000
1000
0000
0000
0001
0000
0000
1000
0000
0000
0010
0000
0000
,
0100
0000
0000
0000
0001
0000
0010
0000
0100
0000
0001
0000
0100
0000
1000
0000
0010
1000
0010
0000
0000
0100
0000
0000
,
0001
0000
0000
0000
0010
0000
0000
0000
1000
0000
0000
0000
0001
0000
0000
0000
0100
0000
0000
0000
1000
0000
0000
0000
0001
0000
0000
0000
1000
0000
0000
0000
0001
0000
1000
0000
0001
0000
0000
0100
0000
0000
0001
0000
0000
1000
0000
0000
,
0200
0000
0000
0300
0000
0000
1000
1000
1000
0001
0001
0001
,
0200
0000
0000
0300
0000
0000
0001
0001
0001
0010
0010
0010
;

//---------------dance-single - Marten-CSP----------------
#NOTES:
     dance-single:
     Marten:
     Challenge:
     16:
     :
0000
0000
0000
0000
,
0000
0000
0000
0000
,
0000
0000
0000
0000
,
0000
0000
0000
0000
,
2000
0001
3200
1000
0320
1000
0032
0100
,
1003
0010
1010
1000
0002
1000
0203
0001
,
0320
0001
2030
0100
3001
0011
1001
1010
,
2000
0001
3020
0001
0230
1000
0302
0010
,
0103
0001
0101
0100
0002
1000
0023
1000
,
0230
0001
2300
0010
3100
1100
1001
0101
,
0010
0100
1001
0100
1100
0011
0101
0001
,
1001
1000
1010
0110
0110
0100
1001
0001
,
0011
0000
0100
0000
1001
0000
0010
0000
2010
0000
0001
0000
3100
0100
0000
0010
,
0011
0100
1010
0100
0101
1001
1100
1000
,
1001
0010
0001
0101
1100
1000
0110
0001
,
0011
1100
1010
0100
0101
0010
1000
0100
,
1002
0000
0000
0013
1000
1100
0101
0000
,
0000
0000
2001
0000
0000
3010
0001
0101
,
1100
0000
0000
0000
0000
0000
0000
0000
0000
0000
0000
0000
0000
0000
0000
0000
2001
0000
0000
3000
0010
0000
0001
0000
0010
0000
1000
0000
1001
0000
0000
0000
,
1100
0000
0000
0000
1010
0000
0000
0000
0101
0000
0000
0000
0001
0000
1000
0010
1000
0000
0100
0000
0010
0001
0010
0000
1002
0000
0000
0003
0010
0000
1000
0000
,
0010
0000
0001
0000
1001
0000
0000
0000
0101
0000
0000
0000
0011
0000
0000
0000
1100
0000
0000
0000
0001
0100
0010
1000
0001
0000
1000
0100
0010
0001
1000
0000
,
0200
0000
0000
0300
1000
0000
0010
0000
0100
0000
0001
0000
0010
0000
1000
0000
0010
0000
0001
0000
1000
0000
0100
0000
0020
0000
0000
0030
0001
0000
0100
0000
,
1000
0000
0100
0000
0001
0000
0010
0000
0100
0000
0010
0000
0001
0000
1000
0000
0020
0000
0000
0030
0100
0000
0001
0000
1000
0000
0100
0000
0001
0000
0100
0000
,
1000
0000
0010
0000
0100
0000
0001
0000
0200
0000
0000
0300
0001
0000
0010
0000
1000
0000
0001
0000
0100
0000
1000
0000
0010
0000
1000
0000
0001
0000
0100
0000
,
0020
0000
0000
0030
1000
0000
0100
0000
0010
0000
0100
0000
1000
0000
0010
1000
0010
0000
0100
0000
0001
0010
0001
0010
0200
0000
0000
0300
1000
0001
1000
0000
,
0010
0000
0100
0001
0100
0000
0010
1000
0010
0000
0100
0000
0001
1000
0001
1000
0200
0000
0000
0300
0010
0000
0001
0000
1000
0000
0010
0000
0100
0010
0100
0010
,
1000
0000
0001
0000
0010
0001
0010
0100
0010
0000
0001
0000
1000
0000
0010
0000
0100
0000
0001
0000
1000
0100
0010
0100
1000
0001
1000
0001
0100
0001
1000
0100
,
1000
1000
1000
0000
0000
0000
0001
0000
0001
0000
0001
0000
0100
0100
0100
0000
,
0000
0000
0000
0000
0020
0000
0000
0000
0000
0000
0000
0000
0000
0000
0000
0000
1030
1000
1000
0000
0000
0000
0002
0000
0000
0000
0000
0000
0000
0000
0000
0000
,
0000
0000
0000
0000
0000
0000
0000
0000
0000
0000
0000
0000
0000
0000
0000
0000
0000
0000
0000
0000
0000
0000
0000
0000
0000
0000
0000
0000
0000
0000
1003
0000
0000
0000
0000
0000
0000
0000
0000
0000
0000
0000
0000
0000
0000
0000
0000
0000
0001
0000
0000
0000
0000
0000
0000
0000
0000
0000
0000
0000
0000
0000
0000
0000
0010
0000
0000
0000
0000
0000
0000
0000
0000
0000
0000
0000
0000
0000
0000
0000
0100
0000
0000
0000
0000
0000
0000
0000
0000
0000
0000
0000
0000
0000
0000
0000
0001
0000
0000
0000
0000
0000
0000
0000
0000
0000
0000
0000
0000
0000
0000
0000
0100
0000
0000
0000
0000
0000
0000
0000
0000
0000
0000
0000
0000
0000
0000
0000
1000
0000
0000
0000
0000
0000
0000
0000
0000
0000
0000
0000
0000
0000
0000
0000
0010
0000
0000
0000
0000
0000
0000
0000
0000
0000
0000
0000
0000
0000
0000
0000
0100
0000
0000
0000
0000
0000
0000
0000
0000
0000
0000
0000
0000
0000
0000
0000
1000
0000
0000
0000
0000
0000
0000
0000
0000
0000
0000
0000
0000
0000
0000
0000
,
0001
0010
1000
0100
0010
0001
1000
0010
0001
1000
0100
0010
,
1000
0001
0010
0100
0010
0001
1000
0100
0001
1000
0010
0001
,
0100
0010
0001
0010
1000
0001
0100
1000
0100
0010
1000
0100
,
0001
0000
0100
0000
1000
0000
0010
0000
1000
0000
0100
0000
0010
0000
0001
0000
0100
0000
0010
0000
1000
0100
1000
0000
,
0001
0000
0010
0100
0010
0000
0100
0000
1000
0000
0010
0000
0100
0001
0100
0010
0100
0001
0100
0000
0001
0000
0010
0100
,
0010
0000
0001
0000
0010
0100
0010
0000
0001
0000
0100
0000
0010
0000
1000
0000
0100
0000
0010
0000
0001
1000
0001
1000
,
0010
0000
0100
0001
0100
0000
0010
0000
1000
0001
1000
0100
0010
0000
0001
0000
2000
0000
0000
0000
0000
3010
0000
0000
,
0210
0000
0000
0000
0000
0000
0000
0000
0000
0000
0300
0000
0001
0000
0000
0000
1000
0000
0100
0000
1000
0000
0000
0000
0001
0000
0000
0000
0100
0000
0010
0000
0100
0000
0000
0000
0001
0000
0000
0010
0000
0000
0100
0000
0000
0001
0000
0000
,
0100
0000
0000
0000
1000
0000
0010
0000
1000
0000
0000
0000
0001
0000
0100
0000
0010
0000
0100
0000
0001
0000
1000
0000
0001
0000
0000
0000
0010
0000
0000
0000
0100
0000
1000
0000
0100
0000
0000
0010
0000
0000
0001
0000
0000
1000
0000
0000
,
0010
0000
0000
0000
0001
0000
0000
0000
0010
0000
1000
0000
0001
0000
0000
0000
0010
0000
0000
0000
0100
0000
0000
0000
1000
0000
0000
0000
0010
0000
1000
0000
0010
0000
0100
0000
0001
0000
0000
1000
0000
0000
0010
0000
0000
0100
0000
0000
,
1000
0000
0000
0000
0000
0000
0000
0000
0000
0000
0000
0000
0000
0000
0000
0000
0100
0000
0000
0000
0000
0000
0000
0000
0001
0000
0000
0000
0000
0000
0000
0000
0100
0000
0000
0000
0000
0000
0000
0000
0001
0000
0000
0000
0000
0000
0000
0000
0010
0000
0000
0000
0000
0000
0000
0000
0000
0000
0000
0000
0000
0000
0000
0000
0100
0000
0000
0000
0000
0000
0000
0000
0000
0000
0000
0000
0000
0000
0000
0000
1000
0000
0000
0000
0000
0000
0000
0000
0000
0000
0000
0000
0000
0000
0000
0000
0001
0000
0000
0000
0000
0000
0000
0000
0010
0000
0000
0000
0000
0000
0000
0000
0001
0000
0000
0000
0000
0000
0000
0000
1000
0000
0000
0000
0000
0000
0000
0000
0001
0000
0000
0000
0000
0000
0000
0000
0100
0000
0000
0000
0000
0000
0000
0000
0010
0000
0000
0000
0000
0000
0000
0000
0000
0000
0000
0000
1000
0000
0000
0000
0000
0000
0001
0000
0000
0000
0000
0000
1000
0000
0000
0000
0000
0000
0000
0000
0000
0000
0000
0000
0100
0000
0000
0000
0000
0000
0000
0000
0000
0000
0000
0000
,
0020
0000
0000
0000
0000
0000
0000
0000
0000
0000
0030
0000
0001
0000
0000
0000
1000
0000
0000
0000
0010
0000
0000
0000
0100
0000
0000
0000
0001
0000
1000
0000
0001
0000
0010
0000
0100
0000
0000
1000
0000
0000
0001
0000
0000
0100
0000
0000
,
0010
0000
0000
0000
1000
0000
0100
0000
1000
0000
0000
0000
0001
0000
0010
0000
0001
0000
0000
0000
0010
0000
0100
0000
0010
0000
0000
0000
0001
0000
0000
0000
1000
0000
0010
0000
1000
0000
0000
0010
0000
0000
0100
0000
0000
1000
0000
0000
,
0100
0000
0000
0000
0010
0000
0000
0000
1000
0000
0001
0000
0010
0000
0000
0000
0100
0000
0000
0000
1000
0000
0001
0000
0100
0000
0000
0000
0010
0000
1000
0000
0010
0000
0100
0000
0001
0000
0000
0010
0000
0000
0100
0000
0000
1000
0000
0000
,
0001
0000
0000
0000
0000
0000
0000
0000
0100
0000
0000
0000
0000
0000
0000
0000
0010
0000
0000
0000
0000
0000
0000
0000
0100
0000
0000
0000
0000
0000
0000
0000
0001
0000
0000
0000
0000
0000
0000
0000
1000
0000
0000
0000
0000
0000
0000
0000
0100
0000
0000
0000
0000
0000
0000
0000
1000
0000
0000
0000
0000
0000
0000
0000
0001
0000
0000
0000
0000
0000
0000
0000
1000
0000
0000
0000
0000
0000
0000
0000
0010
0000
0000
0000
0000
0000
0000
0000
0100
0000
0000
0000
0000
0000
0000
0000
0001
0000
0000
0000
0000
0000
0000
0000
0010
0000
0000
0000
0000
0000
0000
0000
0100
0000
0000
0000
0000
0000
0000
0000
0010
0000
0000
0000
0000
0000
0000
0000
0100
0000
0000
0000
0000
0000
0000
0000
1000
0000
0000
0000
0000
0000
0000
0000
0001
0000
0000
0000
0000
0000
1000
0000
0000
0000
0000
0000
0001
0000
0000
0000
0000
0000
0000
0000
0000
0000
0000
0000
0100
0000
0000
0000
0000
0000
0000
0000
0000
0000
0000
0000
0010
0000
0000
0000
0000
0000
0000
0000
0000
0000
0000
0000
,
2000
0000
0000
3000
0000
0000
0010
0010
0010
0100
0100
0100
,
0002
0000
0000
0003
0000
0000
0010
0010
0010
0100
0100
0100
;

//---------------dance-double - NewbStepper-BDP----------------
#NOTES:
     dance-double:
     NewbStepper:
     Easy:
     7:
     :
00000000
00000000
00000000
00000000
,
00000000
00000000
00000000
00000000
,
00000000
00000000
00000000
00000000
,
00000000
00000000
00000000
00000000
,
00020000
02030000
03200000
20300000
,
00000000
00010000
30010000
00000000
00002000
00000000
00003200
00000000
,
00000320
00000000
00000032
00000000
00000000
00001000
00001003
00000000
,
00000200
00000320
00002030
00023000
,
00000000
00001000
00031000
00000000
02000000
00000000
03200000
00000000
,
00320000
00000000
00032000
00000000
00000000
00010000
00013000
00000000
,
01000000
10010000
10100000
01020000
,
00000000
00001000
00031000
00000000
00000100
00000000
00001010
00000000
,
00001001
00000000
00000021
00000000
00000000
00000000
00000100
00000100
,
00000130
00000110
00001001
00002100
,
00000000
00010000
00013000
00000000
01000000
00000000
00110000
00000000
,
10010000
00000000
20100000
00000000
00000000
01000000
31000000
01000000
,
00020000
00000000
00000000
00030010
00000000
00000100
00000100
00000000
,
00000000
00000000
00002000
00000000
00000000
00103000
00000000
01000000
,
01000000
00000000
00000000
00000000
00020000
00000000
00000000
00030100
,
00000000
00000010
00000010
00000010
00000010
00000000
00002000
00000000
,
00000000
00000000
01003000
00000000
00000000
00000000
00100000
00000000
00100000
00000000
00100000
00000000
00000000
00100000
00000000
00000000
,
10000000
00010000
00010000
01000000
00000000
01000000
00100000
00010000
,
00010000
00001000
00000000
00001000
00000100
00000001
00000001
00001000
,
00000000
00000010
00000100
00000010
00000010
00001000
00000000
00010000
,
02000000
00000000
00000000
03100000
00000000
10000000
10000000
00000000
,
00010000
00010000
00000000
00100000
00200000
00000000
00000000
00301000
,
00000000
00010000
00010000
00000000
00000100
00001000
00000100
00000100
,
00000001
00000001
00000000
00000200
00000000
00000000
00001300
00001000
,
00000000
00000000
00000020
00000000
00000000
00000000
00000000
00000000
00010030
00010000
00000000
00002000
00000000
00000000
00000000
00000000
,
00000000
00000000
00000000
00000000
00000000
00000000
00000000
00000000
00000000
00000000
00000000
00000000
00000000
00000000
00000000
00000000
00000000
00000000
00000000
00000000
00000000
00000000
00000000
00000000
00000000
00000000
00000000
00000000
00000000
00000000
00013000
00000000
00000000
00000000
00000000
00000000
00000000
00000000
00000000
00000000
00000000
00000000
00000000
00000000
00000000
00000000
00000000
00000000
00011000
00000000
00000000
00000000
00000000
00000000
00000000
00000000
00000000
00000000
00000000
00000000
00000000
00000000
00000000
00000000
00000000
00000000
00000000
00000000
00000000
00000000
00000000
00000000
00000000
00000000
00000000
00000000
00000000
00000000
00000000
00000000
00000000
00000000
00000000
00000000
00000000
00000000
00000000
00000000
00000000
00000000
00000000
00000000
00000000
00000000
00000000
00000000
00100000
00000000
00000000
00000000
00000000
00000000
00000000
00000000
00000000
00000000
00000000
00000000
00000000
00000000
00000000
00000000
00000000
00000000
00000000
00000000
00000000
00000000
00000000
00000000
00000000
00000000
00000000
00000000
00000000
00000000
00000000
00000000
00100000
00000000
00000000
00000000
00000000
00000000
00000000
00000000
00000000
00000000
00000000
00000000
00000000
00000000
00000000
00000000
01000000
00000000
00000000
00000000
00000000
00000000
00000000
00000000
00000000
00000000
00000000
00000000
00000000
00000000
00000000
00000000
00000000
00000000
00000000
00000000
00000000
00000000
00000000
00000000
00000000
00000000
00000000
00000000
00000000
00000000
00000000
00000000
00000000
00000000
00000000
00000000
00000000
00000000
00000000
00000000
00000000
00000000
00000000
00000000
00000000
00000000
00000000
00000000
,
10000000
00000000
00000000
00100000
00000000
00000000
01000000
00000000
01000000
00010000
00000000
00000000
,
00001000
00000000
00000000
00000010
00000000
00000000
00000100
00000000
00000100
00000001
00000000
00000000
,
00000010
00000000
00000000
00001000
00000000
00000000
00010000
00000000
00010000
00100000
00000000
00100000
,
10000000
00000000
10000000
00010000
00000000
00000000
00110000
00000000
00000000
01000000
00000000
00000000
,
10000000
00000000
00010000
01000000
00000000
00000000
01100000
00000000
00000000
00010000
00000000
00000000
,
00001000
00000000
00000100
00000010
00000000
00000000
00000110
00000000
00000000
00000100
00000000
00000000
,
00000001
00000000
00000000
00000000
00000010
00000000
00000100
00000000
00000000
00000000
00000000
00000000
00001000
00000000
00000001
00000000
00002000
00000000
00000000
00000000
00000000
00003010
00000000
00000000
,
00000120
00000000
00010030
00000000
00001000
00000000
00010000
00010000
,
01000000
00000000
00000000
00000000
00000000
00000000
01100000
00000000
00000000
00000000
00000000
00000000
00100000
00000000
00000000
00000000
00010000
00000000
00100000
00000000
00000000
00100000
00000000
00000000
,
00001000
00000000
00011000
00000000
00100000
00000000
10000000
10000000
,
01000000
00000000
00010000
00000000
00001000
00001000
00010000
00010000
,
00000020
00000000
00000000
00000000
00000000
00000000
00000130
00000000
00000000
00000000
00000000
00000000
00000001
00000000
00000000
00000000
00001000
00000000
00000001
00000000
00000000
00000001
00000000
00000000
,
00000100
00000000
00000000
00000000
00000000
00000000
00000010
00000000
00000000
00000000
00000010
00000000
00001000
00000000
00000000
00000000
00001000
00000000
00000001
00000000
00000000
00000001
00000000
00000000
,
00000100
00000000
00001001
00000000
00000100
00000000
00001000
00001000
,
00010000
00000000
00100000
00000000
10000000
10000000
00010000
00010000
,
02000000
00000000
00000000
03000000
00000000
00000000
00010000
00000000
00010000
10000000
00000000
10000000
,
02000000
00000000
00000000
03000000
00000000
00000000
00010000
00000000
00010000
00002000
00000000
00000000
,
00003000
00000000
00000000
00000000
;

//---------------dance-double - NewbStepper-DDP----------------
#NOTES:
     dance-double:
     NewbStepper:
     Medium:
     10:
     :
00000000
00000000
00000000
00000000
,
00000000
00000000
00000000
00000000
,
00000000
00000000
00000000
00000000
,
00000000
00000000
00000000
00000000
,
00200000
02300000
03020000
00032000
,
00000000
00010000
00013000
00000000
00000020
00000000
00000230
00000000
,
00002300
00000000
00023000
00000000
00000000
00001000
00031000
00000100
,
00000002
00000023
00002030
00023000
,
00000000
00100000
00130000
00000000
20000000
00000000
30200000
00000000
,
00320000
00000000
00032000
00000010
00003010
00000100
00000010
00000010
,
00000001
00000000
00001001
00000000
00000001
00000100
00000100
00001000
,
00001000
00010000
00100000
00000000
01000000
00000000
01010000
00000000
,
10010000
00000000
20100000
00000000
31000000
00010000
00001000
00001000
,
00010000
00000000
00011000
00000000
00000100
00000010
00000020
00000000
,
00010030
00001000
00010000
00000000
00001000
00000000
00011000
00000000
,
01000000
00100000
00200000
00000000
00310000
00001000
00010000
01000000
,
21000000
00000000
30000000
00100000
00010000
00011000
00011000
00000000
,
00000000
00000000
00000102
00000000
00000003
00000010
00001000
00011000
,
00011000
00000000
00000000
00000000
10200000
00000000
00000000
01300000
,
00010000
10000000
01000000
00010000
00001000
00000010
00000021
00000000
,
00000000
00000000
00000130
00000000
00001000
00000000
00000001
00000000
00000001
00000000
00000100
00000010
00000000
00000100
00000010
00000000
,
00020000
00001000
00031000
00000010
00000100
00010000
00002000
00100000
,
00103000
00010000
10000000
00010000
00200000
01000000
01300000
10000000
,
01000000
00010000
00002000
00100000
00103000
00010000
00001000
00000100
,
00000020
00000001
00000031
00000100
00000010
00001000
00000002
00000100
,
00000103
00001000
00010000
00100000
20000000
00010000
30010000
01000000
,
00100000
00010000
00002000
00000010
00003010
00000100
00010000
00001000
,
00000100
00000010
00000100
00000000
00000000
00000000
00002000
00000000
00000000
00000000
00003000
00000000
00000001
00000100
00000001
00000000
,
00000000
00000000
00000020
00000000
00000000
00000000
00000000
00000000
00001030
00001000
00000000
00020000
00000000
00000000
00000000
00000000
,
00000000
00000000
00000000
00000000
00000000
00000000
00000000
00000000
00000000
00000000
00000000
00000000
00000000
00000000
00000000
00000000
00000000
00000000
00000000
00000000
00000000
00000000
00000000
00000000
00000000
00000000
00000000
00000000
00000000
00000000
00031000
00000000
00000000
00000000
00000000
00000000
00000000
00000000
00000000
00000000
00000000
00000000
00000000
00000000
00000000
00000000
00000000
00000000
00011000
00000000
00000000
00000000
00000000
00000000
00000000
00000000
00000000
00000000
00000000
00000000
00000000
00000000
00000000
00000000
00000000
00000000
00000000
00000000
00000000
00000000
00000000
00000000
00000000
00000000
00000000
00000000
00000000
00000000
00000000
00000000
00100000
00000000
00000000
00000000
00000000
00000000
00000000
00000000
00000000
00000000
00000000
00000000
00000000
00000000
00000000
00000000
00010000
00000000
00000000
00000000
00000000
00000000
00000000
00000000
00000000
00000000
00000000
00000000
00000000
00000000
00000000
00000000
00000000
00000000
00000000
00000000
00000000
00000000
00000000
00000000
00000000
00000000
00000000
00000000
00000000
00000000
00000000
00000000
00010000
00000000
00000000
00000000
00000000
00000000
00000000
00000000
00000000
00000000
00000000
00000000
00000000
00000000
00000000
00000000
01000000
00000000
00000000
00000000
00000000
00000000
00000000
00000000
00000000
00000000
00000000
00000000
00000000
00000000
00000000
00000000
00000000
00000000
00000000
00000000
00000000
00000000
00000000
00000000
00000000
00000000
00000000
00000000
00000000
00000000
00000000
00000000
01000000
00000000
00000000
00000000
00000000
00000000
00000000
00000000
00000000
00000000
00000000
00000000
00000000
00000000
00000000
00000000
,
00100000
00000000
00100000
10000000
00000000
10000000
01000000
00000000
01000000
00010000
00000000
00010000
,
00001000
00000000
00001000
00000100
00000000
00000100
00000001
00000000
00000001
00000010
00000000
00000010
,
00000001
00000000
00000001
00000100
00000000
00000100
00000010
00000000
00000010
00001000
00000000
00001000
,
00000001
00000000
00000001
00000100
00000000
00000100
00001000
00000000
00001000
00010000
00000000
00010000
,
01000000
00000000
01000000
10000000
00000000
10000000
00100000
00000000
00100000
01000000
00000000
01000000
,
00010000
00000000
00010000
00100000
00000000
00100000
01000000
00000000
01000000
00010000
00000000
00010000
,
00001000
00000000
00000000
00000000
00001000
00000000
00000100
00000000
00000000
00000000
00000100
00000000
00000010
00000000
00000100
00000000
00000002
00000000
00000000
00000000
00000000
00001003
00000000
00000000
,
00002001
00000000
00000000
00000000
00000000
00000000
00003100
00000000
00000010
00000000
00000100
00000000
00001000
00000000
00000000
00000000
00000001
00000000
00000100
00000000
00000000
00000010
00000000
00000000
,
00000100
00000000
00000000
00000000
00001000
00000000
00010000
00000000
00001000
00000000
00010000
00000000
01000000
00000000
00000000
00000000
10000000
00000000
00010000
00000000
00000000
01000000
00000000
00000000
,
00010000
00000000
00000000
00000000
00000000
00000000
10000000
00000000
00100000
00000000
10000000
00000000
00100000
00000000
00000000
00000000
01000000
00000000
00100000
00000000
00000000
10000000
00000000
00000000
,
00010000
00000000
00000000
00000000
00000000
00000000
00100000
00000000
00001000
00000000
00010000
00000000
00001000
00000000
00000000
00000000
00010000
00000000
00000100
00000000
00000000
00000010
00000000
00000000
,
00000200
00000000
00000000
00000000
00000000
00000000
00001300
00000000
00000001
00000000
00001000
00000000
00000010
00000000
00000000
00000000
00001000
00000000
00000100
00000000
00000000
00000010
00000000
00000000
,
00000001
00000000
00000000
00000000
00000000
00000000
00000100
00000000
00000010
00000000
00000100
00000000
00000010
00000000
00000000
00000000
00001000
00000000
00010000
00000000
00000000
00100000
00000000
00000000
,
10000000
00000000
00000000
00000000
00000000
00000000
00010000
00000000
01000000
00000000
00100000
00000000
10000000
00000000
00000000
00000000
01000000
00000000
10000000
00000000
00000000
01000000
00000000
00000000
,
00010000
00000000
00001000
00000000
00010000
00000000
00000100
00000000
00010000
00000000
00001000
00000000
00010000
00000000
00000100
00000000
00001000
00000000
00000001
00000000
00000000
00001000
00000000
00000000
,
00000020
00000000
00000000
00000030
00000000
00000000
00010000
00010000
00010000
00001000
00001000
00001000
,
00200000
00000000
00000000
00300000
00000000
00000000
00001000
00001000
00001000
00010000
00010000
00010000
;

//---------------dance-double - NewbStepper-EDP----------------
#NOTES:
     dance-double:
     NewbStepper:
     Hard:
     13:
     :
00000000
00000000
00000000
00000000
,
00000000
00000000
00000000
00000000
,
00000000
00000000
00000000
00000000
,
00000000
00000000
00000000
00000000
,
00020000
00100000
00032000
00000010
00023000
01000000
00032000
00000100
,
00013000
00100000
01100000
00000000
00002000
00000010
00023000
00100000
,
00032000
00000100
00023000
01000000
00031000
00000100
00000001
00000010
,
00000002
00001000
00000203
00001000
00000320
00010000
00002030
00000100
,
00003010
00001000
00010000
00000000
20000000
00010000
32000000
00010000
,
03200000
00001000
00320000
01000000
00130000
00010000
00001000
00000000
,
00000101
00000010
00001000
00000001
00000010
00001000
00100000
00010000
,
00001000
00010000
01010000
00100000
10010000
01000000
00110000
10000000
,
11000000
00000000
00100000
00000000
00010000
00000000
10000000
00000000
00100000
00000000
00010000
00000000
00000010
00001000
00000000
00001000
,
00010000
00001000
00001100
00000010
00000001
00000110
00001001
00000101
,
00000100
00001000
00010000
00101000
00110000
00010000
10010000
10000000
,
01000000
00010000
00001000
00000100
00000001
00000011
00001001
00000000
,
00000210
00000000
00000300
00001000
00010000
00011000
00101000
00000000
,
00000000
00000000
02100000
00000000
03000000
00001000
00010000
00011000
,
00010010
00000000
00000000
00000000
00000000
00000000
00000000
00000000
00001002
00000000
00000103
00000001
00000010
00001000
00010000
00000000
,
00100000
00000000
10100000
00000000
10010000
00000000
00010000
01000000
00000000
10000000
01000000
00000000
20010000
00000000
31000000
10000000
,
00100000
00010000
00001000
00000000
00000010
00000000
00000011
00000000
00001001
00000000
00000010
00000001
00000011
00000100
00001000
00001100
,
00000020
00000000
00001030
00010000
00100000
00010000
00001000
00010000
00000010
00000100
00001000
00010000
01000000
00000000
00010000
00001000
,
00000010
00001000
00010000
00001000
00100000
01000000
00010000
00001000
00000100
00000000
00000001
00000010
00000001
00000100
00001000
00010000
,
00100000
10000000
00010000
01000000
00100000
00000000
10000000
00100000
10000000
01000000
00010000
00001000
00000010
00000001
00001000
00000100
,
00000010
00000000
00001000
00010000
00001000
00000010
00000100
00001000
00010000
00100000
00001000
00010000
01000000
00000000
00010000
00001000
,
00010000
00100000
01000000
00010000
00001000
00000010
00010000
00001000
00000100
00000000
00000001
00000100
00000010
00001000
00000010
00001000
,
00000100
00000000
00010000
00001000
00010000
00000000
00100000
00000000
10000000
00000000
01000000
00000000
00010000
00000000
00001000
00000000
00000100
00000000
00000001
00000000
00001000
00000000
00000100
00000010
00000100
00000000
00010000
00000000
00001000
00010000
00001000
00000000
,
00100000
00100000
00100000
00000000
00000000
00000000
00010000
00000000
00010000
00000000
00010000
00000000
10000000
10000000
10000000
00000000
,
00000000
00000000
02000000
00000000
00000000
00000000
00000000
00000000
03010000
00010000
00000000
00002000
00000000
00000000
00000000
00000000
,
00000000
00000000
00000000
00000000
00000000
00000000
00000000
00000000
00000000
00000000
00000000
00000000
00000000
00000000
00000000
00000000
00000000
00000000
00000000
00000000
00000000
00000000
00000000
00000000
00000000
00000000
00000000
00000000
00000000
00000000
00013000
00000000
00000000
00000000
00000000
00000000
00000000
00000000
00000000
00000000
00000000
00000000
00000000
00000000
00000000
00000000
00000000
00000000
00011000
00000000
00000000
00000000
00000000
00000000
00000000
00000000
00000000
00000000
00000000
00000000
00000000
00000000
00000000
00000000
00000000
00000000
00000000
00000000
00000000
00000000
00000000
00000000
00000000
00000000
00000000
00000000
00000000
00000000
00000000
00000000
00001000
00000000
00000000
00000000
00000000
00000000
00000000
00000000
00000000
00000000
00000000
00000000
00000000
00000000
00000000
00000000
00000010
00000000
00000000
00000000
00000000
00000000
00000000
00000000
00000000
00000000
00000000
00000000
00000000
00000000
00000000
00000000
00001000
00000000
00000000
00000000
00000000
00000000
00000000
00000000
00000000
00000000
00000000
00000000
00000000
00000000
00000000
00000000
00000010
00000000
00000000
00000000
00000000
00000000
00000000
00000000
00000000
00000000
00000000
00000000
00000000
00000000
00000000
00000000
00000001
00000000
00000000
00000000
00000000
00000000
00000000
00000000
00000000
00000000
00000000
00000000
00000000
00000000
00000000
00000000
00000100
00000000
00000000
00000000
00000000
00000000
00000000
00000000
00000000
00000000
00000000
00000000
00000000
00000000
00000000
00000000
00000001
00000000
00000000
00000000
00000000
00000000
00000000
00000000
00000000
00000000
00000000
00000000
00000000
00000000
00000000
00000000
,
00001000
00000100
00010000
00001000
00000000
00010000
00100000
00010000
00100000
10000000
01000000
10000000
,
00010000
01000000
00001000
00010000
00000000
00001000
00000010
00000001
00001000
00000100
00010000
00001000
,
00000010
00000100
00010000
00001000
00000000
00010000
00100000
10000000
00010000
01000000
00001000
00010000
,
00100000
00000000
01000000
00000000
00001000
00000000
00010000
00000000
00000000
00000000
00100000
00000000
01000000
00000000
00100000
00000000
01000000
00000000
00100000
00000000
10000000
00100000
10000000
00000000
,
00010000
00000000
00100000
00001000
00100000
00000000
00010000
00000000
00000000
00000000
00000000
00000000
10000000
00000000
01000000
00000000
00100000
00000000
00010000
00000000
00001000
00000000
00000100
00000000
,
00000010
00000000
00000001
00001000
00000001
00000000
00001000
00000000
00000000
00000000
00000000
00000000
00000001
00000000
00000100
00000000
00000010
00000000
00001000
00000000
00010000
00000000
01000000
00000000
,
00100000
00000000
10000000
00010000
10000000
00000000
00010000
00000000
00000000
00000000
10000000
00000000
01000000
00000000
00010000
00000000
00002000
00000000
00000000
00000000
00000000
00013000
00000000
00000000
,
00011000
00000000
00000000
00000000
00000000
00000000
00000000
00000000
00000000
00000000
00000000
00000000
00000010
00000000
00000000
00000000
00000001
00000000
00000000
00000000
00000010
00000000
00000000
00000000
00000100
00000000
00000000
00000000
00001000
00000000
00000001
00000000
00001000
00000000
00000000
00000000
00000001
00000000
00000000
00000100
00000000
00000000
00000001
00000000
00000000
00000010
00000000
00000000
,
00000100
00000000
00000000
00000000
00000000
00000000
00000000
00000000
00001000
00000000
00000000
00000000
00000100
00000000
00000000
00000000
00000010
00000000
00000000
00000000
00001000
00000000
00000000
00000000
00010000
00000000
00000000
00000000
00100000
00000000
00000000
00000000
00010000
00000000
00000000
00000000
00001000
00000000
00000000
00010000
00000000
00000000
00001000
00000000
00000000
01000000
00000000
00000000
,
00010000
00000000
00000000
00000000
00000000
00000000
00000000
00000000
10000000
00000000
00000000
00000000
00100000
00000000
00000000
00000000
10000000
00000000
00000000
00000000
00100000
00000000
00000000
00000000
01000000
00000000
00000000
00000000
00010000
00000000
10000000
00000000
00010000
00000000
00000000
00000000
10000000
00000000
00000000
01000000
00000000
00000000
10000000
00000000
00000000
00100000
00000000
00000000
,
01000000
00000000
00000000
00000000
00000000
00000000
00000000
00000000
00010000
00000000
00000000
00000000
01000000
00000000
00000000
00000000
00100000
00000000
00000000
00000000
00010000
00000000
00000000
00000000
00001000
00000000
00000000
00000000
00000010
00000000
00000000
00000000
00001000
00000000
00000000
00000000
00010000
00000000
00000000
00001000
00000000
00000000
00010000
00000000
00000000
00000100
00000000
00000000
,
00002000
00000000
00000000
00000000
00000000
00000000
00000000
00000000
00000000
00000000
00000000
00000000
00003001
00000000
00000000
00000000
00000100
00000000
00000000
00000000
00000001
00000000
00000000
00000000
00001000
00000000
00000000
00000000
00000010
00000000
00000100
00000000
00000010
00000000
00000000
00000000
00001000
00000000
00000000
00000010
00000000
00000000
00010000
00000000
00000000
00001000
00000000
00000000
,
00100000
00000000
00000000
00000000
00000000
00000000
00000000
00000000
00010000
00000000
00000000
00000000
01000000
00000000
00000000
00000000
00100000
00000000
00000000
00000000
10000000
00000000
00000000
00000000
00010000
00000000
00000000
00000000
00100000
00000000
01000000
00000000
00100000
00000000
00000000
00000000
00010000
00000000
00000000
00100000
00000000
00000000
00001000
00000000
00000000
00010000
00000000
00000000
,
00000010
00000000
00000000
00000000
00001000
00000000
00000100
00000000
00000010
00000000
00000001
00000000
00000100
00000000
00001000
00000000
00010000
00001000
00010000
00000000
00000000
01000000
00000000
00000000
,
00100000
00000000
00000000
00000000
00000000
00000000
00000000
00000000
00010000
00000000
00000000
00000000
01000000
00000000
00000000
00000000
00100000
00000000
00000000
00000000
10000000
00000000
00000000
00000000
01000000
00000000
00000000
00000000
00010000
00000000
00000000
00000000
00001000
00000000
00010000
00000000
00001000
00000000
00000000
00000100
00000000
00000000
00000001
00000000
00000000
00001000
00000000
00000000
,
00000200
00000000
00000000
00000300
00000000
00000000
00001000
00001000
00001000
00000001
00000001
00000001
,
00000200
00000000
00000000
00000300
00000000
00000000
00001000
00001000
00001000
00010000
00010000
00010000
;

//---------------dance-double - NewbStepper-CDP----------------
#NOTES:
     dance-double:
     NewbStepper:
     Challenge:
     17:
     :
00000000
00000000
00000000
00000000
,
00000000
00000000
00000000
00000000
,
00000000
00000000
00000000
00000000
,
00000000
00000000
00000000
00000000
,
00002000
00010000
02003000
00100000
23000000
01000000
30020000
00001000
,
00030010
00000100
00001100
00001000
00020000
00001000
00030200
00000010
,
00000302
00000100
00002003
00010000
00103000
01000000
00010000
00001000
,
00000200
00000010
00002300
00010000
00003020
00000100
00020030
01000000
,
10030000
00100000
10100000
10000000
02000000
00100000
03020000
00001000
,
00230000
01000000
00302000
00000100
00003001
00000011
00001001
00001100
,
00000010
00000001
00000101
00000100
00000110
00010010
00011000
00000100
,
00000010
00000110
00001100
00011000
00100000
10000000
11000000
01000000
,
01100000
00000000
00101000
00000000
00011000
00000000
01000000
00000000
00100000
00000000
01100000
00000000
01000000
00010000
00000000
00001000
,
00011000
00100000
11000000
00100000
01010000
00110000
00101000
00010000
,
00011000
00000010
00000100
00001100
00011000
00000010
00000101
00000010
,
00001100
00001010
00010010
00001000
00011000
00100000
10000000
01000000
,
00021000
00000000
00000000
00000000
00000000
00030000
00100000
00000000
10000000
00000000
11000000
00000000
01010000
00000000
00000000
00000000
,
00000000
00000000
00000000
00000000
00012000
00000000
00000000
00000000
00000000
00003000
00000010
00000000
00000001
00000000
00000101
00000000
,
00001100
00000000
00000000
00000000
00000000
00000000
00000000
00000000
00000000
00000000
00000000
00000000
00000000
00000000
00000000
00000000
00021000
00000000
00000000
00030000
00100000
00000000
10000000
00000000
00100000
00000000
00010000
00000000
00011000
00000000
00001000
00000000
,
00000100
00000000
00000001
00000010
00000001
00000000
00000100
00000000
00001000
00000000
00010000
00001000
00010000
00000000
00100000
00000000
10000000
00100000
10000000
00100000
01000000
00000000
00001000
00000000
00012000
00000000
00000000
00003000
00000010
00000000
00000001
00000000
,
00000010
00000000
00001000
00000000
00011000
00000000
00010000
00001000
00000100
00001000
00010000
00001000
00100000
00000000
00000000
00000000
01100000
00000000
00000000
00000000
10000000
01000000
10000000
01000000
10000000
00000000
00010000
01000000
00010000
01000000
00010000
00000000
,
00100000
00000000
01000000
00000000
00010000
00000000
00000010
00000000
00000100
00000000
00001000
00000000
01000000
00000000
00100000
00000000
00010000
00000000
00000100
00000000
00000010
00000000
00001000
00000000
00020000
00000000
00000000
00030000
00000010
00000000
00000100
00000000
,
00001000
00000000
00100000
00000000
01000000
00000000
00010000
00000000
00000100
00000000
00000010
00000000
00001000
00000000
00010000
00000000
00002000
00000000
00000000
00003000
00010000
00000000
01000000
00000000
10000000
00000000
00100000
00000000
00010000
00000000
00001000
00000000
,
00000001
00000000
00000100
00000000
00001000
00000000
00000010
00000000
00020000
00000000
00000000
00030000
00001000
00000000
00000100
00000000
00000001
00000000
00000010
00000000
00001000
00000000
00010000
00000000
10000000
00000000
01000000
00000000
00010000
00000000
00100000
00000000
,
00002000
00000000
00000000
00003000
00010000
00000000
00100000
00000000
10000000
00000000
00100000
00000000
00010000
00001000
00010000
00001000
00000010
00000000
00000001
00000000
00000100
00000010
00000100
00001000
00020000
00000000
00000000
00030000
00001000
00000000
00000010
00000000
,
00000001
00000000
00000010
00000000
00001000
00010000
00001000
00010000
00100000
00000000
10000000
00000000
01000000
00100000
01000000
00010000
00002000
00000000
00000000
00003000
00000010
00000000
00000001
00000000
00000100
00000000
00001000
00000000
00010000
00000100
00010000
00000100
,
00001000
00000000
00010000
00000000
00100000
00010000
00100000
00010000
10000000
00010000
10000000
00100000
10000000
00100000
01000000
00100000
01000000
00000000
00010000
00000000
00100000
00001000
00100000
00001000
00010000
00000100
00010000
00000100
00001000
00000001
00001000
00000001
,
00000010
00000010
00000010
00000000
00000000
00000000
00001000
00000000
00001000
00000000
00001000
00000000
00100000
00100000
00100000
00000000
,
00000000
00000000
00000000
00000000
02000000
00000000
00000000
00000000
00000000
00000000
00000000
00000000
00000000
00000000
00000000
00000000
13000000
10000000
10000000
00000000
00000000
00000000
00020000
00000000
00000000
00000000
00000000
00000000
00000000
00000000
00000000
00000000
,
00000000
00000000
00000000
00000000
00000000
00000000
00000000
00000000
00000000
00000000
00000000
00000000
00000000
00000000
00000000
00000000
00000000
00000000
00000000
00000000
00000000
00000000
00000000
00000000
00000000
00000000
00000000
00000000
00000000
00000000
10030000
00000000
00000000
00000000
00000000
00000000
00000000
00000000
00000000
00000000
00000000
00000000
00000000
00000000
00000000
00000000
00000000
00000000
00010000
00000000
00000000
00000000
00000000
00000000
00000000
00000000
00000000
00000000
00000000
00000000
00000000
00000000
00000000
00000000
00100000
00000000
00000000
00000000
00000000
00000000
00000000
00000000
00000000
00000000
00000000
00000000
00000000
00000000
00000000
00000000
01000000
00000000
00000000
00000000
00000000
00000000
00000000
00000000
00000000
00000000
00000000
00000000
00000000
00000000
00000000
00000000
00010000
00000000
00000000
00000000
00000000
00000000
00000000
00000000
00000000
00000000
00000000
00000000
00000000
00000000
00000000
00000000
00001000
00000000
00000000
00000000
00000000
00000000
00000000
00000000
00000000
00000000
00000000
00000000
00000000
00000000
00000000
00000000
00000100
00000000
00000000
00000000
00000000
00000000
00000000
00000000
00000000
00000000
00000000
00000000
00000000
00000000
00000000
00000000
00000010
00000000
00000000
00000000
00000000
00000000
00000000
00000000
00000000
00000000
00000000
00000000
00000000
00000000
00000000
00000000
00000100
00000000
00000000
00000000
00000000
00000000
00000000
00000000
00000000
00000000
00000000
00000000
00000000
00000000
00000000
00000000
00010000
00000000
00000000
00000000
00000000
00000000
00000000
00000000
00000000
00000000
00000000
00000000
00000000
00000000
00000000
00000000
,
00000100
00000001
00000010
00001000
00010000
00100000
10000000
01000000
00010000
00001000
00000100
00000001
,
00000010
00001000
00010000
00001000
00100000
00010000
00001000
00000100
00000010
00001000
01000000
00001000
,
00010000
00100000
10000000
00100000
00001000
00100000
00010000
00001000
00000100
00000001
00001000
00000100
,
00010000
00000000
01000000
00000000
10000000
00000000
00010000
00000000
00100000
00000000
00010000
00000000
00001000
00000000
00000100
00000000
00000001
00000000
00000100
00000000
00001000
00000010
00001000
00000000
,
00000001
00000000
00001000
00000010
00001000
00000000
00000001
00000000
00000100
00000000
00001000
00000000
00010000
00000000
00001000
00100000
00001000
00100000
00010000
00000000
01000000
00000000
10000000
00000000
,
01000000
00000000
00010000
00000000
00001000
00000010
00001000
00000000
00000001
00000000
00000100
00000000
00001000
00000000
00010000
00000000
00100000
00000000
10000000
00000000
00010000
00100000
00010000
00000000
,
10000000
00000000
00010000
00100000
00010000
00000000
10000000
00000000
01000000
00100000
01000000
00100000
00010000
00000000
01000000
00000000
00002000
00000000
00000000
00000000
00000000
00013000
00000000
00000000
,
00021000
00000000
00000000
00000000
00000000
00000000
00000000
00000000
00030000
00000000
00000000
00000000
00000010
00000000
00001000
00000000
00000010
00000000
00001000
00000000
00000010
00000000
00000000
00000000
00000100
00000000
00000000
00000000
00000001
00000000
00000100
00000000
00000001
00000000
00000000
00000000
00000100
00000000
00000000
00001000
00000000
00000000
00010000
00000000
00000000
01000000
00000000
00000000
,
10000000
00000000
00000000
00000000
00100000
00000000
01000000
00000000
00100000
00000000
00000000
00000000
10000000
00000000
00010000
00000000
01000000
00000000
00010000
00000000
10000000
00000000
00010000
00000000
01000000
00000000
00000000
00000000
00100000
00000000
00000000
00000000
00010000
00000000
00000000
00000000
00001000
00000000
00000000
00000010
00000000
00000000
00000001
00000000
00000000
00000100
00000000
00000000
,
00000010
00000000
00000000
00000000
00010000
00000000
00000000
00000000
00000100
00000000
00001000
00000000
00000100
00000000
00000000
00000000
00010000
00000000
00000000
00000000
00000010
00000000
00000000
00000000
00000100
00000000
00000000
00000000
00001000
00000000
00010000
00000000
00001000
00000000
00010000
00000000
00001000
00000000
00000000
00100000
00000000
00000000
00010000
00000000
00000000
10000000
00000000
00000000
,
00100000
00000000
00000000
00000000
01000000
00000000
00010000
00000000
01000000
00000000
00010000
00000000
01000000
00000000
00000000
00000000
00001000
00000000
00000000
00000000
00010000
00000000
00000000
00000000
00100000
00000000
01000000
00000000
00100000
00000000
00000000
00000000
00010000
00000000
00000000
00000000
00001000
00000000
00000000
00000100
00000000
00000000
00000001
00000000
00000000
00000100
00000000
00000000
,
00002000
00000000
00000000
00000000
00000000
00000000
00000000
00000000
00000000
00000000
00003000
00000000
00010000
00000000
00000100
00000000
00010000
00000000
00000100
00000000
00010000
00000000
00000100
00000000
00001000
00000000
00000000
00000000
00000010
00000000
00000000
00000000
00000001
00000000
00000000
00000000
00001000
00000000
00000000
00000100
00000000
00000000
00000001
00000000
00000000
00000010
00000000
00000000
,
00001000
00000000
00000000
00000000
00010000
00000000
00000000
00000000
01000000
00000000
00000000
00000000
10000000
00000000
00100000
00000000
10000000
00000000
00100000
00000000
10000000
00000000
00000000
00000000
00010000
00000000
00000000
00000000
00100000
00000000
00000000
00000000
00001000
00000000
00010000
00000000
00001000
00000000
00000000
00000010
00000000
00000000
00000100
00000000
00000000
00001000
00000000
00000000
,
00000100
00000000
00000000
00000000
00000001
00000000
00000000
00000000
00000100
00000000
00000010
00000000
00000001
00000000
00000000
00000000
00000100
00000000
00000000
00000000
00001000
00000000
00010000
00000000
00001000
00000000
00000000
00000000
00100000
00000000
00010000
00000000
10000000
00000000
00010000
00000000
10000000
00000000
00000000
01000000
00000000
00000000
00100000
00000000
00000000
00010000
00000000
00000000
,
10000000
00100000
10000000
00100000
01000000
00010000
01000000
00010000
00100000
00001000
00100000
00001000
00010000
00000100
00010000
00000100
00001000
00000010
00001000
00000010
00000100
00000001
00000100
00000001
,
00000020
00000000
00000000
00000030
00000000
00000000
00000001
00000100
00001000
00010000
01000000
10000000
,
00020000
00000000
00000000
00030000
00000000
00000000
10000000
01000000
00010000
00001000
00000100
00000001
;
