#TITLE:Unreal(XX-Special);
#ARTIST:Black Rose Garden;
#BANNER:Unreal(XX-Special).png;
#BACKGROUND:Unreal(XX-Special)-bg.png;
#MUSIC:Unreal(XX-Special).ogg;
#OFFSET:-0.026;
#SAMPLESTART:28.03;
#SAMPLELENGTH:15;
#BPMS:0=180,184=90,200=180;

//---------------dance-single - RGTM & Nitrospan-CSP----------------
#NOTES:
     dance-single:
     RGTM & Nitrospan-CSP:
     Challenge:
     15:
     :
0000
0000
0000
0000
,
0000
0000
0000
0000
,
0000
0000
0000
0000
,
0000
0000
0000
0000
,
0000
0000
0000
0000
,
0000
0000
0000
0000
0000
0000
0000
0010
,
1000
0100
0100
0001
0100
0100
1000
0100
,
0100
0001
0010
1000
0010
0001
0100
0001
,
0010
0000
0010
0000
1000
0000
0010
0000
0100
0000
0100
0000
0010
0000
0001
0010
,
0100
0000
1000
0000
0001
0000
0100
0001
1000
0000
0010
0000
0100
0000
0001
0000
,
1000
0000
0100
0010
0001
0000
0001
1000
,
0001
0100
0010
1000
0000
1010
0000
1000
,
0000
0001
0010
0100
0010
0001
0100
0010
,
0000
0000
1001
0000
0000
0000
0010
0100
0010
0000
1000
0000
0000
0000
1001
0000
,
0000
1000
0001
0000
0010
0000
0100
1000
,
0000
0010
0000
1010
0000
0110
0000
0001
,
0000
0001
1000
0000
1100
1100
0000
0010
,
0000
0000
0110
0000
0000
0000
1000
0001
1000
0000
0001
0000
0100
0000
0000
0000
,
0120
0000
0000
2030
0000
0000
0001
0000
,
0000
0100
0100
0000
0010
0000
0010
0000
,
3002
0000
1000
0000
0000
0000
1003
0000
1000
0100
0010
0000
0010
0000
0100
0000
,
0010
0000
0010
0000
0001
0100
0010
0000
0010
0000
1000
0001
0010
0100
0010
0100
,
1000
0100
MMMM
0001
1000
0100
MMMM
0001
,
1000
0010
MMMM
0001
1000
0010
MMMM
0001
,
1000
0100
MMMM
0010
0100
0001
MMMM
0100
,
1000
0010
MMMM
0100
0010
0001
MMMM
0100
,
1000
0010
MMMM
0001
1000
0010
MMMM
0001
,
1000
0100
MMMM
0001
1000
0100
MMMM
0001
,
1000
0010
MMMM
0100
0010
0001
MMMM
0010
,
1000
0000
0100
0000
MMMM
0000
0010
0000
0100
0000
0001
0000
MMMM
0000
0001
1000
,
0001
0010
MMMM
1000
0001
0010
MMMM
1000
,
0001
0100
MMMM
1000
0001
0100
MMMM
1000
,
0001
0010
MMMM
0100
0010
1000
MMMM
0010
,
0001
0100
MMMM
0010
0100
1000
MMMM
0010
,
0001
0100
MMMM
1000
0001
0100
MMMM
1000
,
0001
0010
MMMM
1000
0001
0010
MMMM
1000
,
0001
0100
MMMM
MMMM
MMMM
0010
0010
0010
,
0100
0010
0100
0000
0010
0000
0010
0000
MMMM
0000
0100
0000
0100
0000
MMMM
0000
,
0110
1000
1000
0010
1000
1000
0001
1000
,
1000
0010
0100
0001
0010
0100
1000
0001
,
0010
0010
1000
0010
0010
0001
0010
0010
,
0100
0000
1000
0000
0010
0000
0100
0010
0100
0000
0010
0000
1000
0000
0110
0000
,
1000
0001
0001
0010
0001
0001
1000
0001
,
0001
0010
0100
1000
0010
0100
0001
1000
,
0010
0010
0001
0010
0010
1000
0010
0010
,
0100
0000
0001
0000
0010
0000
0100
0010
0100
0000
0010
0000
0001
0000
1000
0000
,
0002
0000
1000
0000
0013
0000
0001
1000
0020
0000
0230
0302
0100
2003
0001
3200
,
0010
0000
0010
0000
1300
0000
0100
1000
0020
0000
0230
0302
0100
2003
0100
3020
,
0100
0000
0001
0000
1030
0010
0100
0001
2000
0000
3200
0320
0100
0032
0010
0203
,
0001
0000
1000
0000
0310
0000
1000
0001
0020
0000
0000
0000
0000
0000
0000
0000
,
0031
0100
MMMM
1000
0001
0100
MMMM
1000
,
0001
0010
MMMM
1000
0001
0010
MMMM
1000
,
0001
0100
MMMM
0010
0100
1000
MMMM
0100
,
0001
0010
MMMM
0100
0010
1000
MMMM
0100
,
0001
0010
MMMM
1000
0001
0010
MMMM
1000
,
0001
0100
MMMM
1000
0001
0100
MMMM
1000
,
0001
0010
MMMM
MMMM
MMMM
0100
0100
0100
,
0010
0100
0010
0000
0100
0000
0100
0000
MMMM
0000
0010
0000
0010
0000
MMMM
0000
,
0110
1000
1000
0001
1000
1000
0010
1000
,
1000
0100
0010
0001
1000
0001
0010
0001
,
0100
0000
0100
0000
0010
0000
1000
0000
1000
0000
0001
0000
0010
0000
0001
1000
,
0010
0010
0010
0010
0010
0010
0010
0110
,
1000
0010
0010
0001
0100
0100
1000
0010
,
0010
0000
0001
0000
1000
0001
1000
0000
0010
0000
0010
0000
0001
0000
1000
0000
,
0100
0000
0100
0000
0001
1000
0001
0000
0010
0000
0010
0000
0100
0001
0010
0000
,
0100
0000
1000
0000
0010
0000
0100
0001
0010
0000
0100
0000
1000
0000
1001
0000
;

//---------------dance-double - RGTM-CDP----------------
#NOTES:
     dance-double:
     RGTM-CDP:
     Challenge:
     15:
     :
00000000
00000000
00000000
00000000
,
00000000
00000000
00000000
00000000
,
00000000
00000000
00000000
00000000
,
00000000
00000000
00000000
00000000
,
00000000
00000000
00000000
00000000
,
00000000
00000000
00000000
00000000
00000000
00000000
00000000
10000000
,
00100000
10000000
00000000
01000000
00100000
00000000
00010000
00100000
,
00000000
00001000
00010000
00001000
00000100
00000010
00001000
00000100
,
00000010
00000000
00000000
00000000
00001000
00000000
00000010
00000000
00000000
00000000
00000001
00000000
00000010
00000000
00000100
00001000
,
00000100
00000000
00010000
00000000
00001000
00000000
01000000
00010000
01000000
00000000
00100000
00000000
10000000
00000000
00010000
00000000
,
10000000
00000000
01000000
00100000
00110000
00000000
00010000
00100000
,
00001000
00010000
00000000
00011000
00000000
00010010
00000000
00000010
,
00000000
00000100
00000001
00001000
00001001
00000001
00000010
00000100
,
00010000
00000000
00011000
00000000
00000000
00000000
00001000
00100000
00010000
00000000
00110000
00000000
00000000
00000000
10010000
00000000
,
00000000
10000000
00100000
00000000
01100000
00000000
01000000
00010000
,
00100000
00001000
00010000
00011000
00000000
00010100
00000000
00000100
,
00000000
00000010
00000001
00001000
00001001
00000001
00000000
00000100
,
00000010
00000000
00001010
00000000
00000000
00000000
00001000
00000100
00001000
00000000
00000100
00000000
00010000
00000000
00000000
00000000
,
00021000
00000000
00000000
00230000
00000000
00000000
10000000
00000000
,
00000000
01000000
01000000
00000000
00000000
00000000
00000000
00000000
,
10300000
00000000
10000000
00000000
00000000
00000000
01000000
00000000
10000000
01000000
00100000
00000000
00100000
00000000
00010000
01000000
,
00100000
00000000
00100000
00000000
10000000
00010000
00100000
00000000
00100000
00000000
01000000
00000000
10000000
00010000
10000000
00010000
,
10000000
01000000
MMMMMMMM
00010000
00100000
01000000
MMMMMMMM
00001000
,
00010000
00100000
MMMMMMMM
00001000
00010000
00000100
MMMMMMMM
00000001
,
00001000
00000100
MMMMMMMM
00000010
00000100
00000001
MMMMMMMM
00000010
,
00010000
00001000
MMMMMMMM
00010000
00100000
01000000
MMMMMMMM
00010000
,
10000000
00100000
MMMMMMMM
00010000
01000000
00100000
MMMMMMMM
00001000
,
00010000
01000000
MMMMMMMM
00001000
00010000
00000010
MMMMMMMM
00000001
,
00001000
00000010
MMMMMMMM
00000100
00000010
00000001
MMMMMMMM
00000100
,
00010000
00000000
00001000
00000000
MMMMMMMM
00000000
00010000
00000000
01000000
00000000
00100000
00000000
MMMMMMMM
00000000
00010000
10000000
,
00010000
00100000
MMMMMMMM
10000000
01000000
00100000
MMMMMMMM
01000000
,
00010000
00100000
MMMMMMMM
00010000
00001000
00000100
MMMMMMMM
00010000
,
00001000
00000010
MMMMMMMM
00000100
00000001
00000010
MMMMMMMM
00000100
,
00000001
00001000
MMMMMMMM
00010000
00001000
01000000
MMMMMMMM
00100000
,
00010000
01000000
MMMMMMMM
10000000
00100000
01000000
MMMMMMMM
00100000
,
00010000
01000000
MMMMMMMM
00010000
00001000
00000010
MMMMMMMM
00010000
,
00001000
00000100
MMMMMMMM
MMMMMMMM
MMMMMMMM
00010000
00010000
00010000
,
00001000
00010000
00001000
00000000
00001000
00000000
00001000
00000000
MMMMMMMM
00000000
00010000
00000000
00010000
00000000
MMMMMMMM
00000000
,
00011000
00010000
00100000
10000000
00010000
00100000
01000000
00100000
,
00001000
00010000
00001000
00000100
00000010
00001000
00000100
00000001
,
00000100
00001000
00000010
00000100
00001000
00010000
00001000
00100000
,
00010000
00000000
01000000
00000000
10000000
00000000
01000000
00100000
01000000
00000000
00001000
00000000
00010000
00000000
00011000
00000000
,
00001000
00000010
00000001
00001000
00000010
00000100
00000010
00010000
,
00001000
00010000
01000000
00100000
00010000
01000000
10000000
01000000
,
00010000
00100000
01000000
00010000
00001000
00010000
00000010
00001000
,
00000100
00000000
00000001
00000000
00000100
00000000
00000010
00000100
00000010
00000000
00001000
00000000
00010000
00000000
00011000
00000000
,
00002000
00000000
00010000
00000000
00103000
00000000
00001000
00100000
02000000
00000000
23000000
32000000
10000000
03200000
01000000
00320000
,
00100000
00000000
10000000
00000000
01030000
00000000
01000000
00001000
00020000
00000000
00032000
00023000
00000000
00030200
00000000
00000320
,
00000100
00000000
00001000
00000000
00000031
00000000
00000010
00000100
00020000
00000000
00032000
02003000
00001000
03200000
01000000
20300000
,
00100000
00000000
00010000
00000000
31000000
00010000
00001000
00000100
00000020
00000000
00000000
00000000
00000000
00000000
00000000
00000000
,
00001030
00000010
MMMMMMMM
00000001
00000100
00000010
MMMMMMMM
00000100
,
00001000
00000010
MMMMMMMM
00001000
00010000
01000000
MMMMMMMM
00001000
,
00010000
00100000
MMMMMMMM
01000000
10000000
00100000
MMMMMMMM
01000000
,
10000000
00010000
MMMMMMMM
00001000
00010000
00000100
MMMMMMMM
00000010
,
00001000
00000100
MMMMMMMM
00000001
00000010
00000100
MMMMMMMM
00000010
,
00001000
00000100
MMMMMMMM
00001000
00010000
00100000
MMMMMMMM
00001000
,
00010000
01000000
MMMMMMMM
MMMMMMMM
MMMMMMMM
00001000
00001000
00001000
,
00010000
00001000
00010000
00000000
00010000
00000000
00010000
00000000
MMMMMMMM
00000000
00001000
00000000
00001000
00000000
MMMMMMMM
00000000
,
00011000
00001000
00000010
00000001
00001000
00000010
00000100
00000010
,
00010000
00001000
00010000
01000000
00100000
00010000
01000000
10000000
,
01000000
00000000
00010000
00000000
00100000
00000000
01000000
00000000
00010000
00000000
00001000
00000000
00010000
00000000
00000010
00000100
,
00000010
00001000
00001000
00000001
00000001
00000010
00001000
00011000
,
00010000
00100000
10000000
00010000
00100000
01000000
00100000
00001000
,
00010000
00000000
00001000
00010000
00001000
00000000
00000100
00000000
00000010
00000000
00001000
00000000
00000100
00000000
00000001
00000000
,
00000100
00000000
00001000
00000000
00000010
00000100
00000010
00000000
00010000
00000000
00010000
00000000
00001000
00010000
00001000
00000000
,
00001000
00000000
01000000
00000000
00010000
00000000
00100000
01000000
00100000
00000000
01000000
00000000
10000000
00000000
10010000
00000000
;
