#TITLE:Trust It;
#ARTIST:Alkome;
#BANNER:Trust It.png;
#BACKGROUND:Trust It-bg.png;
#MUSIC:Trust It.ogg;
#OFFSET:-0.4;
#SAMPLESTART:113.349;
#SAMPLELENGTH:15;
#BPMS:0=170;

//---------------dance-single - Marten-ESP----------------
#NOTES:
     dance-single:
     Marten:
     Hard:
     16:
     0.733385,0.906407,0.152919,0.429628,0.444192,705,684,21,59,0,0,0.733385,0.906407,0.152919,0.429628,0.444192,705,684,21,59,0,0:
0000
0000
0000
0000
,
0000
0000
0000
0000
,
0000
0000
0000
0000
,
0000
0000
0000
0000
,
1001
0000
1000
0100
0001
0100
0010
0001
,
0100
0000
0010
0000
0001
0000
0010
0000
1000
0000
0001
0000
0100
0010
0100
0000
,
0001
0000
0001
0010
1000
0010
0100
1000
,
0002
2003
3020
0230
,
0301
0001
0001
0100
1000
0100
0010
1000
,
0100
0000
0001
0000
0100
0000
1000
0000
0001
0000
0100
0000
0010
0100
0010
0000
,
1000
0000
1000
0100
0010
0100
0001
1000
,
0010
0000
0001
0000
0010
0000
0100
0000
1000
0000
0010
0000
0100
0010
0100
0000
,
0001
0010
0100
0010
0001
0100
0010
0100
,
0001
1000
0100
0010
0100
1000
0010
0100
,
0010
1000
0010
1000
0001
1000
0001
1000
0100
1000
0100
1000
0100
0010
0100
0010
,
0001
0100
0000
0100
0000
0000
0010
0000
1000
0100
0000
0100
0010
0000
0000
0000
,
2002
0000
0000
0000
,
0000
0000
0000
0000
,
0000
0000
0000
0000
,
0000
0000
0000
3003
,
0002
0100
0000
0100
0000
0103
0010
2000
,
0000
0001
0000
3001
0020
0000
0130
0000
,
0200
1000
0000
1000
0000
1300
0001
0200
,
0000
0310
1000
0010
0100
0001
1000
0000
,
1010
0000
0000
0010
1000
0000
0100
0000
0010
0000
0100
0000
0100
0000
0000
0000
,
0010
0001
0000
0001
0100
0000
0001
0000
0010
0000
0100
0000
1000
0001
0010
0000
,
0001
0000
0000
0010
0001
0000
0100
0000
0010
0000
0100
0000
0100
0000
0000
0000
,
0010
1000
0010
1000
0010
0000
0100
0000
0001
0000
0010
0000
0100
1000
0100
0000
,
1000
0010
0100
0001
1000
0010
0100
0001
,
1000
0100
0010
0001
1000
0100
0010
0001
,
1000
0010
1000
0001
1000
0100
1000
0001
0010
0001
1000
0001
0100
0001
1000
0001
,
0020
0000
0030
0110
,
2001
0000
3001
0100
0010
0100
0001
0010
,
0100
0000
1000
0000
0010
1000
0001
0000
0010
0001
1000
0000
0100
0000
0100
0000
,
0020
0000
0000
0000
0130
0000
1000
0000
0010
0100
0001
0000
0010
0000
0001
0100
,
0010
0000
0001
0000
0010
1000
0001
0000
0010
0000
0100
0000
2000
0000
0000
0000
,
3002
0000
0013
0100
0001
0100
0010
0001
,
1000
0000
0010
0000
0100
0000
0010
0000
1000
0100
0010
0000
0001
0000
0001
0000
,
0200
0000
0000
0000
0301
0000
0100
0000
0010
1000
0100
0000
1000
0000
0001
0000
,
1001
0000
0000
0000
1001
0000
0000
0000
0001
1000
0001
1000
0001
1000
0001
1000
,
0200
0000
0000
0310
0001
1000
0001
0000
1000
0010
1000
0010
0000
0100
0010
0100
,
0000
0001
0100
0001
0000
1000
0001
1000
0000
0100
1000
0100
0000
0010
0100
0010
,
0002
0000
0000
0000
1003
0001
0100
0000
0000
0001
1000
0000
0000
0100
1000
0000
,
0000
0010
0100
0000
0000
0001
0100
0000
0000
0010
1000
0000
0200
0000
0000
0000
,
0320
0000
0000
0000
0031
0000
1000
0000
0001
0100
0001
0100
0000
0010
1000
0010
,
0000
1000
0100
1000
0000
0001
0100
0001
0000
1000
0010
1000
0000
0001
0010
0001
,
0020
0000
0000
0000
0130
1000
0001
0000
0000
0100
0001
0000
0000
0010
0100
0000
,
1000
0000
0000
0000
0001
0000
0000
0000
0100
0010
0100
0010
2000
0000
0000
0000
,
3002
0000
0000
0000
0000
0000
0000
2003
,
0000
0000
0000
3020
,
0000
0000
0000
0000
0000
0230
0000
0302
,
0000
0000
0000
0023
0000
0000
0000
0000
,
0230
0000
0000
0000
0000
0302
0000
2003
,
0000
0000
0000
3020
0000
0000
0000
0000
,
0032
0000
0000
0000
0000
0203
0000
2300
,
0000
0000
0000
3002
0000
0000
0023
0000
,
1030
0000
0000
0100
1000
0000
0010
0000
0100
0000
0001
0000
0001
0000
0000
0000
,
0010
0001
0000
0001
0100
0000
0010
0000
0100
0000
0001
0000
0010
0100
0010
0000
,
0100
0000
0000
1000
0001
0000
0100
0000
0001
0000
0010
0000
0010
0000
0000
0000
,
0100
0010
0100
0010
0100
0000
1000
0000
0001
0000
0100
0000
0010
0100
0010
0000
,
0100
0001
1000
0010
0100
0001
1000
0001
,
0010
0100
1000
0001
0010
0100
1000
0001
,
1000
0100
1000
0100
0010
0001
0010
0001
1000
0010
0100
0001
1000
0010
0100
0001
,
2000
0000
3000
1001
,
0101
0001
0011
0010
0210
0000
1300
0002
,
0100
0103
1000
0100
0001
1000
1010
0000
,
1100
1000
1010
0010
0210
0000
0301
2000
,
0100
3100
0001
0100
1000
0001
0011
0000
,
1010
0010
0110
0100
0102
0000
0013
0200
,
0010
0310
0001
0100
1000
0100
0001
0010
,
1000
0001
0100
2000
0000
3010
0001
1000
,
0100
0000
0001
0000
0010
0000
1000
0000
0001
0000
0100
0000
1000
0010
0100
0001
,
1000
0000
0010
0100
0010
0000
1000
0000
0200
0000
0010
0000
0310
0000
0002
0000
,
0100
0103
0010
0001
1000
0100
0201
0000
,
0301
0000
0010
0100
0010
0000
0001
0000
0200
0000
0010
0000
0310
0000
2000
0000
,
0100
3100
0010
1000
0001
0100
1000
0001
,
1000
0000
0010
0100
0010
0000
1000
0000
0200
0000
0001
0000
0301
0000
0200
0000
,
1000
1300
0010
0100
0001
0010
1000
0010
,
0001
0100
1000
0002
0000
0013
1000
0100
,
0001
0000
0000
0000
0110
0000
0000
0000
0100
0010
0100
0010
0002
0000
0000
0000
,
1003
0010
1000
0100
0010
1000
0010
0100
,
1000
0000
0010
0000
0100
0000
0001
0000
0010
0000
0100
0000
0010
0001
0010
0000
,
0100
1000
0010
0100
0001
0100
1000
0100
,
0010
0000
1000
0000
0100
0000
0001
0000
0100
0000
0010
0000
0001
1000
0001
0000
,
0100
0001
0010
1000
0010
0100
1000
0010
,
0100
0000
1000
0000
0100
0000
0001
0000
1000
0000
0010
0000
0100
0001
0100
0000
,
0001
0010
0100
0001
0100
1000
0001
0100
,
0020
2030
3002
0203
,
0301
0001
0001
0010
0100
0010
1000
0001
,
0100
0000
1000
0000
0010
0000
0100
0001
0010
0000
0100
0000
0010
0001
0100
0000
,
0010
1000
0100
0010
1000
0010
0001
1000
,
0010
0000
0001
0000
0010
0000
1000
0010
0100
0001
0100
0000
0001
0010
0100
0000
,
1000
0100
0010
0100
1000
0010
0100
0010
,
1000
0001
0010
0100
0010
0001
0100
0010
,
0100
0001
0100
0001
0010
0001
0010
0001
0010
0100
0010
0100
1000
0100
1000
0100
,
0010
0001
0000
0001
0000
0000
0100
0000
0010
1000
0000
1000
0100
0000
0000
0000
;

//---------------dance-single - Marten-DSP----------------
#NOTES:
     dance-single:
     Marten:
     Medium:
     13:
     0.600231,0.627512,0.050973,0.451474,0.091023,577,570,7,62,0,0,0.600231,0.627512,0.050973,0.451474,0.091023,577,570,7,62,0,0:
0000
0000
0000
0000
,
0000
0000
0000
0000
,
0000
0000
0000
0000
,
0000
0000
0000
0000
,
0001
0000
0100
0010
0100
0001
0010
0100
,
0010
0001
0100
0010
1000
0100
0010
0001
,
1000
0000
1000
0100
0010
0100
1000
0001
,
2000
3020
0230
0302
,
1003
1000
1000
0100
0010
0100
1000
0001
,
0100
0010
0100
0001
0010
0100
1000
0001
,
0100
0000
0001
1000
0100
1000
0001
0010
,
0100
0010
0001
0100
0010
0001
0010
0100
,
0001
0100
0001
0100
0010
1000
0010
1000
,
0100
1000
0100
1000
0001
0010
0001
0010
,
1000
0010
0001
0100
1000
0100
0001
1000
,
0001
0000
0000
0010
0000
0000
0100
0000
1000
0000
0000
0000
0110
0000
0000
0000
,
2002
0000
0000
0000
,
0000
0000
0000
0000
,
0000
0000
0000
0000
,
0000
0000
0000
3003
,
2000
0000
0000
0000
0000
3010
0100
0002
,
0000
0000
0023
0000
,
0230
0000
0000
0000
0300
0010
0001
0200
,
0000
0310
1000
0010
0100
0001
1000
0000
,
1001
0000
0000
0001
0000
0000
0010
0000
0100
0000
1000
0000
1000
0000
0000
0000
,
0010
0000
0000
1000
0010
0000
0100
0000
0001
0000
0100
0000
0100
0000
0001
0000
,
1000
0000
0000
0100
0000
0000
0010
0000
0001
0000
0100
0000
0100
0000
0000
0000
,
0001
0010
0000
0010
0100
0000
0010
0000
0001
0000
0100
0000
0010
0000
0000
0000
,
1000
0010
0100
0001
1000
0010
0100
0001
,
1000
0100
0010
0001
1000
0100
0010
0001
,
1000
0100
0001
0100
1000
0010
0001
0010
,
1000
0000
0000
0010
,
1002
0000
0103
0001
0010
0100
1000
0001
,
0100
0001
0010
0010
0100
0100
1000
0001
,
2000
0000
3010
1000
0100
0100
0010
0100
,
0100
0001
0100
0100
1000
0010
0200
0000
,
0320
0000
1030
0001
0010
0001
0100
0010
,
0100
1000
0100
0010
1000
1000
0001
0010
,
0200
0000
0310
0001
0100
0100
0010
0100
,
0001
0000
0000
0000
1001
0000
0000
0000
0001
0000
1000
0000
0001
0000
1000
0001
,
2000
0000
3010
0100
0001
0010
1000
0010
,
0001
0100
1000
0100
0001
0010
0100
1000
,
0002
0000
0000
0000
1003
0001
1000
0000
0000
1000
0001
0000
0000
0001
0100
0000
,
0000
0100
0010
0000
0000
0010
1000
0000
0000
1000
0001
0000
0020
0000
0000
0000
,
0230
0000
1300
1000
0001
0100
1000
0100
,
0001
0010
1000
0010
0001
0100
1000
0100
,
0020
0000
0000
0000
1030
0001
1000
0000
0000
1000
0100
0000
0000
0100
0010
0000
,
0001
0000
1000
0000
0010
0100
0020
0000
,
2030
0000
0000
0000
0000
0000
0000
3002
,
0000
0000
0000
0203
,
0000
0000
0000
0000
0000
0320
0000
2030
,
0000
0000
0000
3200
0000
0000
0000
0000
,
0320
0000
0000
0000
0000
0032
0000
2003
,
0000
0000
0000
3020
0000
0000
0000
0000
,
0032
0000
0000
0000
0000
0023
0000
2030
,
0000
0000
0000
3002
0000
0000
2003
0000
,
3100
0000
0000
1000
0001
0000
0100
0000
0001
0000
0010
0000
0010
0000
0000
0000
,
0100
0000
0000
0010
0000
0000
0001
0000
0100
0000
0010
0000
0100
0000
0100
0000
,
0001
0000
0000
0100
0001
0000
0010
0000
0100
0000
1000
0000
1000
0000
0000
0000
,
0010
1000
0000
1000
0001
0000
0010
0000
0100
0000
1000
0000
0001
0000
1000
0000
,
0010
1000
0100
1000
0010
1000
0100
0010
,
0001
0100
0001
0010
0001
0100
0010
1000
,
0001
0100
1000
0100
0001
0010
1000
0010
,
0002
0000
0003
1001
,
1010
0010
1000
0100
0020
0000
0031
2000
,
0000
3010
1000
0001
0100
0001
0020
0000
,
0130
0010
0100
1000
0002
0000
0103
0020
,
0000
1030
0010
0100
0001
0010
0002
0000
,
0013
0100
1000
0001
0200
0000
0301
2000
,
0000
3100
1000
0010
0100
0010
1000
0100
,
0010
0001
0100
0020
0000
1030
0010
0100
,
0001
0010
0100
0010
0001
1000
0002
0000
,
1003
0100
0010
0100
2000
0000
3001
0200
,
0000
0310
0100
0001
0010
0100
2000
0000
,
3010
1000
0001
1000
0020
0000
0130
0020
,
0000
1030
0010
0001
0010
1000
0002
0000
,
0013
0100
1000
0001
0200
0000
0301
2000
,
0000
3100
0001
0100
1000
0010
0100
0001
,
1000
0100
0010
0002
0000
1003
0010
0100
,
0001
0010
0100
1000
0100
0010
0002
0000
,
1003
0000
0010
1000
0100
0010
1000
0010
,
0001
1000
0010
0100
0001
0100
0010
1000
,
0001
0000
0010
0100
0010
0001
0100
0010
,
0001
0010
1000
0001
1000
0100
0010
0001
,
1000
0000
0100
1000
0010
1000
0100
0001
,
0100
1000
0001
0100
0010
0100
0001
0010
,
0100
0000
0010
0001
0100
1000
0100
0001
,
2000
3020
0230
0302
,
1003
1000
1000
0100
0010
0100
1000
0001
,
0100
0010
0100
0001
0010
1000
0010
0001
,
1000
0100
0010
0100
1000
0010
0001
0010
,
1000
0001
0100
0010
0100
1000
0100
0001
,
1000
0100
1000
0100
0010
0001
0010
0001
,
0100
0001
0100
0001
1000
0010
1000
0010
,
1000
0100
0001
0100
1000
0010
0001
0010
,
1000
0100
0000
0100
0000
0000
0000
0000
0010
0001
0000
0001
1000
0000
0000
0000
;

//---------------dance-single - Marten-BSP----------------
#NOTES:
     dance-single:
     Marten:
     Easy:
     8:
     0.371374,0.453203,0.080100,0.334964,0,357,346,11,46,0,0,0.371374,0.453203,0.080100,0.334964,0,357,346,11,46,0,0:
0000
0000
0000
0000
,
0000
0000
0000
0000
,
0000
0000
0000
0000
,
0000
0000
0000
0000
,
1001
1000
0100
0010
,
0100
0000
1000
0000
0001
1000
0001
0000
,
1000
0000
0001
0100
,
0002
2003
3020
0230
,
0301
0001
0010
1000
,
0010
0000
0001
0000
0100
0010
0100
0000
,
0001
1000
0100
0001
,
0100
0000
1000
0000
0010
0100
0010
0000
,
1000
1000
0010
0010
,
0100
0100
0001
0001
,
1000
0100
0001
0100
,
1000
0100
1000
0000
0001
0100
0001
0000
,
2002
0000
0000
0000
,
0000
0000
0000
0000
,
0000
0000
0000
0000
,
0000
0000
0000
3003
,
0002
0000
0000
0000
0000
0000
0000
2003
,
0000
0000
3020
0000
,
0230
0000
0000
0000
0000
0320
0000
2030
,
0000
0000
3002
0000
,
0013
0001
0100
0100
,
0010
1000
0100
0100
,
1000
0010
0100
0100
,
0001
0010
0100
0100
,
1000
0010
0001
0010
,
1000
0100
0001
0100
,
1000
1000
0001
0001
,
1001
0000
0000
0110
,
1002
1003
0100
0100
,
0010
0000
0001
1000
0001
0000
0100
0000
,
0020
0000
1030
0000
0010
1000
0010
0000
,
1000
0001
1000
0000
0100
0000
0020
0000
,
0032
0103
0010
1000
,
0100
0000
0010
0000
0001
1000
0001
0000
,
0200
0310
1000
0001
,
1001
0000
1001
0000
0001
1000
0001
1000
,
0002
1003
0100
0001
,
0100
1000
0010
0001
,
0020
0130
0001
0010
,
0100
0001
0100
2000
,
3002
1003
0010
0001
,
0010
0000
0100
0000
0010
0100
0010
0000
,
2000
0000
3001
0000
0010
0100
0010
0000
,
0001
1000
0020
0030
,
1002
0000
0000
0000
0000
0000
0000
0203
,
0000
0000
0000
0320
,
0000
0000
0000
0000
0000
2030
0000
3002
,
0000
0000
0000
0023
0000
0000
0000
0000
,
0230
0000
0000
0000
0000
2300
0000
3002
,
0000
0000
0000
0203
0000
0000
0000
0000
,
0320
0000
0000
0000
0000
0230
0000
0302
,
0000
0000
0000
0023
0000
0000
0230
0000
,
1300
0001
0100
0100
,
0001
1000
0100
0100
,
0010
0001
1000
1000
,
0010
1000
0001
0001
,
1000
0010
0001
0010
,
1000
0100
0001
0100
,
1000
1000
0001
0001
,
2002
0000
3003
0110
,
1001
0001
0100
0001
,
0010
0000
0100
0000
1000
0001
1000
0000
,
0100
1000
0010
0100
,
0010
0000
1000
0000
0001
1000
0001
0000
,
0100
0001
0010
0001
,
0100
0000
0010
0000
1000
0001
1000
0000
,
0010
1000
0100
0010
,
0001
0000
0100
0000
0010
0100
0020
0000
,
1030
1000
0001
0001
,
0010
0000
0100
0000
0010
0001
0010
0000
,
0100
0100
1000
1000
,
0010
0000
1000
0000
0001
0100
0001
0000
,
1000
1000
0010
0010
,
0100
0000
0010
0000
1000
0001
1000
0000
,
0001
0010
0100
1000
,
0010
0000
0100
0000
0001
1000
0001
0000
,
0100
0000
0001
0010
,
0100
0000
0010
0000
0001
1000
0001
0000
,
1000
0000
0100
1000
,
0010
0000
0100
0000
0010
1000
0010
0000
,
0100
0000
0001
0010
,
0100
0000
0010
0000
0001
1000
0001
0000
,
0100
0000
0010
1000
,
0002
0023
0230
2300
,
3001
1000
0001
0000
0100
0000
0100
0000
,
0010
0000
1000
0000
0001
0010
0001
0000
,
1000
0100
1000
0010
,
0001
0000
0010
0000
1000
0001
1000
0000
,
0010
0010
0100
0100
,
0001
0001
1000
1000
,
0001
0010
1000
0010
,
0001
0100
0001
0000
1000
0100
1000
0000
;

//---------------dance-single - Marten-bSP----------------
#NOTES:
     dance-single:
     Marten:
     Beginner:
     4:
     0.188287,0.243395,0.043691,0.203891,0,181,175,6,28,0,0,0.188287,0.243395,0.043691,0.203891,0,181,175,6,28,0,0:
0000
0000
0000
0000
,
0000
0000
0000
0000
,
0000
0000
0000
0000
,
0000
0000
0000
0000
,
0001
0000
0100
0000
,
0010
0010
0010
0000
,
1000
0000
0100
0000
,
0020
0000
0000
0030
,
0001
0000
0001
0000
,
1000
0000
1000
0000
,
0010
0000
0010
0000
,
0100
0000
0100
0000
,
0001
0000
0010
0000
,
0100
0000
1000
0000
,
0001
0000
1000
0000
,
0020
0000
0030
0000
,
2002
0000
0000
0000
,
0000
0000
0000
0000
,
0000
0000
0000
0000
,
0000
0000
0000
3003
,
0002
0000
0000
0003
,
0200
0000
0000
0300
,
0020
0000
0000
0030
,
2000
0000
0000
3000
,
0001
0000
0001
0000
,
0010
0000
0100
0000
,
1000
0000
1000
0000
,
0010
0000
0100
0000
,
0001
0000
0100
0000
,
1000
0000
0100
0000
,
0001
0000
0010
0000
,
0220
0000
0330
0000
,
1001
0000
0001
0000
,
1000
0000
1000
0000
,
0020
0030
0010
0000
,
0100
0000
0010
0010
,
0020
0030
1000
0000
,
0001
0000
0010
0000
,
0200
0300
1000
0000
,
0010
0010
0010
0010
,
0020
0030
0100
0000
,
0001
0000
1000
0000
,
0002
0003
0010
0000
,
0100
0000
1000
1000
,
2000
3000
0010
0000
,
1000
0000
0001
0000
,
0200
0300
0001
0000
,
1000
0000
0010
0000
,
0220
0000
0000
0000
,
0000
0000
0000
0000
,
0000
0000
0000
0000
,
0000
0000
0000
0330
,
0020
0000
0000
0030
,
2000
3000
0002
0003
,
0020
0000
0000
0030
,
0200
0300
2000
3000
,
0001
0001
0001
0000
,
1000
1000
1000
0000
,
0010
0010
0010
0000
,
0100
0100
0100
0000
,
0001
0000
0010
0000
,
1000
0000
0010
0000
,
0001
0000
1000
0000
,
2002
0000
0000
3003
,
0001
0000
0100
0000
,
0001
0001
0001
0000
,
1000
0000
0100
0000
,
1000
1000
1000
0000
,
0001
0000
0010
0000
,
0001
0001
0001
0000
,
1000
0000
0010
0000
,
0100
0000
0001
0000
,
1000
0000
0100
0000
,
0010
0010
0010
0000
,
0001
0000
0100
0000
,
0010
0010
0010
0000
,
1000
0000
0010
0000
,
0100
0100
0100
0000
,
0001
0000
0010
0000
,
0100
0000
1000
0000
,
0001
0000
0100
0000
,
0010
0000
1000
0000
,
0001
0000
1000
0000
,
0100
0000
0010
0000
,
0001
0000
0100
0000
,
1000
0000
0100
0000
,
0001
0000
0010
0000
,
0200
0000
0000
0300
,
1000
1000
1000
0000
,
0001
0000
1000
0000
,
0010
0000
0010
0000
,
0100
0000
0100
0000
,
0001
0000
0010
0000
,
0100
0000
1000
0000
,
0001
0000
0100
0000
,
0010
0000
1001
0000
;

//---------------dance-double - NewbStepper-EDP----------------
#NOTES:
     dance-double:
     NewbStepper:
     Hard:
     15:
     0.709459,0.871545,0.174764,0.400501,0.367733,682,658,24,55,0,0,0.709459,0.871545,0.174764,0.400501,0.367733,682,658,24,55,0,0:
00000000
00000000
00000000
00000000
,
00000000
00000000
00000000
00000000
,
00000000
00000000
00000000
00000000
,
00000000
00000000
00000000
00000000
,
00011000
00000000
00010000
00001000
00000100
00000010
00001000
00000001
,
00000000
00000000
00000001
00000000
00000100
00000000
00001000
00000000
00010000
00000000
01000000
00000000
10000000
00100000
10000000
00000000
,
00010000
00000000
10000000
01000000
00010000
00001000
00000010
00001000
,
00022000
00000000
00000000
00033000
,
00010000
00001000
00100000
00001000
00010000
00001000
00000010
00000001
,
00000100
00000000
00001000
00000000
00000100
00000000
00000001
00000000
00000010
00000000
00001000
00000000
00010000
00001000
00010000
00000000
,
00001000
00010000
00000010
00010000
00001000
00010000
00100000
10000000
,
01000000
00000000
00010000
00000000
01000000
00000000
10000000
00000000
00100000
00000000
00010000
00000000
00001000
00010000
00001000
00000000
,
00100000
00010000
00100000
00010000
10000000
00100000
01000000
00010000
,
00100000
00001000
00010000
00000100
00001000
00000010
00000100
00000001
,
00001000
00000010
00001000
00000010
00010000
00000010
00010000
00000010
00010000
00001000
00010000
00001000
00100000
00001000
00100000
00001000
,
00020000
00000000
00000000
00000000
00130000
00000000
00000000
00000000
01000000
00100000
01000000
00000000
01100000
00000000
00000000
00000000
,
20020000
00000000
00000000
00000000
,
00000000
00000000
00000000
00000000
,
00000000
00000000
00000000
00000000
,
00000000
00000000
00000000
30030000
,
20000000
01000000
00000000
01000000
00000000
01000000
00000000
31000000
,
00200000
00010000
00000000
00010000
00000000
00010000
00000000
00310000
,
00002000
00000100
00000000
00000100
00000000
00000100
00000000
00003100
,
00000020
00000001
00000000
00000001
00000000
00000001
00000000
00000031
,
00001001
00000000
00000000
00001000
00000100
00000000
00000010
00000000
00000100
00000000
00010000
00000000
00010000
00000000
00000000
00000000
,
00001000
00010000
00000000
00010000
00100000
00000000
01000000
00000000
00010000
00000000
10000000
00000000
01000000
00100000
01000000
00000000
,
10000000
00000000
00000000
00010000
01000000
00000000
00100000
00000000
01000000
00000000
00001000
00000000
00001000
00000000
00000000
00000000
,
00010000
00000000
00000100
00001000
00000100
00000000
00010000
00000000
00001000
00000000
00000010
00000000
00000001
00000100
00000001
00000000
,
00000100
00000010
00001000
00000100
00010000
00001000
00100000
00010000
,
01000000
00100000
10000000
01000000
00100000
00010000
01000000
00100000
,
00010000
00001000
00010000
00000000
00000100
00001000
00000100
00000000
00000010
00000001
00000010
00000000
00000100
00000010
00000100
00000000
,
00000220
00000000
00000330
00001001
,
00000201
00000000
00001300
00001000
00010000
00100000
00010000
00001000
,
00000010
00000000
00001000
00000000
00010000
00001000
00010000
00000000
00001000
00010000
00001000
00000000
01000000
00000000
01000000
00000000
,
00200000
00000000
00000000
00000000
00310000
00000000
00010000
00000000
00001000
00010000
00001000
00000000
00000010
00000000
00000001
00000100
,
00000010
00000000
00001000
00000000
00000010
00000100
00000001
00000000
00000010
00000000
00001000
00000000
00020000
00000000
00000000
00000000
,
00032000
00000000
00013000
00010000
00001000
00000010
00001000
00010000
,
00100000
00000000
00010000
00000000
00001000
00010000
00001000
00000000
00010000
00001000
00010000
00000000
00000100
00000000
00000100
00000000
,
00000020
00000000
00001030
00010000
00100000
10000000
01000000
00010000
,
00011000
00000000
00000000
00000000
00011000
00000000
00000000
00000000
00001000
00010000
00001000
00010000
00001000
00010000
00001000
00010000
,
00000020
00000000
00000000
00000000
00001030
00000000
00001000
00000000
00000001
00000100
00000001
00000100
00000000
00000010
00001000
00000010
,
00000000
00010000
00001000
00010000
00000000
00001000
00100000
00001000
00000000
01000000
00010000
01000000
00000000
00100000
10000000
00100000
,
02000000
00000000
00000000
00000000
03010000
10000000
00010000
00000000
00000000
00010000
00100000
00000000
00000000
00001000
00010000
00000000
,
00000000
00000100
00001000
00000000
00000000
00000001
00000100
00000000
00000000
00001000
00010000
00000000
02000000
00000000
00000000
00000000
,
03200000
00000000
00000000
00000000
00310000
00000000
00010000
00000000
10000000
01000000
10000000
01000000
00000000
00100000
00010000
00100000
,
00000000
00001000
00010000
00001000
00000000
00010000
00000010
00010000
00000000
00000100
00001000
00000100
00000000
00000010
00000001
00000010
,
00000200
00000000
00000000
00000000
00001300
00000001
00001000
00000000
00000000
00001000
00000010
00000000
00000000
00010000
00001000
00000000
,
00011000
00000000
00011000
00000000
00010000
00100000
01100000
00000000
,
20010000
00000000
00000000
00000000
00000000
00000000
00000000
32000000
,
00000000
00000000
00000000
03020000
,
00000000
00000000
00000000
00000000
00000000
00032000
00000000
00003020
,
00000000
00000000
00000000
00000032
00000000
00000000
00000000
00000000
,
00000203
00000000
00000000
00000000
00000000
00002300
00000000
00023000
,
00000000
00000000
00000000
00230000
00000000
00000000
00000000
00000000
,
20300000
00000000
00000000
00000000
00000000
30020000
00000000
02030000
,
00000000
00000000
00000000
03002000
00000000
00000000
00013000
00000000
,
00001000
00010000
00100000
00010000
00002000
00000000
00103000
00010000
,
01000000
00100000
01000000
00000000
00010000
00000000
10000000
00000000
00100000
00000000
01000000
00000000
00200000
00000000
00000000
00000000
,
00310000
00001000
00000010
00000100
00001000
00000010
00000001
00001000
,
00000100
00000000
00000001
00000000
00000100
00000010
00000100
00000000
00000001
00000000
00000100
00000000
00001000
00010000
00001000
00000000
,
00100000
00010000
00001000
01000000
00010000
00001000
00000010
00010000
,
00001000
00000100
00000001
00000100
00001000
00000010
00000100
00001000
,
00010000
00001000
00010000
00001000
00100000
00001000
00100000
00001000
00100000
00010000
00100000
00010000
00100000
00010000
10000000
00010000
,
10000000
00000000
00000000
00000000
,
00001000
00010000
01000000
00010000
00012000
00000000
00003010
00000200
,
00000000
00000301
00000100
00001000
00000010
00000100
00000020
00000000
,
00010030
00001000
00000100
00001000
00021000
00000000
00130000
02000000
,
00000000
13000000
01000000
00010000
00100000
01000000
00200000
00000000
,
00310000
10000000
01000000
00010000
00012000
00000000
00103000
00020000
,
00000000
01030000
00100000
00010000
00001000
00000010
00001000
00010000
,
00000010
00000100
00001000
00020000
00000000
00030010
00000100
00001000
,
00020000
00000000
01030000
00010000
00000100
00010000
00011000
00000000
,
00011000
00000000
00001000
00010000
00100000
00000000
10000000
00000000
02000000
00000000
00100000
00000000
03100000
00000000
00002000
00000000
,
00010000
00013000
00001000
00000010
00000001
00000100
00001000
00000000
,
00011000
00000000
00010000
00001000
00000010
00000000
00000001
00000000
00000200
00000000
00000010
00000000
00000310
00000000
00020000
00000000
,
00001000
00031000
00000010
00001000
00010000
00100000
00010000
00001000
,
00100000
10000000
00100000
00001000
00010000
00000010
00000001
00000010
,
00001000
00000100
00000010
00000001
00000100
00001000
00010000
00001000
,
01000000
00100000
00010000
00002000
00000000
01003000
00100000
00010000
,
00011000
00000000
00011000
00000000
00001000
00000010
00000110
00000000
,
00000001
00000100
00001000
00000001
00000010
00001000
00010000
01000000
,
10000000
00000000
00010000
00000000
00100000
00000000
10000000
00000000
01000000
00100000
01000000
00000000
10000000
00010000
01000000
00100000
,
10000000
01000000
00010000
10000000
00100000
00010000
00001000
00000100
,
00000001
00000000
00001000
00000000
00000010
00000000
00000001
00000000
00000100
00000010
00000100
00000000
00000001
00001000
00000100
00000010
,
00000001
00000100
00001000
00010000
00000010
00001000
00000100
00000010
,
00001000
00000000
00010000
00000000
01000000
00000000
00010000
00000000
00001000
00000000
00000100
00000000
00001000
00010000
00100000
00000000
,
10000000
01000000
00010000
00001000
00100000
00010000
01000000
00100000
,
00020000
00000000
00032000
00000000
00013000
00010000
00010010
00000000
,
00000010
00010000
00001000
00000100
00010000
00001000
00000010
00010000
,
00001000
00000000
00000100
00000000
00000001
00000010
00000100
00000000
00010000
00000000
00010000
00000000
00001000
00010000
00001000
00000000
,
00100000
00001000
00010000
01000000
00001000
00010000
00100000
00001000
,
00010000
00000000
01000000
00000000
10000000
00100000
01000000
00000000
00001000
00000000
00001000
00000000
00010000
00001000
00010000
00000000
,
00001000
00000010
00000001
00000100
00000010
00001000
00010000
01000000
,
00100000
10000000
01000000
00010000
00001000
00000010
00000001
00000100
,
00000010
00001000
00000010
00001000
00000100
00010000
00000100
00010000
00001000
00100000
00001000
00100000
00010000
01000000
00010000
01000000
,
00200000
00000000
00000000
00000000
10300000
00000000
00000000
00000000
01000000
10000000
01000000
10000000
00010000
00000000
00000000
00000000
;

//---------------dance-double - NewbStepper-DDP----------------
#NOTES:
     dance-double:
     NewbStepper:
     Medium:
     13:
     0.602312,0.627512,0.138355,0.393219,0.021846,579,560,19,54,0,0,0.602312,0.627512,0.138355,0.393219,0.021846,579,560,19,54,0,0:
00000000
00000000
00000000
00000000
,
00000000
00000000
00000000
00000000
,
00000000
00000000
00000000
00000000
,
00000000
00000000
00000000
00000000
,
10000000
00000000
01000000
00100000
01000000
10000000
00100000
01000000
,
00010000
00100000
00001000
00010000
00000100
00001000
00000010
00000100
,
00000001
00000000
00000100
00000010
00001000
00000100
00000001
00000100
,
00002000
00000000
00000000
00003000
,
00000001
00001000
00000001
00000100
00000010
00001000
00000100
00010000
,
00001000
00010000
00100000
01000000
00010000
10000000
01000000
00000000
,
10000000
00010000
10000000
01000000
00100000
00010000
01000000
00001000
,
00010000
00001000
00000010
00000100
00001000
00000001
00000100
00000000
,
00000010
00001000
00000010
00001000
00000010
00010000
00000010
00010000
,
00001000
00010000
00001000
00100000
00001000
00100000
00010000
01000000
,
00010000
01000000
00100000
10000000
01000000
00010000
00001000
00000100
,
00000020
00000000
00000130
00000110
,
00002002
00000000
00000000
00000000
,
00000000
00000000
00000000
00000000
,
00000000
00000000
00000000
00000000
,
00000000
00000000
00000000
00003003
,
00000002
00000000
00000000
00000000
00000000
00000010
00000103
00020000
,
00000000
00000000
00032000
00000000
,
02003000
00000000
00000000
00000000
03000000
00100000
10000000
02000000
,
00000000
03100000
00010000
00100000
00001000
00010000
00001000
00000000
,
00011000
00000000
00000000
00010000
00000000
00000000
00001000
00000000
00000010
00000000
00000001
00000000
00000001
00000000
00000000
00000000
,
00000100
00000001
00000100
00000010
00001000
00000100
00010000
00000000
,
00011000
00000000
00000000
00001000
00000000
00000000
00010000
00000000
00100000
00000000
10000000
00000000
10000000
00000000
00000000
00000000
,
01000000
10000000
01000000
00100000
00010000
01000000
00001000
00000000
,
00010000
00001000
00010000
00001000
00000010
00000001
00000010
00000001
,
00001000
00000010
00001000
00000010
00010000
00001000
00010000
00001000
,
00010000
01000000
10000000
01000000
00010000
00001000
00000010
00000001
,
00000010
00000000
00000000
00000110
,
00002001
00000000
00003001
00000001
00000100
00000100
00000010
00000010
,
00001000
00001000
00010000
01000000
00010000
00100000
10000000
00100000
,
00020000
00000000
10030000
10000000
01000000
01000000
00100000
00100000
,
00010000
00010000
01000000
00001000
00010000
00001000
00000020
00000000
,
00000032
00000000
00000103
00001000
00000100
00000001
00000010
00001000
,
00010000
00100000
10000000
01000000
00010000
01000000
10000000
00100000
,
20000000
00000000
31000000
00010000
01000000
10000000
00100000
00010000
,
00001000
00000000
00011000
00000000
00010000
00001000
00000100
00000001
,
00002001
00000000
00003001
00000001
00000100
00010000
00000100
00000001
,
00000100
00001000
00010000
01000000
10000000
01000000
00100000
00010000
,
10020000
00000000
00130000
00001000
00010000
01000000
00001000
00000100
,
00000010
00001000
00100000
01000000
10000000
00010000
01000000
00000000
,
10020000
00000000
10030000
10000000
01000000
00001000
01000000
10000000
,
01000000
00010000
00001000
00000100
00000001
00000100
00000010
00001000
,
00002001
00000000
00003010
00000100
00001000
00010000
00100000
01000000
,
01100000
10010000
01100000
10010000
,
20000000
00000000
00000000
00000000
00000000
00000000
00000000
30020000
,
00000000
00000000
00000000
02030000
,
00000000
00000000
00000000
00000000
00000000
03002000
00000000
00023000
,
00000000
00000000
00000000
00030200
00000000
00000000
00000000
00000000
,
00000320
00000000
00000000
00000000
00000000
00000032
00000000
00002003
,
00000000
00000000
00000000
00003020
00000000
00000000
00000000
00000000
,
00000230
00000000
00000000
00000000
00000000
00002300
00000000
00023000
,
00000000
00000000
00000000
02030000
00000000
00000000
23000000
00000000
,
30010000
00000000
00000000
00010000
10000000
00000000
01000000
00000000
00010000
00000000
00001000
00000000
00001000
00000000
00000000
00000000
,
00010000
00001000
00000010
00000001
00000100
00000010
00001000
00000001
,
00001000
00000000
00000000
00001000
00000001
00000000
00000100
00000000
00001000
00000000
00010000
00000000
00010000
00000000
00000000
00000000
,
00001000
00010000
00100000
10000000
01000000
00100000
00010000
10000000
,
00010000
01000000
00100000
00010000
00001000
00000010
00001000
00010000
,
00001000
00000100
00001000
00010000
01000000
00010000
00001000
00000010
,
00000001
00000100
00001000
00010000
00100000
10000000
01000000
00010000
,
00002000
00000000
00003000
00011000
,
00010010
00010000
00001000
00000010
00000200
00000000
00000301
00000200
,
00000000
00000310
00000001
00000100
00001000
00010000
00002000
00000000
,
00103000
00001000
00010000
00100000
02000000
00000000
13000000
02000000
,
00000000
03100000
10000000
01000000
00010000
00001000
00020000
00000000
,
00030010
00000100
00000001
00001000
00000200
00000000
00000310
00000002
,
00000000
00000103
00000010
00000100
00001000
00010000
01000000
00100000
,
00010000
02000000
00000000
03100000
10000000
00010000
00100000
00001000
,
00010000
00000010
00001000
00000001
00000100
00000010
00002000
00000000
,
00003001
00000100
00001000
00010000
00200000
00000000
10300000
00020000
,
00000000
01030000
00100000
10000000
01000000
00100000
00020000
00000000
,
10030000
01000000
00010000
00001000
00000020
00000000
00000031
00002000
,
00000000
00003001
00000100
00000010
00001000
00000001
00000200
00000000
,
00001300
00010000
00100000
10000000
00020000
00000000
10030000
02000000
,
00000000
03100000
00001000
00010000
01000000
00010000
00001000
00010000
,
00000010
00001000
00000100
00000020
00000000
00000031
00000100
00000010
,
00001000
00000100
00010000
00001000
00100000
00010000
20000000
00000000
,
30010000
00000000
00100000
00001000
00010000
00001000
00100000
00001000
,
00010000
00000010
00010000
00001000
00010000
00000100
00000010
00000001
,
00001000
00000000
00000010
00010000
00001000
00010000
00000010
00010000
,
00001000
00100000
00001000
00010000
00001000
01000000
00100000
10000000
,
00010000
00000000
01000000
00100000
00010000
00001000
00100000
00010000
,
01000000
00100000
00010000
00001000
00010000
00000010
00001000
00000100
,
00000001
00000000
00000100
00000010
00001000
00010000
00000010
00001000
,
00000100
00000010
00001000
00000000
00010000
00100000
10000000
00010000
,
01000000
00100000
01000000
00001000
00010000
00001000
00000100
00000001
,
00001000
00000100
00000010
00000001
00000100
00001000
00010000
00010000
,
00000100
00000010
00000100
00010000
00001000
00010000
01000000
10000000
,
00010000
01000000
00100000
10000000
01000000
00010000
00001000
00001000
,
00100000
00010000
00100000
00010000
01000000
00001000
01000000
00001000
,
00010000
00000010
00010000
00000010
00001000
00000001
00001000
00000001
,
00000100
00001000
00010000
00100000
10000000
01000000
00010000
00001000
,
00000010
00000001
00000000
00000000
00000101
00000000
00000000
00000000
00000010
00001000
00000000
00000000
00001100
00000000
00000000
00000000
;

//---------------dance-double - NewbStepper-BDP----------------
#NOTES:
     dance-double:
     NewbStepper:
     Easy:
     8:
     0.356810,0.453203,0.087382,0.269428,0,343,331,12,37,0,0,0.356810,0.453203,0.087382,0.269428,0,343,331,12,37,0,0:
// measure 0
00000000
00000000
00000000
00000000
,  // measure 1
00000000
00000000
00000000
00000000
,  // measure 2
00000000
00000000
00000000
00000000
,  // measure 3
00000000
00000000
00000000
00000000
,  // measure 4
10010000
10000000
01000000
00100000
,  // measure 5
01000000
00000000
00010000
00000000
00001000
00010000
00001000
00000000
,  // measure 6
00000100
00000000
00000001
00001000
,  // measure 7
00000002
00000203
00000320
00002030
,  // measure 8
00003100
00000100
00010000
00001000
,  // measure 9
00100000
00000000
00010000
00000000
01000000
00100000
01000000
00000000
,  // measure 10
00010000
10000000
01000000
00010000
,  // measure 11
00001000
00000000
00000100
00000000
00000001
00000010
00000001
00000000
,  // measure 12
00001000
00001000
00000010
00000010
,  // measure 13
00010000
00010000
00001000
00001000
,  // measure 14
00010000
00100000
10000000
00100000
,  // measure 15
00010000
00000000
00000000
00000000
,  // measure 16
00022000
00000000
00000000
00000000
,  // measure 17
00000000
00000000
00000000
00000000
,  // measure 18
00000000
00000000
00000000
00000000
,  // measure 19
00000000
00000000
00000000
00033000
,  // measure 20
00000200
00000000
00000000
00000000
00000000
00000000
00000000
00020300
,  // measure 21
00000000
00000000
00032000
00000000
,  // measure 22
00203000
00000000
00000000
00000000
00000000
00320000
00000000
20030000
,  // measure 23
00000000
00000000
30200000
00000000
,  // measure 24
01300000
00001000
00010000
00010000
,  // measure 25
00000100
00010000
00001000
00001000
,  // measure 26
00100000
00010000
01000000
01000000
,  // measure 27
00100000
10000000
01000000
01000000
,  // measure 28
00010000
00001000
00000100
00000001
,  // measure 29
00000010
00001000
00010000
00000100
,  // measure 30
00001000
00001000
00000001
00000001
,  // measure 31
00001001
00000000
00000000
00000110
,  // measure 32
00002001
00003001
00000100
00000100
,  // measure 33
00000010
00000000
00010000
00001000
00010000
00000000
00001000
00000000
,  // measure 34
00200000
00000000
00310000
00000000
10000000
00100000
10000000
00000000
,  // measure 35
00010000
00100000
00010000
00000000
01000000
00000000
00002000
00000000
,  // measure 36
00023000
00030100
00000010
00000001
,  // measure 37
00000100
00000000
00000010
00000000
00010000
00001000
00010000
00000000
,  // measure 38
00002000
00103000
00010000
10000000
,  // measure 39
10010000
00000000
10010000
00000000
00010000
00100000
00010000
00100000
,  // measure 40
00002000
00013000
01000000
10000000
,  // measure 41
01000000
00010000
00001000
00000010
,  // measure 42
00000002
00001003
00000001
00000010
,  // measure 43
00000100
00010000
00001000
00000020
,  // measure 44
00000230
00010300
00001000
00100000
,  // measure 45
01000000
00000000
10000000
00000000
00010000
01000000
00010000
00000000
,  // measure 46
00200000
00000000
00301000
00000000
00010000
00000010
00010000
00000000
,  // measure 47
00001000
00000100
00000020
00000030
,  // measure 48
00001002
00000000
00000000
00000000
,  // measure 49
00002003
00000000
00000000
00000000
,  // measure 50
00003200
00000000
00000000
00000000
,  // measure 51
00020300
00000000
00000000
00000000
,  // measure 52
00032000
00000000
00000000
00000000
,  // measure 53
00203000
00000000
00000000
00000000
,  // measure 54
00320000
00000000
00000000
00000000
,  // measure 55
20030000
00000000
00000000
00000000
,  // measure 56
31000000
00100000
00001000
00001000
,  // measure 57
01000000
00100000
00010000
00010000
,  // measure 58
00000010
00000100
00001000
00001000
,  // measure 59
00010000
00000100
00001000
00001000
,  // measure 60
00000001
00000100
00001000
00010000
,  // measure 61
00100000
10000000
01000000
00010000
,  // measure 62
00001000
00001000
00010000
00010000
,  // measure 63
00022000
00000000
00033000
00011000
,  // measure 64
00001000
00000010
00000001
00000100
,  // measure 65
00000010
00000000
00000100
00000000
00001000
00010000
00001000
00000000
,  // measure 66
00010000
00100000
10000000
01000000
,  // measure 67
00100000
00000000
01000000
00000000
00010000
00001000
00010000
00000000
,  // measure 68
00001000
00000100
00000010
00000100
,  // measure 69
00000001
00000000
00000010
00000000
00000100
00000010
00000100
00000000
,  // measure 70
00001000
00000001
00000100
00000010
,  // measure 71
00010000
00000000
00001000
00000000
01000000
00010000
02000000
00000000
,  // measure 72
03100000
00100000
10000000
10000000
,  // measure 73
01000000
00000000
00010000
00000000
00001000
00010000
00001000
00000000
,  // measure 74
00000010
00000010
00000001
00000001
,  // measure 75
00000100
00000000
00001000
00000000
00010000
00001000
00010000
00000000
,  // measure 76
01000000
01000000
00010000
00010000
,  // measure 77
00001000
00000000
00010000
00000000
00000010
00001000
00000010
00000000
,  // measure 78
00000100
00000001
00000010
00000100
,  // measure 79
00001000
00000010
00000100
00001000
,  // measure 80
00011000
00000000
00010000
00100000
,  // measure 81
01000000
00000000
00100000
00000000
00010000
00001000
00010000
00000000
,  // measure 82
00001000
00000000
00001000
00000010
,  // measure 83
00000100
00000000
00000010
00000000
00001000
00010000
00001000
00000000
,  // measure 84
00010000
00000000
00100000
10000000
,  // measure 85
01000000
00000000
00100000
00000000
00010000
01000000
00010000
00000000
,  // measure 86
00100000
00000000
00001000
00010000
,  // measure 87
00022000
00000000
00000000
00033000
,  // measure 88
00010000
00001000
00010000
00000000
00000100
00000000
00000100
00000000
,  // measure 89
00000010
00000000
00000001
00000000
00001000
00000010
00001000
00000000
,  // measure 90
00000001
00000100
00000010
00001000
,  // measure 91
00000100
00010000
00001000
00100000
,  // measure 92
00001000
00010000
00001000
00000000
01000000
00000000
01000000
00000000
,  // measure 93
00100000
00000000
10000000
00000000
00010000
00100000
00010000
00000000
,  // measure 94
10000000
00100000
00010000
00001000
,  // measure 95
00000010
00000001
00000010
00000000
00000100
00001000
00000100
00000000
;
