#VERSION:0.83;
#TITLE:True Blue (STARDOM Remix);
#ARTIST:かめりあ;
#ARTISTTRANSLIT:Camellia;
#BANNER:True Blue (STARDOM Remix).png;
#BACKGROUND:True Blue (STARDOM Remix)-bg.png;
#JACKET:True Blue (STARDOM Remix)-jacket.png;
#MUSIC:True Blue (STARDOM Remix).ogg;
#SAMPLESTART:25.352;
#SAMPLELENGTH:15;
#BPMS:0=142;

//---------------dance-single - Marten-CSP----------------
#NOTEDATA:;
#CHARTNAME:Marten-CSP;
#STEPSTYPE:dance-single;
#DESCRIPTION:Marten-CSP;
#DIFFICULTY:Challenge;
#METER:10;
#RADARVALUES:0.351009,0.524180,0.378010,0.353357,0,299,253,46,43,152,0,0,0,0,0.351009,0.524180,0.378010,0.353357,0,299,253,46,43,152,0,0,0,0;
#CREDIT:Marten;
#NOTES:
0000
0000
0000
0000
,
0000
0000
0000
0000
,
0000
0000
0000
0000
,
0000
0000
0000
0000
,
0000
0000
0000
0000
,
1000
0001
0001
0010
,
1000
0010
0010
0010
,
0010
0010
0001
0010
,
1000
0010
0001
0010
,
1010
1100
1010
0110
,
0101
0011
0101
0110
,
0101
0011
0110
0011
,
0110
1100
1010
0010
,
0100
0010
0100
0010
0100
0010
0100
0000
,
0110
0000
1001
1001
,
0010
0000
0100
0000
0010
1000
0010
0000
,
1000
0000
0010
0000
0100
0010
0100
0000
,
1000
0000
0001
0000
0010
0001
0010
0000
,
0001
0000
0100
0000
0010
0100
0010
0100
,
0001
0000
0100
0000
0001
1000
0010
0000
,
1000
0000
0010
0000
0100
0001
0100
0010
,
1000
0000
0010
0000
0100
0000
2002
3000
,
2000
0000
0000
3003
,
0001
MMMM
0001
MMMM
0001
MMMM
0001
MMMM
,
0001
MMMM
0001
MMMM
0001
MMMM
0001
MMMM
,
0002
0100
0100
0010
,
0010
1000
1000
1003
,
1000
0010
1000
MMMM
1000
MMMM
1000
MMMM
,
1000
MMMM
1000
MMMM
1000
MMMM
2000
0000
,
0100
0010
0001
3001
,
1000
0110
1001
MMMM
,
1002
0103
0002
0013
,
0020
0031
0010
1000
,
0020
0130
2000
3100
,
0002
0013
0010
0001
,
0020
0130
0002
1003
,
0020
0130
0002
0103
,
1000
0010
0100
0002
,
1003
MMMM
2002
3000
,
0200
0000
0000
0003
0020
0000
0000
0030
,
2000
0000
0000
3000
0020
0000
0300
0000
,
0002
0000
0000
0003
0200
0000
0000
0300
,
2000
0000
0000
3000
0200
0000
0000
0030
,
2000
0000
0000
3000
0020
0000
0000
0030
,
0002
0000
0000
0003
0020
0000
0000
0300
,
2000
0000
0000
3000
0200
0000
0000
0300
,
0002
0000
0000
0003
0200
0000
0030
0300
,
0001
1000
0010
0001
,
0010
1000
0010
0001
,
0010
1000
0100
1000
,
0010
0100
0001
1000
,
0001
0010
0001
0000
0100
0010
1000
0000
,
0010
0100
0001
0000
0100
0010
1000
0000
,
1001
1001
1001
1001
,
2002
0003
3001
0000
,
1000
MMMM
1000
MMMM
1000
MMMM
1000
MMMM
,
2000
0100
0010
3001
,
0001
MMMM
0001
MMMM
0001
MMMM
0001
MMMM
,
0002
0100
0010
1003
,
1000
MMMM
1000
MMMM
1000
MMMM
1000
MMMM
,
1000
MMMM
1000
MMMM
2000
0000
0100
0000
,
0010
3001
0002
0010
,
0010
0100
1003
0000
,
1001
0000
0010
MMMM
0010
0000
MMMM
0000
,
1001
0010
1001
0010
,
2002
0000
3003
MMMM
,
1001
0110
1002
0103
,
MMMM
1001
0011
1001
,
1010
1001
0110
1001
,
0001
0100
0010
1000
0010
0100
0001
1000
,
MMMM
1001
MMMM
1001
MMMM
1001
MMMM
1001
;

//---------------dance-single - Marten-ESP----------------
#NOTEDATA:;
#CHARTNAME:Marten-ESP;
#STEPSTYPE:dance-single;
#DESCRIPTION:Marten-ESP;
#DIFFICULTY:Hard;
#METER:14;
#RADARVALUES:0.595189,0.786270,0.336922,0.402662,0.435533,507,466,41,49,0,0,0,0,0,0.595189,0.786270,0.336922,0.402662,0.435533,507,466,41,49,0,0,0,0,0;
#CREDIT:Marten;
#NOTES:
0000
0000
0000
0000
,
0000
0000
0000
0000
,
0000
0000
0000
0000
,
0000
0000
0000
0000
,
0000
0000
0000
0000
,
0002
0000
0000
0023
0000
0000
2030
0000
0000
3020
0000
0000
0230
0000
0000
2300
,
0000
0000
3020
0000
0000
0032
0000
0000
0023
0000
0000
0230
0000
0000
0302
0000
,
2003
0000
0000
3020
0000
0000
0032
0000
0000
0023
0000
0000
0230
0000
0000
0302
,
0000
0000
0023
0000
0000
2030
0000
0000
3010
0000
0001
0100
0010
0000
0000
0000
,
1000
0001
0010
0001
0100
0010
0100
0001
,
1000
0100
0010
1000
0010
0001
0100
0010
,
0100
0001
0010
1000
0001
0100
1000
0010
,
1000
0100
0001
0100
1000
0010
0100
0000
,
0101
0000
0000
0000
0000
0000
1100
0000
0000
0000
0000
0000
1000
0000
0010
1000
0000
0010
0100
0000
0010
0100
0000
0001
,
0200
0300
0110
1001
,
0011
0000
0000
0001
0000
0000
0100
0000
0000
0000
0000
0010
1000
0000
0000
0100
0000
1000
0001
0000
0000
1000
0000
0100
,
0010
0000
0000
0001
0000
0000
0100
0000
0000
0000
0000
0001
0010
0000
0000
0100
0000
1000
0010
0000
0000
0100
0000
0000
,
0001
0000
0000
1000
0000
0000
0100
0000
0000
0000
0000
0010
0100
0000
0000
1000
0000
0001
1000
0000
0000
0010
0000
0100
,
0001
0000
0000
0100
0000
0000
0010
0000
0000
0000
0000
1000
0100
0000
0000
0010
0000
0001
0100
0000
0001
1000
0000
0001
,
0100
0000
0000
0001
0000
0000
0001
0000
0000
0000
0000
0010
0001
0000
0000
0100
0000
0001
1000
0000
0000
0001
0000
0100
,
0010
0000
0000
1000
0000
0000
0100
0000
0000
0000
0000
1000
0010
0000
0000
0100
0000
0001
0010
0000
0000
0100
0000
0000
,
1000
0000
0000
0001
0000
0000
0100
0000
0000
0000
0000
0010
0100
0000
0000
0001
0000
1000
0000
0000
0001
0000
0000
2002
,
0000
3003
0000
0000
0000
0000
0000
0000
,
1001
0001
0100
0010
0100
0001
0010
0100
,
1000
0001
0100
0001
1000
0100
0001
0100
,
1000
0010
0100
0001
0100
0010
0001
0010
,
0100
0001
0010
0100
1000
0001
1000
0000
,
0100
0100
0110
0000
0010
0001
0100
0001
,
0010
1000
0010
0001
0100
0010
0001
0010
,
0100
0001
1000
0100
0010
0100
1000
0001
,
0010
0000
0001
1000
0100
0000
1000
0001
0100
0000
0000
0100
0000
0000
0100
0000
,
0020
0000
0000
0000
0000
0000
0030
0000
0000
0000
0000
0000
1000
0000
0000
0000
0000
0000
1100
0000
0000
0000
0000
0012
,
0000
0000
0000
0000
0000
0000
1003
0000
0000
0000
0000
1010
0000
0000
0000
0000
0000
0110
0000
0000
0000
0100
0000
0000
,
0102
0000
0000
0000
0000
0000
0013
0000
0000
0000
0000
0100
1000
0000
0000
0000
0000
0000
1001
0000
0000
0000
0000
1200
,
0000
0000
0310
0001
1000
0000
1010
0000
,
0201
0000
0000
0000
0000
0000
0310
0000
0000
1000
0000
0000
0100
0000
0000
0000
0000
0000
1100
0000
0000
0000
0000
1020
,
0000
0000
0000
0000
0000
0000
0130
0000
0000
0000
0000
0101
0000
0000
0000
0000
0000
1001
0000
0000
0000
1000
0000
0000
,
1200
0000
0000
0000
0000
0000
0310
0000
0000
0000
0000
0001
0100
0000
0000
0000
0000
0000
0101
0000
0000
0000
0000
0110
,
0000
0000
0000
0000
0000
0010
0000
0000
1000
0001
0000
0000
0010
0000
0000
0100
0000
0000
0010
0000
0000
0100
0000
0000
,
2000
0000
0000
0010
0000
0010
0000
0001
,
3002
0000
0000
0100
0000
0000
0100
0000
,
0023
0000
0000
0001
0000
0000
0000
0000
,
0130
0000
0000
0000
1000
0100
1000
0000
0001
1000
0001
0000
0010
0001
0010
0000
,
0002
0000
0100
0100
0000
1000
1000
0000
,
2003
0000
0000
0010
0000
0000
0010
0000
,
3020
0000
0100
0100
0000
0001
0000
0100
,
0000
0230
0302
2003
,
3001
0010
0001
0010
1000
0010
0001
0000
,
1000
0010
1000
0010
0001
0010
1000
0000
,
0001
0100
1000
0100
0001
0010
0100
0020
,
0000
0032
2003
3020
,
1030
0100
0001
0000
0100
0001
0010
0000
,
0001
0010
1000
0000
0010
1000
0100
1000
,
1010
0000
0000
0000
0000
0000
0101
0000
0000
0000
0000
0000
0001
0000
0010
0001
0000
0010
0100
0000
0010
0100
0000
1000
,
0200
0000
0020
0330
,
0001
0000
0000
0100
0000
0001
0010
0000
0000
0000
0000
0100
1000
0000
0000
0001
0000
1000
0100
0000
0000
0010
0000
0001
,
0100
0000
0000
0001
0000
0000
1000
0000
0000
0000
0000
0010
1000
0000
0000
0100
0000
0010
0001
0000
0000
0010
0000
0000
,
0100
0000
0000
1000
0000
0000
0010
0000
0000
0000
0000
0100
0001
0000
0000
1000
0000
0001
0100
0000
0000
0001
0000
0010
,
0100
0000
0000
1000
0000
0000
0001
0000
0000
1000
0000
0100
0010
0000
0000
0001
0000
0100
0010
0000
1000
0010
0000
0100
,
0010
0000
0000
1000
0000
0000
0100
0000
0000
0000
0000
1000
0001
0000
0000
0010
0000
0001
1000
0000
0000
0010
0000
0100
,
0010
0000
0000
1000
0000
0000
0100
0000
0000
0000
0000
0010
0001
0000
0000
0100
0000
0001
0010
0000
0000
0100
0000
1000
,
0001
0000
0000
0100
0000
0000
0010
0000
0000
0100
0000
0001
1000
0000
0000
0100
0000
0010
0001
0000
0000
1000
0000
0001
,
0100
0000
0000
0001
0000
0010
0000
0000
0100
0000
0000
1000
0020
0000
0000
0000
0000
0000
0030
0000
0000
0000
0000
0000
,
0210
0000
0000
0000
0000
0000
0301
0000
0000
1000
0000
0000
1001
0000
0000
0000
0000
0000
1100
0000
0000
0000
0000
0012
,
0000
0000
0000
0000
0000
0000
0103
0000
0000
0000
0000
0110
0000
0000
0000
0000
0000
1010
0000
0000
0000
1000
0000
0000
,
1002
0000
0000
0000
0000
0000
0013
0000
0000
0000
0000
0100
1000
0000
0000
0000
0000
0000
1010
0000
0000
0000
0000
0102
,
0000
0000
0000
0000
0000
0000
1003
0000
0000
0000
0000
0100
0010
0000
0000
0001
0000
0100
0000
0000
0100
0000
0000
0100
,
0000
0000
0000
0000
0000
0000
0110
0000
0000
0010
0000
1000
0001
0000
0000
0010
0000
0001
1000
0000
0000
0010
0000
1000
,
0100
0000
0000
0010
0000
0001
0100
0000
0000
0010
0000
0100
0010
0000
0000
1000
0000
0000
0001
0000
0000
0010
0000
0000
,
0100
0000
1000
0100
0000
1000
0100
0000
0010
0001
0000
0010
0001
0000
1000
0001
0000
1000
0001
0000
0010
0100
0000
0010
,
0000
0000
0011
0000
0000
1100
0000
0000
1010
0000
0000
0101
0000
0000
1001
0000
;

//---------------dance-single - Marten-DSP----------------
#NOTEDATA:;
#CHARTNAME:Marten-DSP;
#STEPSTYPE:dance-single;
#DESCRIPTION:Marten-DSP;
#DIFFICULTY:Medium;
#METER:10;
#RADARVALUES:0.436707,0.495059,0.172570,0.410880,0.127373,372,351,21,50,0,0,0,0,0,0.436707,0.495059,0.172570,0.410880,0.127373,372,351,21,50,0,0,0,0,0;
#CREDIT:Marten;
#NOTES:
0000
0000
0000
0000
,
0000
0000
0000
0000
,
0000
0000
0000
0000
,
0000
0000
0000
0000
,
0000
0000
0000
0000
,
2000
0000
0000
3200
0000
0000
0320
0000
0000
0032
0000
0000
0203
0000
0000
0320
,
0000
0000
0230
0000
0000
0302
0000
0000
0023
0000
0000
0230
0000
0000
2300
0000
,
3002
0000
0003
0200
0000
0000
0320
0000
0000
2030
0000
0000
3200
0000
0000
0320
,
0000
0000
0230
0000
0000
2300
0000
0000
3010
0000
0100
0000
0001
0000
0000
0000
,
1000
0100
1000
0010
0100
0010
1000
0000
,
0001
0100
0001
0010
0100
0010
0001
0000
,
1000
0010
0100
0001
0000
0010
0001
1000
,
0000
0100
0010
0001
1000
0000
1001
0000
,
0001
0010
0001
0010
0100
1000
0100
1000
,
0020
0030
0110
1001
,
0001
0100
0001
0000
0010
0100
0010
0001
,
1000
0010
1000
0000
0100
1000
0010
0100
,
0010
1000
0001
0000
0010
0100
0010
0001
,
0100
0010
0100
0001
1000
1000
0001
0001
,
1000
0100
1000
0000
0001
0010
0100
0010
,
0001
0100
0001
0000
1000
0010
0100
0010
,
1000
0000
0000
0100
0000
0000
1000
0000
0000
0000
0000
0000
0001
0000
0000
0000
0000
0100
0000
0000
0010
0000
0000
0220
,
0000
0330
0000
0000
0000
0000
0000
0000
,
1001
0000
0001
1000
0020
0000
0130
0000
,
0002
0000
1003
0100
1000
0001
0100
0000
,
0001
0010
0100
0010
0001
0100
0010
0100
,
0001
1000
0200
0000
2300
0000
3001
0000
,
0001
0001
0002
0000
1003
0010
1000
0000
,
0100
1000
0010
0100
0010
1000
0001
0000
,
1000
0100
0001
0000
0001
0100
1000
0000
,
0001
0000
0100
0000
0001
0000
0100
0000
0010
0000
0000
0010
0000
0000
0010
0000
,
0200
0000
0000
0000
0000
0000
0300
0000
0000
0000
0000
0000
0001
0000
0000
0000
0000
0000
0010
0000
0000
0000
0000
0021
,
0000
0000
0000
0000
0000
0000
0130
0000
0000
0000
0000
1000
0000
0000
0000
0000
0000
0010
0000
0000
0000
0100
0000
0000
,
0120
0000
0000
0000
0000
0000
0000
0000
0000
0000
0000
0000
1030
0000
0000
0000
0000
0000
0001
0000
0000
0000
0000
0020
,
0000
0030
0100
1000
,
1002
0000
0000
0000
0000
0000
0000
0000
0000
0000
0000
0000
0103
0000
0000
0000
0000
0000
0010
0000
0000
0000
0000
1020
,
0000
0000
0000
0000
0000
0000
0130
0000
0000
0000
0000
0001
0000
0000
0000
0000
0000
0010
0000
0000
0000
0100
0000
0000
,
0120
0000
0000
0000
0000
0000
0000
0000
0000
0000
0000
0000
0031
0000
0000
0000
0000
0000
1000
0000
0000
0000
0000
0200
,
0000
0000
0000
0000
0000
0310
0000
0000
0000
0001
0000
0000
1000
0000
0000
0010
0000
0000
0100
0000
0000
0001
0000
0000
,
2000
0000
0000
0000
,
3002
0000
0000
0000
,
0203
0000
0000
0000
,
0310
1000
0001
1000
0100
1000
0001
0010
,
0002
0000
0000
0010
0000
0000
0010
0000
,
2003
0000
0000
0010
0000
0000
0010
0000
,
3002
0000
0000
0100
0000
0100
0000
0203
,
0000
0010
0010
0310
,
0010
1000
0001
1000
0100
1000
0001
0000
,
0010
0001
1000
0001
0100
0001
1000
0000
,
0001
0010
0100
0000
1000
0010
0100
0002
,
0000
0010
1000
0103
,
0001
0100
1000
0000
1000
0100
0001
0000
,
0001
0010
1000
0000
1000
0010
0001
0000
,
0011
0000
1100
0000
0001
0010
0100
1000
,
0002
0000
2000
3003
,
0010
1000
0100
0000
1000
0010
0100
0010
,
1000
0001
0010
0000
0100
0010
0001
0100
,
0001
1000
0001
0000
0100
0010
0100
0001
,
1000
1000
0001
0000
0010
0010
0100
0100
,
0010
0001
0100
0000
0010
1000
0001
1000
,
0010
0100
0001
0000
0010
0001
0100
0001
,
0010
0100
1000
0000
0010
1000
0001
0000
,
0020
0000
0000
0030
,
0210
0000
0000
0000
0000
0000
0000
0000
0000
0000
0000
0000
1300
0000
0000
0000
0000
0000
0010
0000
0000
0000
0000
1020
,
0000
0000
0000
0000
0000
0000
0130
0000
0000
0000
0000
0001
0000
0000
0000
0000
0010
0000
0000
0000
0000
0100
0000
0000
,
0120
0000
0000
0000
0000
0000
0000
0000
0000
0000
0000
0000
0031
0000
0000
0000
0000
0000
1001
0000
0000
0000
0000
0120
,
0000
0000
0000
0000
0000
0000
0100
0000
0000
0000
0000
0000
1030
0000
0000
0000
0000
0100
0000
0000
0100
0000
0000
0100
,
0000
0000
0110
0000
0010
0001
0100
0001
,
1000
0100
1000
0010
1000
0001
0010
0100
,
1000
1000
0001
0001
0100
0100
0010
0010
,
0000
0000
1000
0000
0000
0001
0000
0000
0011
0000
0000
1100
0000
0000
1001
0000
;

//---------------dance-single - Marten-BSP----------------
#NOTEDATA:;
#CHARTNAME:Marten-BSP;
#STEPSTYPE:dance-single;
#DESCRIPTION:Marten-BSP;
#DIFFICULTY:Easy;
#METER:7;
#RADARVALUES:0.273529,0.349454,0.090394,0.427315,0,233,222,11,52,0,0,0,0,0,0.273529,0.349454,0.090394,0.427315,0,233,222,11,52,0,0,0,0,0;
#CREDIT:Marten;
#NOTES:
0000
0000
0000
0000
,
0000
0000
0000
0000
,
0000
0000
0000
0000
,
0000
0000
0000
0000
,
0000
0000
0000
0000
,
0001
0001
1000
1000
,
0001
1000
0010
0100
,
0010
0010
1000
1000
,
0100
0010
0001
1000
,
0002
0000
0203
0000
,
0320
0000
2030
0000
,
3200
0000
0320
0000
,
0032
0000
2003
0000
,
3001
0000
0001
0000
1000
0001
1000
0001
,
1000
0000
0110
1001
,
0002
0103
0010
0010
,
2000
3010
1000
0100
,
2000
3100
0010
0001
,
0002
0000
0103
0000
0010
0100
0010
0000
,
0200
0310
1000
0001
,
0002
0013
0100
0010
,
0002
0103
0010
0100
,
0220
0330
0000
0000
,
0001
0001
0100
0100
,
0010
1000
0100
0100
,
1000
1000
0100
0100
,
0010
0001
1000
0001
,
0000
0100
0001
0001
,
0010
0001
0100
0010
,
1000
1000
0100
0100
,
0010
0001
1001
0000
,
0020
0000
0130
0001
,
2000
0000
3100
1000
,
0002
0000
0013
0100
,
0200
0000
0000
0300
0010
0000
0001
0000
,
0200
0010
0310
0110
,
2001
0000
3010
0100
,
0002
0000
0013
0100
,
2000
0000
3010
0000
,
0200
0000
0000
0000
,
0302
0000
0000
0000
,
2003
0000
0000
0000
,
3010
0010
0100
0001
,
0020
0000
0032
0000
,
2003
0000
3020
0000
,
0230
0010
0010
0000
,
0320
0100
0100
0000
,
1030
0100
1000
1000
,
0001
0100
0001
0001
,
1000
0010
1000
1000
,
0001
0010
0001
0001
,
2000
3000
0002
0003
,
0020
0030
0200
0300
,
1000
0000
0001
0000
1000
0001
1000
0001
,
2000
0000
0002
3003
,
2001
3001
0100
0001
,
0020
0130
1000
0001
,
2000
3010
0100
0010
,
2000
0000
3001
0000
0001
1000
0001
0000
,
0020
0130
0100
0010
,
0002
1003
1000
0010
,
0200
0301
0001
0010
,
0200
1300
0001
0000
,
2001
0000
3100
0010
,
0020
0000
0031
1000
,
0200
0000
1300
0001
,
0200
0000
0310
0010
,
0000
1000
0010
0100
,
0001
0010
0001
1000
,
0001
1000
0001
0000
1000
0001
1000
0000
,
0000
1001
0000
0000
0110
0000
0000
1001
;

//---------------dance-single - Marten-bSP----------------
#NOTEDATA:;
#CHARTNAME:Marten-bSP;
#STEPSTYPE:dance-single;
#DESCRIPTION:Marten-bSP;
#DIFFICULTY:Beginner;
#METER:3;
#RADARVALUES:0.166700,0.232558,0.082176,0.213658,0,142,132,10,26,0,0,0,0,0,0.166700,0.232558,0.082176,0.213658,0,142,132,10,26,0,0,0,0,0;
#CREDIT:Marten;
#NOTES:
0000
0000
0000
0000
,
0000
0000
0000
0000
,
0000
0000
0000
0000
,
0000
0000
0000
0000
,
0000
0000
0000
0000
,
1000
0000
0000
0000
,
0001
0000
0000
0000
,
0100
0000
0000
0000
,
0010
0000
0000
0000
,
1000
0000
1000
0000
,
0001
0000
0001
0000
,
0010
0000
0100
0000
,
0010
0000
0100
0000
,
0010
0010
0010
0000
,
1001
0000
0100
0000
,
1001
0000
0001
0000
,
0100
0000
0010
0010
,
0010
0000
1000
0000
,
0002
0003
2000
3000
,
0200
0300
1000
1000
,
1000
0000
0010
0010
,
0010
0000
0100
0100
,
0200
0000
0300
0000
,
0001
0000
0010
0000
,
0100
0000
1000
0000
,
0001
0001
0001
0000
,
1000
1000
1000
0000
,
1000
0000
0010
0000
,
0100
0000
0001
0000
,
0010
0000
0010
0000
,
0100
0100
0100
0000
,
0220
0000
0330
0000
,
0001
0000
1000
0000
,
2002
0000
3003
0000
,
1000
0000
0010
0000
,
0220
0000
0330
0000
,
0100
0000
0001
0000
,
2002
0000
3003
0000
,
1000
0001
1000
0000
,
0002
0000
0000
0003
,
2000
0000
0000
3000
,
0020
0000
0000
0030
,
0100
0000
0100
0000
,
0200
0000
0000
0300
,
0002
0000
0000
0003
,
0020
0000
0000
0030
,
0100
0000
0100
0000
,
1000
0000
0010
0000
,
0001
0000
0010
0000
,
1000
0000
0100
0000
,
0001
0000
0100
0000
,
1000
1000
1000
0000
,
0001
0001
0001
0000
,
0100
0000
0100
0000
,
0020
0030
0020
0030
,
1000
0000
0001
0000
,
0100
0100
0100
0000
,
0001
0000
1000
0000
,
0100
0100
0100
0000
,
0010
0000
0001
0000
,
1000
1000
1000
0000
,
0010
0000
1000
0000
,
2002
0000
3003
0000
,
0220
0000
0000
0330
,
0010
0000
1000
0000
,
2002
0000
0000
3003
,
0001
0000
0010
0010
,
0000
0010
0010
0000
,
0001
0001
0001
0000
,
1000
1000
0001
0001
,
0000
0100
0000
0110
;

//---------------dance-double - NewbStepper-EDP----------------
#NOTEDATA:;
#CHARTNAME:NewbStepper-EDP;
#STEPSTYPE:dance-double;
#DESCRIPTION:NewbStepper-EDP;
#DIFFICULTY:Hard;
#METER:14;
#RADARVALUES:0.592841,0.786270,0.328704,0.386227,0.435533,505,465,40,47,0,0,0,0,0,0.592841,0.786270,0.328704,0.386227,0.435533,505,465,40,47,0,0,0,0,0;
#CREDIT:NewbStepper;
#NOTES:
00000000
00000000
00000000
00000000
,
00000000
00000000
00000000
00000000
,
00000000
00000000
00000000
00000000
,
00000000
00000000
00000000
00000000
,
00000000
00000000
00000000
00000000
,
00000002
00000000
00000000
00000023
00000000
00000000
00002030
00000000
00000000
00003020
00000000
00000000
00000230
00000000
00000000
00020300
,
00000000
00000000
00032000
00000000
00000000
00203000
00000000
00000000
00302000
00000000
00000000
00023000
00000000
00000000
02030000
00000000
,
23000000
00000000
00000000
30200000
00000000
00000000
00320000
00000000
00000000
00230000
00000000
00000000
02300000
00000000
00000000
03002000
,
00000000
00000000
00023000
00000000
00000000
00030020
00000000
00000000
00010030
00000000
00001000
00010000
00000100
00000000
00000000
00000000
,
00001000
00000001
00000010
00000001
00001000
00000001
00000100
00001000
,
00010000
01000000
10000000
00010000
01000000
00100000
01000000
00010000
,
10000000
00100000
00010000
00001000
00000010
00000001
00001000
00000010
,
00010000
00001000
00000010
00001000
00010000
00000100
00010000
00000000
,
00011000
00000000
00000000
00000000
00000000
00000000
01001000
00000000
00000000
00000000
00000000
00000000
01000000
00000000
00010000
01000000
00000000
00010000
10000000
00000000
00100000
10000000
00000000
00100000
,
02000000
03000000
01100000
10010000
,
10100000
00000000
00000000
10000000
00000000
00000000
01000000
00000000
00000000
00000000
00000000
00100000
00010000
00000000
00000000
01000000
00000000
00001000
00010000
00000000
00000000
00000100
00000000
00010000
,
00001000
00000000
00000000
00000010
00000000
00000000
00000100
00000000
00000000
00000000
00000000
00001000
00000010
00000000
00000000
00000100
00000000
00000001
00000010
00000000
00000000
00000100
00000000
00000000
,
00001000
00000000
00000000
00000001
00000000
00000000
00000100
00000000
00000000
00000000
00000000
00000010
00001000
00000000
00000000
00000100
00000000
00010000
00001000
00000000
00000000
01000000
00000000
00001000
,
00010000
00000000
00000000
00100000
00000000
00000000
10000000
00000000
00000000
00000000
00000000
10000000
01000000
00000000
00000000
00100000
00000000
00001000
00010000
00000000
00001000
01000000
00000000
00001000
,
00010000
00000000
00000000
00001000
00000000
00000000
00001000
00000000
00000000
00000000
00000000
00000010
00000001
00000000
00000000
00000100
00000000
00000001
00001000
00000000
00000000
00000001
00000000
00000100
,
00000010
00000000
00000000
00001000
00000000
00000000
00000001
00000000
00000000
00000000
00000000
00001000
00000100
00000000
00000000
00010000
00000000
00001000
01000000
00000000
00000000
00100000
00000000
00000000
,
10000000
00000000
00000000
00010000
00000000
00000000
01000000
00000000
00000000
00000000
00000000
00100000
10000000
00000000
00000000
01000000
00000000
00010000
00000000
00000000
00001000
00000000
00000000
00022000
,
00000000
00033000
00000000
00000000
00000000
00000000
00000000
00000000
,
00011000
00010000
00001000
00000010
00000100
00001000
00000001
00000010
,
00000001
00001000
00000001
00000100
00001000
00010000
01000000
10000000
,
00100000
01000000
00010000
01000000
00100000
01000000
10000000
01000000
,
00010000
00100000
00001000
00010000
00001000
00000010
00000001
00000000
,
00001000
00000010
00001010
00000000
00001000
00000001
00000100
00001000
,
00010000
00001000
00000010
00000001
00000100
00001000
00010000
01000000
,
10000000
00010000
10000000
00100000
01000000
00100000
10000000
00010000
,
00100000
00000000
00010000
00100000
00001000
00000000
00010000
00000010
00001000
00000000
00000000
00001000
00000000
00000000
00001000
00000000
,
00000002
00000000
00000000
00000000
00000000
00000000
00000003
00000000
00000000
00000000
00000000
00000000
00001000
00000000
00000000
00000000
00000000
00000000
00001100
00000000
00000000
00000000
00000000
00000011
,
00000000
00000000
00000000
00000000
00000000
00000000
00001000
00000000
00000000
00000000
00000000
00001010
00000000
00000000
00000000
00000000
00000000
00010010
00000000
00000000
00000000
00010000
00000000
00000000
,
00012000
00000000
00000000
00000000
00000000
00000000
00103000
00000000
00000000
00000000
00000000
01000000
10000000
00000000
00000000
00000000
00000000
00000000
10010000
00000000
00000000
00000000
00000000
12000000
,
00000000
00000000
03100000
00010000
00001000
00000000
00001010
00000000
,
00000201
00000000
00000000
00000000
00000000
00000000
00000310
00000000
00000000
00001000
00000000
00000000
00000100
00000000
00000000
00000000
00000000
00000000
00001100
00000000
00000000
00000000
00000000
00011000
,
00000000
00000000
00000000
00000000
00000000
00000000
00100000
00000000
00000000
00000000
00000000
10100000
00000000
00000000
00000000
00000000
00000000
10010000
00000000
00000000
00000000
10000000
00000000
00000000
,
12000000
00000000
00000000
00000000
00000000
00000000
03100000
00000000
00000000
00000000
00000000
00001000
00010000
00000000
00000000
00000000
00000000
00000000
00010100
00000000
00000000
00000000
00000000
00000110
,
00000000
00000000
00000000
00000000
00000000
00000010
00000000
00000000
00000001
00001000
00000000
00000000
00000010
00000000
00000000
00000100
00000000
00000000
00000010
00000000
00000000
00000100
00000000
00000000
,
00002000
00000000
00000000
00100000
00000000
00100000
00000000
00010000
,
00023000
00000000
00000000
00000010
00000000
00000000
00000010
00000000
,
00032000
00000000
00000000
01000000
00000000
00000000
00000000
00000000
,
00013000
00000000
00000000
00000000
00001000
00100000
00001000
00000000
01000000
00010000
01000000
00000000
00100000
10000000
00100000
00000000
,
20000000
00000000
00010000
00010000
00000000
01000000
01000000
00000000
,
32000000
00000000
00000000
00010000
00000000
00000000
00010000
00000000
,
03020000
00000000
00001000
00001000
00000000
00000010
00000000
00001000
,
00000000
00032000
00003020
00000032
,
00001003
00000001
00000100
00001000
00010000
01000000
10000000
00000000
,
00010000
10000000
01000000
00010000
00001000
00000100
00000001
00000000
,
00001000
00000100
00000010
00001000
00010000
00100000
00010000
00002000
,
00000000
00203000
00320000
20030000
,
31000000
00010000
00001000
00000000
00010000
00001000
00000100
00000000
,
00001000
00000100
00000001
00000000
00000100
00000010
00010000
00001000
,
00011000
00000000
00000000
00000000
00000000
00000000
01010000
00000000
00000000
00000000
00000000
00000000
10000000
00000000
00100000
10000000
00000000
00100000
01000000
00000000
00100000
01000000
00000000
00010000
,
02000000
00000000
00002000
03003000
,
00010000
00000000
00000000
00001000
00000000
00100000
00010000
00000000
00000000
00000000
00000000
01000000
00010000
00000000
00000000
10000000
00000000
01000000
00100000
00000000
00000000
00010000
00000000
01000000
,
00001000
00000000
00000000
00010000
00000000
00000000
00001000
00000000
00000000
00000000
00000000
00000010
00000001
00000000
00000000
00000100
00000000
00000010
00001000
00000000
00000000
00000001
00000000
00000000
,
00000100
00000000
00000000
00001000
00000000
00000000
00010000
00000000
00000000
00000000
00000000
01000000
10000000
00000000
00000000
00010000
00000000
10000000
01000000
00000000
00000000
00100000
00000000
00001000
,
00010000
00000000
00000000
00001000
00000000
00000000
01000000
00000000
00000000
00001000
00000000
00010000
00000100
00000000
00000000
00000010
00000000
00000001
00001000
00000000
00000010
00001000
00000000
00000001
,
00001000
00000000
00000000
00000100
00000000
00000000
00010000
00000000
00000000
00000000
00000000
00001000
00010000
00000000
00000000
00100000
00000000
01000000
00010000
00000000
00000000
00100000
00000000
01000000
,
10000000
00000000
00000000
01000000
00000000
00000000
00100000
00000000
00000000
01000000
00000000
00010000
00001000
00000000
00000000
00010000
00000000
00000100
00001000
00000000
00000000
00000010
00000000
00000100
,
00000001
00000000
00000000
00000100
00000000
00000000
00000010
00000000
00000000
00000100
00000000
00001000
00010000
00000000
00000000
00001000
00000000
01000000
00010000
00000000
00000000
00100000
00000000
01000000
,
10000000
00000000
00000000
00010000
00000000
10000000
00000000
00000000
00100000
00000000
00000000
00010000
00002000
00000000
00000000
00000000
00000000
00000000
00003000
00000000
00000000
00000000
00000000
00000000
,
00021000
00000000
00000000
00000000
00000000
00000000
00030000
00000000
00000000
00000000
00000000
00000000
00001000
00000000
00000000
00000000
00000000
00000000
00001100
00000000
00000000
00000000
00000000
00000102
,
00000000
00000000
00000000
00000000
00000000
00000000
00001003
00000000
00000000
00000000
00000000
00001010
00000000
00000000
00000000
00000000
00000000
00010010
00000000
00000000
00000000
00010000
00000000
00000000
,
00012000
00000000
00000000
00000000
00000000
00000000
00103000
00000000
00000000
00000000
00000000
01000000
10000000
00000000
00000000
00000000
00000000
00000000
10100000
00000000
00000000
00000000
00000000
01020000
,
00000000
00000000
00000000
00000000
00000000
00000000
10030000
00000000
00000000
00000000
00000000
01000000
00100000
00000000
00000000
00001000
00000000
00010000
00000000
00000000
00010000
00000000
00000000
00010000
,
00000000
00000000
00000000
00000000
00000000
00000000
00011000
00000000
00000000
00001000
00000000
00010000
00000010
00000000
00000000
00010000
00000000
00001000
00100000
00000000
00000000
00001000
00000000
00010000
,
00000100
00000000
00000000
00000010
00000000
00000001
00001000
00000000
00000000
00000010
00000000
00000100
00001000
00000000
00000000
00010000
00000000
00000000
00100000
00000000
00000000
10000000
00000000
00000000
,
01000000
00000000
10000000
01000000
00000000
10000000
01000000
00000000
00100000
00010000
00000000
00100000
00010000
00000000
00100000
00001000
00000000
00100000
00001000
00000000
00010000
00001000
00000000
00010000
,
00000000
00000000
00011000
00000000
00000000
00001100
00000000
00000000
00000101
00000000
00000000
00000110
00000000
00000000
00001001
00000000
;

//---------------dance-double - NewbStepper-DDP----------------
#NOTEDATA:;
#CHARTNAME:NewbStepper-DDP;
#STEPSTYPE:dance-double;
#DESCRIPTION:NewbStepper-DDP;
#DIFFICULTY:Medium;
#METER:10;
#RADARVALUES:0.433185,0.495059,0.156134,0.402662,0.139699,369,350,19,49,0,0,0,0,0,0.433185,0.495059,0.156134,0.402662,0.139699,369,350,19,49,0,0,0,0,0;
#CREDIT:NewbStepper;
#NOTES:
00000000
00000000
00000000
00000000
,
00000000
00000000
00000000
00000000
,
00000000
00000000
00000000
00000000
,
00000000
00000000
00000000
00000000
,
00000000
00000000
00000000
00000000
,
20000000
00000000
00000000
32000000
00000000
00000000
03200000
00000000
00000000
00320000
00000000
00000000
02030000
00000000
00000000
03002000
,
00000000
00000000
00023000
00000000
00000000
00030200
00000000
00000000
00000320
00000000
00000000
00000032
00000000
00000000
00002003
00000000
,
00003002
00000000
00000000
00000203
00000000
00000000
00000320
00000000
00000000
00002030
00000000
00000000
00003200
00000000
00000000
00020300
,
00000000
00000000
00032000
00000000
00000000
02003000
00000000
00000000
03100000
00000000
10000000
00000000
00010000
00000000
00000000
00000000
,
10000000
01000000
10000000
00010000
01000000
00001000
00010000
00000000
,
00000100
00001000
00000010
00001000
00000100
00000010
00000001
00000000
,
00001000
00000010
00000100
00000001
00000000
00000010
00000001
00001000
,
00000000
00000100
00010000
00001000
01000000
00000000
10010000
00000000
,
10000000
01000000
10000000
01000000
00100000
00010000
00100000
00010000
,
00002000
00003000
00011000
00001001
,
00000001
00000100
00000001
00000000
00000010
00000100
00001000
00000100
,
00010000
00001000
00010000
00000000
00001000
00100000
00010000
00100000
,
00001000
00010000
00001000
00000000
00100000
00010000
01000000
00100000
,
01000000
00010000
10000000
01000000
10000000
10000000
00010000
00010000
,
10000000
01000000
10000000
00000000
00100000
01000000
00010000
01000000
,
00001000
00010000
00001000
00000000
00010000
00000010
00001000
00000010
,
00010000
00000000
00000000
00001000
00000000
00000000
00010000
00000000
00000000
00000000
00000000
00000000
00001000
00000000
00000000
00000000
00000000
00000010
00000000
00000000
00000100
00000000
00000000
00000220
,
00000000
00000330
00000000
00000000
00000000
00000000
00000000
00000000
,
00001001
00000000
00001000
00000001
00000020
00000000
00000130
00000000
,
00020000
00000000
00031000
00100000
00001000
00010000
01000000
00000000
,
10000000
00100000
01000000
00100000
10000000
01000000
00100000
00001000
,
00010000
00001000
00000020
00000000
00000032
00000000
00001003
00000000
,
00000001
00000000
00000001
00000000
00000002
00000000
00000000
00000000
00000103
00000000
00000000
00001000
00000000
00000000
00010000
00000000
,
00001000
00000000
00000000
00100000
00000000
00000000
00010000
00000000
01000000
00000000
00000000
10000000
00000000
00000000
01000000
00000000
,
00100000
10000000
01000000
00000000
00010000
00001000
00000100
00000000
,
00000001
00000000
00000100
00000000
00000010
00000000
00001000
00000000
00000100
00000000
00000000
00010000
00000000
00000000
00001000
00000000
,
00200000
00000000
00000000
00000000
00000000
00000000
00300000
00000000
00000000
00000000
00000000
00000000
00010000
00000000
00000000
00000000
00000000
00000000
00100000
00000000
00000000
00000000
00000000
00210000
,
00000000
00000000
00000000
00000000
00000000
00000000
01000000
00000000
00000000
00000000
00000000
10000000
00300000
00000000
00000000
00000000
00000000
01000000
00000000
00000000
00000000
00010000
00000000
00000000
,
00002000
00000000
00000000
00000000
00000000
00000000
00000000
00000000
00000000
00000000
00000000
00000000
00003010
00000000
00000000
00000000
00000000
00000000
00000001
00000000
00000000
00000000
00000000
00002000
,
00000000
00003000
00000001
00000100
,
00002000
00000000
00000000
00000000
00000000
00000000
00003000
00000000
00000000
00000000
00000000
00000000
00010000
00000000
00000000
00000000
00000000
00000000
00100000
00000000
00000000
00000000
00000000
20000000
,
00000000
00000000
00000000
00000000
00000000
00000000
30010000
00000000
00000000
00000000
00000000
00100000
00000000
00000000
00000000
00000000
00000000
00001000
00000000
00000000
00000000
00010000
00000000
00000000
,
00012000
00000000
00000000
00000000
00000000
00000000
00000000
00000000
00000000
00000000
00000000
00000000
00103000
00000000
00000000
00000000
00000000
00000000
00010000
00000000
00000000
00000000
00000000
02000000
,
00000000
00000000
00000000
00000000
00000000
03100000
00000000
00000000
00000000
00010000
00000000
00000000
00001000
00000000
00000000
00000100
00000000
00000000
00000001
00000000
00000000
00000000
00000000
00000000
,
00002000
00000000
00000000
00000000
,
00003002
00000000
00000000
00000000
,
00000023
00000000
00000000
00000000
,
00000130
00001000
00000100
00010000
00001000
01000000
00010000
01000000
,
00002000
00000000
00000000
00100000
00000000
00000000
00100000
00000000
,
00023000
00000000
00000000
00000010
00000000
00000000
00000010
00000000
,
00032000
00000000
00000000
01000000
00000000
01000000
00000000
02003000
,
00000000
00100000
00100000
03100000
,
00100000
10000000
00010000
10000000
00100000
10000000
01000000
00000000
,
00010000
00001000
00100000
00001000
00010000
00000010
00001000
00000000
,
00000001
00000100
00000010
00001000
00000000
00000100
00000000
00020000
,
00000000
00000010
00001000
00030100
,
00010000
00001000
00000100
00000000
00000100
00001000
00010000
00000000
,
00001000
00010000
01000000
00000000
01000000
00010000
00001000
00000000
,
00011000
00010010
00011000
00101000
,
00020000
00000000
00002000
00033000
,
00100000
00010000
01000000
00000000
00100000
10000000
00010000
10000000
,
01000000
00010000
00001000
00000000
00010000
00000100
00010000
00001000
,
00000010
00000100
00001000
00000000
00000001
00000100
00000010
00001000
,
00000001
00000100
00000010
00001000
00000100
00010000
00001000
00100000
,
00010000
00000000
10000000
00000000
01000000
00010000
00001000
00000000
,
00000100
00000010
00001000
00000000
00000100
00000010
00000001
00000000
,
00001000
00000001
00000100
00000001
00001000
00000100
00000010
00000100
,
00010000
00001000
00100000
00010000
10000000
00000000
00000000
00000000
,
10020000
00000000
00000000
00000000
00000000
00000000
00030000
00000000
00000000
00000000
00000000
00000000
10000000
00000000
00000000
00000000
00000000
00000000
01000000
00000000
00000000
00000000
00000000
00020000
,
00000000
00000000
00000000
00000000
00000000
00000000
00031000
00000000
00000000
00000000
00000000
00000010
00000000
00000000
00000000
00000000
00000000
00000001
00000000
00000000
00000000
00000100
00000000
00000000
,
00000120
00000000
00000000
00000000
00000000
00000000
00000000
00000000
00000000
00000000
00000000
00000000
00001030
00000000
00000000
00000000
00000000
00000000
00001001
00000000
00000000
00000000
00000000
00002001
,
00000000
00000000
00000000
00000000
00000000
00000000
00000100
00000000
00000000
00000000
00000000
00000000
00003001
00000000
00000000
00000000
00000000
00000010
00000000
00000000
00000010
00000000
00000000
00000010
,
00000000
00000000
00000110
00000000
00000100
00001000
00000001
00000100
,
00000001
00001000
00000100
00010000
00001000
01000000
00010000
00100000
,
01000000
01000000
10000000
10000000
00010000
00010000
01000000
01000000
,
00000000
00000000
00001000
00000000
00000000
00010000
00000000
00000000
00010100
00000000
00000000
01001000
00000000
00000000
00011000
00000000
;

//---------------dance-double - NewbStepper-BDP----------------
#NOTEDATA:;
#CHARTNAME:NewbStepper-BDP;
#STEPSTYPE:dance-double;
#DESCRIPTION:NewbStepper-BDP;
#DIFFICULTY:Easy;
#METER:7;
#RADARVALUES:0.273529,0.349454,0.090394,0.427315,0,233,222,11,52,0,0,0,0,0,0.273529,0.349454,0.090394,0.427315,0,233,222,11,52,0,0,0,0,0;
#CREDIT:NewbStepper;
#NOTES:
00000000
00000000
00000000
00000000
,
00000000
00000000
00000000
00000000
,
00000000
00000000
00000000
00000000
,
00000000
00000000
00000000
00000000
,
00000000
00000000
00000000
00000000
,
10000000
10000000
00010000
00010000
,
10000000
00010000
00100000
00001000
,
00010000
00010000
00000100
00000100
,
00001000
00000010
00000100
00000001
,
00002000
00000000
00003200
00000000
,
00000320
00000000
00000032
00000000
,
00000203
00000000
00000320
00000000
,
00002030
00000000
00003200
00000000
,
00010300
00000000
00010000
00000000
00001000
00100000
00001000
00100000
,
00001000
00000000
01100000
10010000
,
20000000
31000000
00100000
00100000
,
00002000
00013000
00000010
00001000
,
00000020
00000130
00000001
00001000
,
00002000
00000000
00003100
00000000
00010000
00001000
00010000
00000000
,
00002000
01003000
00100000
10000000
,
20000000
30100000
01000000
00100000
,
00020000
00031000
00010000
00001000
,
00022000
00033000
00000000
00000000
,
00000010
00000010
00001000
00001000
,
00000100
00000010
00000001
00000001
,
00000100
00000100
00000010
00000010
,
00010000
00001000
00100000
00010000
,
00000000
01000000
00010000
10000000
,
00100000
10000000
00010000
00100000
,
01000000
01000000
00100000
00100000
,
00001000
00010000
00011000
00000000
,
00002000
00000000
01003000
00010000
,
20000000
00000000
31000000
00010000
,
00002000
00000000
00003010
00000100
,
00000200
00000000
00000000
00000300
00000010
00000000
00000001
00000000
,
00000200
00000010
00000310
00000110
,
00001002
00000000
00000013
00000100
,
00020000
00000000
00031000
01000000
,
00020000
00000000
10030000
00000000
,
02000000
00000000
00000000
00000000
,
03020000
00000000
00000000
00000000
,
00032000
00000000
00000000
00000000
,
00003010
00000010
00000100
00001000
,
00000002
00000000
00002003
00000000
,
00003200
00000000
00020300
00000000
,
00032000
00100000
00100000
00000000
,
00203000
00010000
00010000
00000000
,
01300000
10000000
01000000
01000000
,
00010000
00001000
00010000
00010000
,
00001000
00000010
00000100
00000100
,
00001000
00000001
00000010
00000010
,
00000002
00000003
00002000
00003000
,
00000200
00000300
00020000
00030000
,
00001000
00000000
00100000
00000000
00001000
00010000
00001000
00010000
,
00002000
00000000
00020000
00033000
,
00012000
00103000
00010000
00100000
,
02000000
13000000
00100000
10000000
,
00020000
00130000
00001000
00100000
,
00002000
00000000
00013000
00000000
00010000
00001000
00010000
00000000
,
00000020
00001030
00001000
00000100
,
00000020
00000031
00000001
00000100
,
00000020
00001030
00001000
00000100
,
00020000
00031000
01000000
00000000
,
20010000
00000000
31000000
00100000
,
00200000
00000000
00301000
00010000
,
00000200
00000000
00001300
00000001
,
00000200
00000000
00000310
00000010
,
00000000
00001000
00000010
00010000
,
00001000
00100000
00010000
10000000
,
00010000
10000000
00010000
00000000
10000000
00010000
10000000
00000000
,
00000000
10010000
00000000
00000000
01100000
00000000
00000000
10010000
;

//---------------dance-double - NewbStepper-CDP----------------
#NOTEDATA:;
#CHARTNAME:NewbStepper-CDP;
#STEPSTYPE:dance-double;
#DESCRIPTION:NewbStepper-CDP;
#DIFFICULTY:Challenge;
#METER:10;
#RADARVALUES:0.351009,0.524180,0.378010,0.345139,0,299,253,46,42,168,0,0,0,0,0.351009,0.524180,0.378010,0.345139,0,299,253,46,42,168,0,0,0,0;
#CREDIT:NewbStepper;
#NOTES:
// measure 0
00000000
00000000
00000000
00000000
,  // measure 1
00000000
00000000
00000000
00000000
,  // measure 2
00000000
00000000
00000000
00000000
,  // measure 3
00000000
00000000
00000000
00000000
,  // measure 4
00000000
00000000
00000000
00000000
,  // measure 5
00010000
00000100
00000010
00001000
,  // measure 6
00010000
00000010
00000010
00000010
,  // measure 7
00000010
00000001
00000010
00010000
,  // measure 8
00001000
00100000
00010000
01000000
,  // measure 9
01100000
11000000
01100000
01010000
,  // measure 10
01001000
00011000
00010100
00011000
,  // measure 11
01001000
00011000
00010010
00001010
,  // measure 12
00000110
00000101
00001010
00000010
,  // measure 13
00000100
00000010
00000100
00000010
00000100
00000010
00000100
00000000
,  // measure 14
00000110
00000000
00011000
00011000
,  // measure 15
00001000
00000000
00010000
00000000
00001000
01000000
00001000
00000000
,  // measure 16
00100000
00000000
00010000
00000000
10000000
00100000
10000000
00000000
,  // measure 17
10000000
00000000
01000000
00000000
00010000
00001000
00010000
00000000
,  // measure 18
00000010
00000000
00001000
00000000
00000100
00001000
00000100
00001000
,  // measure 19
00000001
00000000
00001000
00000000
00000010
00010000
00001000
00000000
,  // measure 20
00100000
00000000
00010000
00000000
01000000
00010000
01000000
00010000
,  // measure 21
10000000
00010000
01000000
01002000
,  // measure 22
02000000
00000000
00000000
03003000
,  // measure 23
00001000
0000MMMM
00001000
0000MMMM
00001000
0000MMMM
00001000
0000MMMM
,  // measure 24
00001000
0000MMMM
00001000
0000MMMM
00001000
0000MMMM
00001000
0000MMMM
,  // measure 25
00002000
00010000
00010000
00100000
,  // measure 26
00100000
01000000
01000000
01003000
,  // measure 27
01000000
00001000
00010000
MMMM0000
00010000
MMMM0000
00010000
MMMM0000
,  // measure 28
00010000
MMMM0000
00010000
MMMM0000
00010000
MMMM0000
00020000
00000000
,  // measure 29
00001000
00000100
00000010
00030010
,  // measure 30
00001000
00000110
00001001
MMMMMMMM
,  // measure 31
00001002
00000103
00000002
00000103
,  // measure 32
00002000
00003100
00000100
00010000
,  // measure 33
00002000
01003000
20000000
31000000
,  // measure 34
00020000
00130000
00100000
00001000
,  // measure 35
00020000
00030100
00000002
00000103
,  // measure 36
00000020
00000130
00000002
00000103
,  // measure 37
00001000
00000010
00010000
00002000
,  // measure 38
00013000
MMMMMMMM
00022000
00033000
,  // measure 39
00002000
00000000
02000000
00003000
,  // measure 40
20000000
00000000
00000000
30000000
00200000
00000000
03000000
00000000
,  // measure 41
00020000
00000000
00000000
00300000
00002000
00000000
00000000
00030000
,  // measure 42
02000000
00000000
00000000
03000000
00020000
00000000
00000000
00003000
,  // measure 43
00000200
00000000
00000000
00000300
00002000
00000000
00000000
00003000
,  // measure 44
00000020
00000000
00000000
00000030
00002000
00000000
00000000
00030000
,  // measure 45
02000000
00000000
00000000
03000000
00020000
00000000
00000000
00030000
,  // measure 46
00200000
00000000
00000000
00300000
00020000
00000000
00003000
00030000
,  // measure 47
00000010
00001000
00000100
00000001
,  // measure 48
00000100
00010000
00000010
00000001
,  // measure 49
00000010
00010000
00001000
01000000
,  // measure 50
00100000
10000000
00010000
10000000
,  // measure 51
00100000
01000000
00100000
00000000
01000000
00100000
01000000
00000000
,  // measure 52
00001000
00100000
00001000
00000000
00010000
00001000
00010000
00000000
,  // measure 53
00011000
00011000
00011000
00011000
,  // measure 54
00022000
00003000
00031000
00000000
,  // measure 55
00010000
MMMM0000
00010000
MMMM0000
00010000
MMMM0000
00010000
MMMM0000
,  // measure 56
00020000
00001000
00000100
00030010
,  // measure 57
00001000
0000MMMM
00001000
0000MMMM
00001000
0000MMMM
00001000
0000MMMM
,  // measure 58
00002000
00010000
01000000
00103000
,  // measure 59
00010000
MMMM0000
00010000
MMMM0000
00010000
MMMM0000
00010000
MMMM0000
,  // measure 60
00010000
MMMM0000
00010000
MMMM0000
00020000
00000000
00001000
00000000
,  // measure 61
00000100
00030010
00000002
00000010
,  // measure 62
00000010
00000100
00001003
00000000
,  // measure 63
00001001
00000000
00000010
0000MMMM
00000010
00000000
MMMMMMMM
00000000
,  // measure 64
00011000
00100000
00011000
00100000
,  // measure 65
20020000
00000000
30030000
MMMM0000
,  // measure 66
10010000
01100000
10020000
01030000
,  // measure 67
MMMMMMMM
01001000
00101000
00010100
,  // measure 68
00010010
00011000
00011000
00011000
,  // measure 69
00000010
00001000
00000100
00010000
00001000
01000000
00010000
10000000
,  // measure 70
MMMM0000
10010000
MMMM0000
10010000
MMMM0000
10010000
MMMM0000
10010000
;
