#VERSION:0.83;
#TITLE:Trim(XX-Special);
#ARTIST:kobo;
#BANNER:Trim(XX-Special).png;
#BACKGROUND:Trim(XX-Special)-bg.png;
#JACKET:Trim(XX-Special)-jacket.png;
#MUSIC:Trim(XX-Special).ogg;
#SAMPLESTART:76.234;
#SAMPLELENGTH:15;
#BPMS:0=170.616,4=169.987,168=84.993,183.500=339.974,312=169.987;
#STOPS:183.5=0.265;

//---------------dance-single - Marten-CSP----------------
#NOTEDATA:;
#CHARTNAME:Marten-CSP;
#STEPSTYPE:dance-single;
#DESCRIPTION:Marten-CSP;
#DIFFICULTY:Challenge;
#METER:18;
#CREDIT:Marten;
#NOTES:
0000
0000
0000
0000
,
0000
0000
0000
0000
,
0000
0000
0000
0000
1000
0100
0010
0002
0000
0000
0000
0000
0000
0000
0000
0000
,
0000
0000
0000
0000
,
0203
0000
2000
3000
,
0301
0000
2000
0000
0000
3002
0000
0000
,
0003
0000
0000
0000
0001
0100
0010
2000
0000
0000
0100
0000
0000
0000
0000
0000
,
0001
0000
0000
0010
0000
0000
0001
0000
,
3200
0000
0000
0000
,
0300
0000
2000
0000
3000
0002
0000
0003
,
1001
0001
0010
0010
,
1000
1000
0100
0100
,
0001
0001
1001
1000
,
0010
1000
0100
0001
0000
0100
0100
0000
,
1001
1000
0010
0010
,
0001
0001
0100
0100
,
1000
1000
1001
0001
,
0011
0001
0100
1000
0000
0100
1001
0000
,
1010
0000
0000
0000
1100
0000
0000
0010
0001
0100
0001
0000
1000
0000
0100
0000
,
0001
0000
0100
0000
1000
0000
0010
1000
0001
0100
0001
0000
0010
0000
0001
0000
,
0100
0000
0010
0000
0110
0000
0000
0100
0001
0010
0001
0000
0010
0000
1000
0000
,
1010
0010
0001
0101
0000
0110
1001
0000
,
0011
0000
0000
0000
0101
0000
0000
0010
1000
0100
1000
0000
0001
0000
0100
0000
,
1000
0000
0100
0000
0001
0000
0010
0001
1000
0100
1000
0000
0010
0000
1000
0000
,
0100
0000
0010
0000
0110
0000
0000
0100
1000
0010
1000
0000
0010
0000
0001
0000
,
0011
0010
2020
0000
3030
0220
0000
0330
,
1001
0000
0100
0000
0021
0000
0000
0031
0100
1000
0100
0000
0010
0000
1000
0000
,
0100
0000
0001
0000
0100
0000
0010
1000
0010
0001
0100
0000
0010
0000
1000
0000
,
1001
0000
0010
0000
1200
0000
0000
0310
1000
0010
0001
0000
0100
0000
0010
0000
,
1010
1000
1100
0101
0000
0110
1001
0000
,
1001
0000
0100
0000
1020
0000
0000
1030
0100
0001
0100
0000
0010
0000
0001
0000
,
0100
0000
1000
0000
0100
0000
0010
0001
0010
1000
0100
0000
0010
0000
0001
0000
,
1001
0000
0010
0000
0201
0000
0000
0310
0001
0010
1000
0000
0100
0000
0010
0000
,
0011
0000
0000
0000
0000
0000
0001
0000
0000
0000
0000
0000
0101
0000
0000
0000
0000
0000
0100
0000
0000
0010
0000
0000
1000
0000
0000
0100
0000
0000
0010
0000
0000
0000
0000
0000
0001
0000
0000
1000
0000
0000
0001
0000
1000
0000
0001
0000
,
1000
0000
0000
0000
1200
0000
0000
0310
0001
0100
0001
0000
0101
0000
0001
0100
,
1000
0000
0100
0000
0110
0000
0010
1000
0100
0010
0001
0000
0011
0000
0001
0000
,
1001
0000
0000
0000
0201
0000
0000
0310
1000
0100
1000
0000
1100
0000
1000
0100
,
0001
0100
0110
1001
0000
0110
0110
0000
,
0011
0000
0000
0000
2010
0000
0000
3001
0100
0001
0010
0000
0011
0000
0001
0010
,
1000
0000
0010
0000
0110
0000
0100
1000
0010
0100
1000
0100
0001
0000
0010
0001
,
0100
0000
0001
0000
0012
0000
0000
1003
0100
1000
0010
0000
1010
0000
1000
0010
,
0001
0010
1000
0001
0010
0100
1000
0001
0100
0010
0001
0010
1000
0100
0010
0001
,
2000
0000
3020
0000
0001
0000
1000
0000
0001
0000
1000
0000
0001
0000
0130
0020
,
0000
2030
0000
3001
0020
0000
1000
0000
0001
0000
1000
0000
0031
0001
1000
1000
,
0002
0000
0203
0000
1000
0000
0001
0000
1000
0000
0001
0000
1000
0000
0310
0200
,
0000
0302
0000
1003
0200
0000
0310
0000
0110
0010
0011
1010
0000
1001
1001
0000
,
0001
1000
0100
0010
0100
0000
0010
0001
,
0100
0000
0000
0010
0000
0000
0100
0000
0000
0000
0000
0000
0010
0000
1000
0000
0001
0000
1000
0000
0000
0100
0000
0000
,
0001
0100
0001
0100
1000
0100
1000
0010
,
0100
0000
0000
0001
0000
0000
0010
0000
0000
0000
0000
0000
0001
0000
1000
0000
0100
0000
1000
0000
0100
0000
1000
0000
,
0100
0010
0001
0100
0010
1000
0001
1000
,
0010
0001
0010
1000
0001
0010
1000
0010
,
0001
0000
0100
1000
0100
0010
1000
0100
,
0010
0000
0000
0000
0011
0000
0000
0000
1100
0000
0000
0000
1000
0001
1000
0001
,
1000
0000
0010
1000
0100
0000
1000
0100
,
0010
0100
1000
0000
0010
0100
0001
0010
,
0001
0000
0100
0000
0001
0000
0100
0010
0100
0010
0100
0000
0001
0000
1000
0000
,
0100
0010
0001
0000
1001
0000
0001
0100
,
1000
0000
0100
0001
1000
0000
0100
0001
,
0100
1000
0001
0000
0010
0001
0100
0010
,
0001
0010
1000
0100
0001
1000
0010
0001
,
1000
0000
0000
0010
0000
0000
0001
0000
0000
1000
0000
0000
0100
0000
0000
0001
0000
0000
0010
0000
0100
0000
0010
0000
,
0100
0000
0010
0001
1001
0000
0001
0100
,
1000
0100
0001
0000
1000
0100
0001
0100
,
1000
0010
1000
0010
0001
0010
0001
0010
,
1000
0100
0110
0000
1001
0000
0010
0001
,
0101
0000
0010
0000
1001
0000
1000
0010
,
0100
1000
0100
0010
1000
0000
0100
0001
,
0100
0010
0001
0100
0100
1000
0001
0010
,
0100
1000
1100
0000
0101
0000
0001
0010
,
0110
0100
1000
0001
0100
0000
1000
0100
,
0001
1000
0100
0000
0001
0100
1000
0001
,
0010
1000
0010
0001
0100
0010
0001
1000
,
0100
0010
1000
0100
0010
0000
0001
0010
,
1000
0001
1000
0010
0100
1000
0010
0001
,
1000
0001
0010
1000
0001
0010
0100
0001
,
1000
0010
0100
1000
0010
0001
1000
0100
,
0001
0000
0000
0000
0000
0000
1000
0000
0000
0000
0000
0000
0001
0000
0000
0000
1000
0000
0000
0000
0001
0000
0000
0000
1000
0000
0000
0000
0000
0000
0100
0000
0000
0000
0000
0000
0010
0000
0000
0100
0000
0000
0010
0000
0000
0100
0000
0000
,
2000
0000
0000
0000
0000
0000
0000
0000
0010
0000
0000
0000
0000
0000
0000
0000
0002
0003
0000
0000
0000
0000
0000
0000
0001
0000
0000
0000
0000
0000
0000
0000
,
3002
0100
0203
1000
,
0302
0010
2003
0001
,
3010
0000
1000
0100
2000
0000
3010
0000
0100
0001
0200
0000
0000
0000
0000
0000
,
0302
0000
0000
0000
0000
0000
0000
0000
0010
0000
0000
0000
0000
0000
0000
0000
2000
3000
0000
0000
0000
0000
0000
0000
1000
0000
0000
0000
0000
0000
0000
0000
,
2003
0100
3200
0001
,
2300
0010
3002
1000
,
0013
0000
2002
0000
3003
0220
0000
0000
,
0330
0000
0000
0000
;

//---------------dance-double - NewbStepper-CDP----------------
#NOTEDATA:;
#CHARTNAME:NewbStepper-CDP;
#STEPSTYPE:dance-double;
#DESCRIPTION:NewbStepper-CDP;
#DIFFICULTY:Challenge;
#METER:18;
#CREDIT:NewbStepper;
#NOTES:
00000000
00000000
00000000
00000000
,
00000000
00000000
00000000
00000000
,
00000000
00000000
00000000
00000000
10000000
01000000
00100000
00020000
00000000
00000000
00000000
00000000
00000000
00000000
00000000
00000000
,
00000000
00000000
00000000
00000000
,
00032000
00000000
00000002
00000003
,
00003100
00000000
00000020
00000000
00000030
00000200
00000000
00000300
,
00001000
00000000
00000000
00000000
00000001
00000100
00000010
00002000
00000000
00000000
00003200
00000000
00000000
00020300
00000000
00000000
,
00032000
00000000
00000000
00203000
00000000
00000000
00320000
00000000
00000000
02030000
00000000
00000000
03200000
00000000
00000000
20300000
,
00000000
00000000
30020000
00000000
00000000
02030000
00000000
00000000
23000000
00000000
00000000
32000000
00000000
00000000
03020000
00000000
,
00000000
00230000
00000000
00000000
00302000
00000000
00000000
00000000
00003000
00000000
00020000
00000000
00000000
00000000
00030000
00000000
,
00011000
00010000
00100000
00100000
,
10000000
10000000
01000000
01000000
,
00010000
00010000
00011000
00001000
,
00000010
00000001
00000100
00001000
00000000
00010000
00010000
00000000
,
00011000
00001000
00000010
00000010
,
00000001
00000001
00000100
00000100
,
00001000
00001000
00011000
00010000
,
00110000
00100000
10000000
01000000
00000000
00010000
00011000
00000000
,
00001010
00000000
00000000
00000000
00000011
00000000
00000000
00000001
00000100
00000010
00000100
00000000
00001000
00000000
00010000
00000000
,
00100000
00000000
10000000
00000000
01000000
00000000
00100000
00010000
00100000
00001000
00010000
00000000
00011000
00000000
00000000
00000000
,
00001100
00000000
00000000
00000000
00000101
00000000
00000000
00000001
00000100
00001000
00010000
00000000
00100000
00000000
00010000
00000000
,
00011000
00001000
00100000
01100000
00000000
00011000
00011000
00000000
,
00110000
00000000
00000000
00000000
10100000
00000000
00000000
10000000
01000000
00100000
01000000
00000000
00010000
00000000
00001000
00000000
,
00000010
00000000
00000001
00000000
00000100
00000000
00000010
00001000
00000010
00010000
00001000
00000000
00011000
00000000
00000000
00000000
,
01010000
00000000
00000000
00000000
11000000
00000000
00000000
10000000
01000000
00010000
00001000
00000000
00000010
00000000
00001000
00000000
,
00011000
00000000
00000000
00000000
00010010
00000000
00000000
00000010
00001000
00000100
00000010
00000000
00000110
00000000
00000000
00000000
,
00001001
00000000
00000000
00000000
00000101
00000000
00000000
00000100
00001000
00010000
00001000
00000000
00100000
00000000
00010000
00000000
,
10000000
00000000
01000000
00000000
00100000
00000000
00010000
01000000
00100000
00010000
00001000
00000000
00011000
00000000
00000000
00000000
,
00010100
00000000
00000000
00000000
00000110
00000000
00000000
00000010
00001000
00010000
00001000
00000000
01000000
00000000
00001000
00000000
,
00011000
00010000
00110000
10100000
00000000
01100000
01100000
00000000
,
10010000
00000000
00000000
00000000
11000000
00000000
00000000
01000000
00010000
00001000
00010000
00000000
00000010
00000000
00001000
00000000
,
00000001
00000000
00000100
00000000
00000010
00000000
00001000
00000100
00000010
00001000
00010000
00000000
00011000
00000000
00000000
00000000
,
01001000
00000000
00000000
00000000
01100000
00000000
00000000
00100000
00010000
00001000
00010000
00000000
00000100
00000000
00010000
00000000
,
00011000
00000000
00000000
00000000
00000000
00000000
00001000
00000000
00000000
00000000
00000000
00000000
00001010
00000000
00000000
00000000
00000000
00000000
00000000
00000000
00000000
00000010
00000000
00000000
00000001
00000000
00000000
00000000
00000000
00000000
00000100
00000000
00000000
00000000
00000000
00000000
00001000
00000000
00000000
00010000
00000000
00000000
00001000
00000000
00010000
00000000
00001000
00000000
,
00010000
00000000
00000000
00000000
00110000
00000000
00000000
00100000
10000000
01000000
10000000
00000000
11000000
00000000
01000000
00000000
,
00020000
00030100
00000002
00000203
00001300
00200000
20300000
00000000
,
30010000
00000000
00000000
00000000
01010000
00000000
00000000
01000000
00100000
00010000
00001000
00000000
00011000
00000000
00000010
00000000
,
00000110
00000000
00001001
00000100
00000000
00010010
00010010
00000000
,
00011000
00000000
00000000
00000000
00001010
00000000
00000000
00000010
00000001
00000100
00000001
00000000
00000101
00000000
00000100
00000000
,
00001000
00000000
00010000
00000000
00011000
00000000
00001000
01000000
00010000
01000000
00010000
01000000
00100000
00000000
10000000
01000000
,
00010000
00000000
00000000
00000000
00011000
00000000
00000000
00001000
00000010
00000001
00000100
00000000
00000101
00000000
00000001
00000100
,
00000001
00000100
00000010
00001000
00000010
00001000
00010000
01000000
00100000
10000000
01000000
00100000
00010000
00001000
00000100
00000010
,
00000002
00000000
00000203
00000000
00001000
00000000
00000001
00000000
00001000
00000000
00000001
00000000
00001000
00000000
00000310
00000200
,
00000000
00002300
00000000
00013000
00200000
00000000
10000000
00000000
00010000
00000000
10000000
00000000
00310000
00100000
10000000
00010000
,
20000000
00000000
32000000
00000000
00010000
00000000
10000000
00000000
00010000
00000000
10000000
00000000
00010000
00000000
03100000
02000000
,
00000000
03020000
00000000
00031000
00000020
00000000
00000031
00000000
00001001
00000000
00001010
00010010
00000000
00011000
00011000
00000000
,
00010000
00100000
01000000
00100000
10000000
00000000
01000000
00100000
,
01000000
00010000
00001000
00000000
00000100
00000010
00000100
00000001
,
00000100
00001000
00000100
00000001
00000010
00000100
00001000
00000010
,
00000100
00001000
00010000
00000000
00100000
00000000
10000000
00010000
,
10000000
01000000
00010000
01000000
10000000
00100000
01000000
00010000
,
00100000
01000000
00010000
00001000
00000010
00000001
00000100
00000010
,
00001000
00000000
00000100
00000010
00000100
00010000
00001000
00010000
,
00000100
00000000
00010100
00000000
00011000
00000000
00001000
00010000
,
01000000
10000000
00100000
10000000
01000000
00000000
00100000
01000000
,
00010000
01000000
00100000
00000000
01000000
00010000
00001000
00010000
,
00000100
00000010
00000001
00000100
00000010
00000001
00000010
00001000
,
00000100
00000001
00000100
00000000
00000110
00000000
00000010
00001000
,
00010000
00000000
00000010
00010000
00001000
00000000
00100000
01000000
,
00010000
00001000
01000000
00000000
00100000
01000000
00010000
10000000
,
01000000
00010000
00001000
00000000
00000010
00000001
00000000
00000100
,
00001000
00000000
00010000
00100000
00000000
10000000
01000000
00100000
,
00010000
01000000
00010000
01000000
00100000
00000000
01000000
00010000
,
01000000
00010000
00100000
00000000
01000000
00010000
01000000
00010000
,
00001000
00000010
00001000
00000010
00000001
00000100
00000001
00000100
,
00001000
00010000
00001000
00000000
00011000
00000000
00010000
00100000
,
10000000
01000000
00100000
01000000
10000000
00100000
01000000
10000000
,
01000000
00100000
10000000
01000000
00010000
00001000
00000010
00000001
,
00000100
00000010
00000100
00000001
00001000
00000100
00000000
00000001
,
00000100
00000000
00000110
00000000
00000110
00000000
00001000
00000001
,
00001000
00000100
00001000
00000100
00000010
00000000
00000100
00001000
,
00000100
00001000
00000010
00000000
00000100
00001000
00000100
00001000
,
00010000
00100000
00010000
00100000
10000000
01000000
10000000
01000000
,
00010000
00001000
00010000
00000000
00011000
00000000
00001000
00000010
,
00000001
00000100
00000010
00000100
00001000
00010000
00100000
01000000
,
00100000
10000000
01000000
00100000
01000000
00010000
00001000
00000010
,
00000100
00000010
00000001
00000100
00000010
00001000
00010000
01000000
,
00100000
10000000
01000000
00100000
00010000
00001000
00000100
00000010
,
00000002
00000000
00000000
00000000
00000000
00000000
00000000
00000000
00000010
00000000
00000000
00000000
00000000
00000000
00000000
00000000
00002000
00003000
00000000
00000000
00000000
00000000
00000000
00000000
00001000
00000000
00000000
00000000
00000000
00000000
00000000
00000000
,
00002003
00000100
00003200
00000010
,
00020300
00001000
00030020
00000100
,
00010030
00000000
00022000
00000000
00033000
02200000
00000000
03300000
,
20000000
00000000
00000000
00000000
00000000
00000000
00000000
00000000
00100000
00000000
00000000
00000000
00000000
00000000
00000000
00000000
00020000
00030000
00000000
00000000
00000000
00000000
00000000
00000000
00010000
00000000
00000000
00000000
00000000
00000000
00000000
00000000
,
30020000
01000000
02030000
00100000
,
03002000
00010000
00203000
01000000
,
00301000
00000000
00022000
00000000
00033000
00000220
00000000
00000000
,
00000330
00000000
00000000
00000000
;
