#TITLE:遠い世界の時と空;
#ARTIST:Qrispy Joybox;
#TITLETRANSLIT:Tooi sekai no toki to sora;
#BANNER:Tooi sekai no toki to sora.png;
#BACKGROUND:Tooi sekai no toki to sora-bg.png;
#MUSIC:Tooi sekai no toki to sora.ogg;
#OFFSET:1.173348;
#SAMPLESTART:56.633;
#SAMPLELENGTH:15;
#DISPLAYBPM:180:184;
#BPMS:0=184,175=161.943,177=180;

//---------------dance-single - NewbStepper-ESP----------------
#NOTES:
     dance-single:
     NewbStepper:
     Hard:
     15:
     0.677946,0.996581,0.222754,0.377713,0.479405,490,467,23,39,0,0,0.677946,0.996581,0.222754,0.377713,0.479405,490,467,23,39,0,0:
// measure 0
0000
0000
0000
0000
,  // measure 1
0000
0000
0000
0000
,  // measure 2
0000
0000
0000
0000
,  // measure 3
0000
0000
0000
0000
,  // measure 4
0000
0000
0000
0000
,  // measure 5
0000
0000
0000
0000
,  // measure 6
0000
0000
0000
0000
,  // measure 7
1000
0100
0010
0001
1000
0000
0001
0100
,  // measure 8
0010
0000
1000
0000
0001
0010
0100
1000
0001
0000
0100
0000
1000
0000
0100
0000
,  // measure 9
0001
0010
0002
0000
0203
0000
0320
0000
,  // measure 10
1030
0100
0010
0001
0100
0000
0002
0000
,  // measure 11
0023
0000
0230
0000
1300
0100
0001
0100
,  // measure 12
1000
0100
0010
0001
0101
0000
1010
0000
,  // measure 13
0001
0100
0010
1000
0001
1000
0200
0000
,  // measure 14
0320
0000
0000
0030
0001
0100
0001
0000
1000
0000
0100
0000
0010
0000
0001
0000
,  // measure 15
0010
0011
1100
0011
,  // measure 16
1000
0010
0001
0010
1000
0000
0001
0010
,  // measure 17
1000
0010
0001
0000
1000
0100
0010
0001
,  // measure 18
0100
0010
2000
0000
0000
0000
3000
0000
,  // measure 19
0001
0100
0010
0100
1000
0100
0002
0000
,  // measure 20
0000
0000
0003
0000
1000
0100
0010
0100
,  // measure 21
0001
0000
0100
0000
2000
0000
0000
0000
3200
0000
0000
0300
0010
0001
0010
0000
,  // measure 22
0001
0100
1000
0100
0001
0010
0200
0000
,  // measure 23
2300
3020
0230
0302
,  // measure 24
0023
0130
1000
0001
,  // measure 25
1000
0100
0010
0001
0100
0010
2000
0000
,  // measure 26
3002
0000
0000
0000
0203
0000
0000
0300
0010
1000
0010
0000
1000
0000
0100
0000
,  // measure 27
0001
0100
2000
0000
3020
0000
0230
0000
,  // measure 28
0301
0100
0010
0100
1000
0100
0002
0000
,  // measure 29
0000
0000
0000
0000
1003
0000
0000
0000
0010
0100
0010
0000
1000
0000
0100
0000
,  // measure 30
0010
0001
0100
1000
0100
0001
0010
0100
,  // measure 31
2000
0010
0100
3002
,  // measure 32
0010
0100
2003
0100
,  // measure 33
3001
0000
1000
0100
0010
0001
1000
0010
,  // measure 34
0200
0001
1000
0320
,  // measure 35
0001
0000
0030
0000
1000
0010
1000
0000
0200
0000
0000
0000
0010
0000
0000
0000
,  // measure 36
0310
0000
0000
0001
1000
0010
1000
0001
0010
0100
1000
0010
,  // measure 37
0200
0000
0000
0000
0000
0000
0300
0000
0000
0001
1000
0100
,  // measure 38
0010
0001
0100
0010
1000
0001
0010
0100
1000
0010
0100
0001
,  // measure 39
1000
0100
0010
0001
1000
0010
0100
0001
0010
0100
1000
0001
,  // measure 40
2000
0010
3010
0002
,  // measure 41
0100
0000
0000
0000
0103
0000
0000
0000
1001
0000
0000
0000
0000
0000
0100
1000
,  // measure 42
0100
1000
0100
0010
0001
0000
0000
0000
0000
0000
0000
0000
0000
0000
0000
0000
,  // measure 43
0011
0000
0000
1100
,  // measure 44
0000
0000
1000
0100
0010
0001
1001
0000
,  // measure 45
0001
0000
0100
0000
0010
0000
1000
0000
0100
0010
0100
0000
1000
0000
0010
0000
,  // measure 46
0100
0001
1001
1000
1010
0010
0110
0100
,  // measure 47
0001
0010
0001
0000
0100
0000
0010
0000
1000
0000
0100
0000
0110
0000
1000
0000
,  // measure 48
0001
0000
1000
0000
0010
0000
0100
0000
0001
0000
1000
0000
0001
0100
0001
0100
,  // measure 49
0001
0100
0001
0100
0001
0100
0001
0100
0010
0000
1000
0000
0100
0000
0010
0000
,  // measure 50
0110
0000
0000
0000
0001
0010
0001
0000
1000
0000
0010
0000
0100
0000
0001
0000
,  // measure 51
1000
0010
1000
0000
0001
0000
0010
0000
0100
0000
1000
0000
0001
0100
0001
0000
,  // measure 52
1000
0100
0001
0100
1100
1000
1010
0010
,  // measure 53
0110
0000
0000
0000
1000
0001
1000
0000
0010
0100
0010
0000
1000
0100
0010
0000
,  // measure 54
0001
0000
0000
0000
1000
0000
0000
0000
0010
0000
0000
0000
1000
0000
0000
0000
0001
0000
0000
0000
0010
0000
0000
0000
0100
0000
0000
0000
1000
0000
0000
0000
0001
0000
0000
0000
0100
0000
0000
0010
0000
0000
0100
0000
0000
0000
0000
0000
,  // measure 55
0010
1000
0010
0000
0100
0001
0100
0000
0020
0000
0000
0000
0000
0000
0000
0030
,  // measure 56
0100
0001
0100
0001
0100
0000
1000
0000
0100
0000
0001
0000
0010
0000
0001
0000
,  // measure 57
0101
0000
0010
0000
1000
0000
0001
0000
0010
0100
0010
0100
0010
0000
0001
0000
,  // measure 58
1000
0100
0001
0100
1100
0000
0011
0000
,  // measure 59
1000
0001
1000
0001
0010
0000
1000
0000
0010
0000
0001
0000
0100
0000
0010
0000
,  // measure 60
0110
0000
0001
0000
1000
0000
0100
0000
0010
0001
0010
0001
1000
0000
0010
0000
,  // measure 61
0001
0000
0010
0000
1000
0000
0000
0000
0010
0100
0010
0000
0110
0000
0000
0000
,  // measure 62
1001
0000
0000
0000
1000
0010
1000
0000
0001
0000
0010
0000
0100
0000
1000
0000
,  // measure 63
0001
0010
0001
0000
1000
0000
0010
0000
0100
0000
0001
0000
1000
0100
1000
0000
,  // measure 64
0001
0000
0000
0100
0000
0000
1000
0000
0000
0100
0000
0000
0001
0000
0010
0000
0100
0000
1000
0000
0010
0000
0100
0000
,  // measure 65
0001
1000
0100
0010
0001
0100
1000
0100
0001
1000
0100
0001
,  // measure 66
0100
1000
0010
0100
0001
0010
0100
1000
0001
0100
0010
1000
,  // measure 67
0001
0000
0000
0000
0010
0000
0000
0000
1000
0000
0000
0000
0010
0000
0000
0000
0001
0000
0000
0000
1000
0000
0000
0000
0010
0000
0000
0100
0000
0000
0010
0000
0000
0100
0000
0000
0001
0000
0000
0100
0000
0000
0001
0000
0000
0100
0000
0000
,  // measure 68
0001
1000
0001
1000
0200
0000
0000
0000
0000
0000
0000
0000
0000
0000
0000
0000
,  // measure 69
0310
0000
0000
0002
,  // measure 70
0000
0000
1003
0000
,  // measure 71
0000
0020
0000
0000
,  // measure 72
0130
0000
0000
2000
,  // measure 73
0000
0000
3001
0000
;

//---------------dance-single - NewbStepper-DSP----------------
#NOTES:
     dance-single:
     NewbStepper:
     Medium:
     11:
     0.498083,0.605067,0.193699,0.377713,0.009685,360,340,20,39,0,0,0.498083,0.605067,0.193699,0.377713,0.009685,360,340,20,39,0,0:
// measure 0
0000
0000
0000
0000
,  // measure 1
0000
0000
0000
0000
,  // measure 2
0000
0000
0000
0000
,  // measure 3
0000
0000
0000
0000
,  // measure 4
0000
0000
0000
0000
,  // measure 5
0000
0000
0000
0000
,  // measure 6
0000
0000
0000
0000
,  // measure 7
0001
0000
0100
0010
1000
0000
0001
0000
,  // measure 8
0100
0010
1000
0000
0001
0000
0010
0100
,  // measure 9
1000
0200
0320
0031
,  // measure 10
1000
0000
0100
0010
0001
0000
0020
0000
,  // measure 11
0230
0000
1300
0000
1000
0100
0001
0100
,  // measure 12
1000
0010
0100
0010
,  // measure 13
1000
0000
0100
0010
0001
0000
1000
0000
,  // measure 14
0001
0100
1000
0100
0001
0000
0100
0010
,  // measure 15
1000
1100
0101
1100
,  // measure 16
0001
0000
1000
0100
0010
0000
0001
0000
,  // measure 17
1000
0100
0010
0000
0001
0100
0010
1000
,  // measure 18
0100
0010
0002
0000
0000
0000
0003
0000
,  // measure 19
1000
0100
1000
0001
1000
0100
2000
0000
,  // measure 20
0000
0000
3000
0000
0001
0100
0001
1000
,  // measure 21
0001
0100
0002
0000
0023
0000
0230
0000
,  // measure 22
1300
0001
1000
0100
0010
0001
0020
0000
,  // measure 23
0230
2300
3002
0203
,  // measure 24
0320
1030
0100
0010
,  // measure 25
0001
0000
0100
0010
0100
1000
0100
0000
,  // measure 26
0001
0000
0010
0000
0100
1000
0100
0001
,  // measure 27
0100
0010
0001
0000
0100
0000
1000
0000
,  // measure 28
0100
0010
0100
0001
0100
0010
2000
0000
,  // measure 29
0000
0000
3000
0000
0001
1000
0100
0010
,  // measure 30
0001
0100
0020
0000
1000
0000
1030
0000
,  // measure 31
0001
0100
0100
0010
,  // measure 32
1010
1010
1000
0100
,  // measure 33
0100
0000
0010
0001
0010
0100
1000
0100
,  // measure 34
0010
0001
0010
0100
,  // measure 35
0100
0000
0001
0100
1000
0000
0100
0000
,  // measure 36
0100
2000
3200
0320
,  // measure 37
0031
0100
0100
0002
,  // measure 38
0203
0320
2030
3200
,  // measure 39
0320
0000
0000
0032
0000
0000
2003
0000
0000
3010
0100
0010
,  // measure 40
0100
0000
0000
0101
,  // measure 41
0000
0000
0000
0000
1010
0000
0000
1000
,  // measure 42
0100
1000
0100
0000
0000
0000
0000
0000
,  // measure 43
0010
0000
0000
0001
,  // measure 44
0000
0000
1000
0100
0010
0001
1000
0000
,  // measure 45
0001
0100
0010
1000
0001
0000
1000
0100
,  // measure 46
0010
0001
1000
0000
1100
0000
0110
0000
,  // measure 47
0011
0000
0001
0100
0010
1000
0001
0000
,  // measure 48
0001
0010
0100
1000
0001
0000
0001
0100
,  // measure 49
1000
0100
0001
0100
0010
1000
0100
0010
,  // measure 50
0001
0000
1000
0100
1000
0001
0100
0001
,  // measure 51
1000
0010
1000
0001
0010
0001
0100
0010
,  // measure 52
1000
0100
0010
0001
0100
0000
0110
0000
,  // measure 53
1001
0000
0001
0100
0100
0010
1000
1000
,  // measure 54
0100
0010
0001
0100
0010
1000
0001
0010
,  // measure 55
0100
1000
0001
0100
0020
0000
0030
0000
,  // measure 56
1000
1000
0001
0100
0010
1000
0001
0000
,  // measure 57
1000
0100
0010
0001
1000
0000
0001
0100
,  // measure 58
0010
1000
0001
0000
0101
0000
0110
0000
,  // measure 59
1010
0000
1000
0100
0010
0001
1000
0000
,  // measure 60
0001
0100
0010
1000
0001
0000
1000
0100
,  // measure 61
0010
0001
1000
0000
0110
0000
1001
0000
,  // measure 62
0110
0000
0001
0100
0001
1000
0100
1000
,  // measure 63
0001
0010
0001
1000
0010
1000
0100
0010
,  // measure 64
0001
0100
0010
1000
0100
0000
0110
0000
,  // measure 65
1001
2000
3200
0320
,  // measure 66
0032
0000
0203
0000
0320
0000
1030
0100
,  // measure 67
1000
0001
1000
0100
0001
0100
1000
0001
,  // measure 68
0100
0010
0200
0000
0000
0000
0000
0000
,  // measure 69
0301
0000
0000
0020
,  // measure 70
0000
0000
1030
0000
,  // measure 71
0000
0200
0000
0000
,  // measure 72
0301
0000
0000
0020
,  // measure 73
0000
0000
1030
0000
;

//---------------dance-single - NewbStepper-BSP----------------
#NOTES:
     dance-single:
     NewbStepper:
     Easy:
     6:
     0.289165,0.425653,0.038740,0.125904,0,209,205,4,13,0,0,0.289165,0.425653,0.038740,0.125904,0,209,205,4,13,0,0:
// measure 0
0000
0000
0000
0000
,  // measure 1
0000
0000
0000
0000
,  // measure 2
0000
0000
0000
0000
,  // measure 3
0000
0000
0000
0000
,  // measure 4
0000
0000
0000
0000
,  // measure 5
0000
0000
0000
0000
,  // measure 6
0000
0000
0000
0000
,  // measure 7
1000
0000
0001
0100
,  // measure 8
0000
0010
1000
0000
,  // measure 9
0001
1000
0010
0100
,  // measure 10
0001
0000
1000
0100
,  // measure 11
0000
0010
0001
0100
,  // measure 12
0010
1000
0100
0010
,  // measure 13
0001
0100
1000
0100
,  // measure 14
0001
0010
0100
1000
,  // measure 15
0010
0100
0001
0100
,  // measure 16
0010
1000
0100
0010
,  // measure 17
0001
0100
1000
0100
,  // measure 18
0001
0020
0000
0030
,  // measure 19
0001
0100
0010
2000
,  // measure 20
0000
3000
1000
0100
,  // measure 21
0010
0002
0000
0003
,  // measure 22
1000
0100
0001
0100
,  // measure 23
1000
0001
0100
0010
,  // measure 24
0100
0001
1000
0100
,  // measure 25
1000
0010
0100
0002
,  // measure 26
0003
0001
0010
0100
,  // measure 27
1000
0001
0100
0001
,  // measure 28
1000
0100
0010
0002
,  // measure 29
0003
0000
0001
0100
,  // measure 30
0010
2000
3000
0000
,  // measure 31
0001
0100
0100
1000
,  // measure 32
0100
0100
0001
0010
,  // measure 33
0010
1000
0010
0010
,  // measure 34
0001
0000
0100
1000
,  // measure 35
0000
0100
0001
0000
,  // measure 36
0000
1000
0001
1000
,  // measure 37
0010
0000
0000
0001
,  // measure 38
1000
0001
0010
0000
,  // measure 39
1000
0100
0000
0010
,  // measure 40
0011
0000
0000
1100
,  // measure 41
0000
0000
0110
0000
,  // measure 42
0000
1001
0000
0000
,  // measure 43
0001
0000
0000
1000
,  // measure 44
0000
0001
0100
0010
,  // measure 45
1000
0100
0010
0001
,  // measure 46
0100
1000
0001
0010
,  // measure 47
1000
1000
0100
0010
,  // measure 48
0001
0000
0100
0000
0010
0000
1000
0001
,  // measure 49
1000
0001
1000
0001
0200
0000
0300
0000
,  // measure 50
0000
0001
0010
1000
,  // measure 51
0001
0100
1000
1000
,  // measure 52
0010
0001
1000
0100
,  // measure 53
0001
0010
0010
0010
,  // measure 54
0100
0100
0100
1000
,  // measure 55
0001
1000
0020
0030
,  // measure 56
1000
0100
0000
0010
,  // measure 57
0001
0000
0100
1000
,  // measure 58
0000
0001
0010
0000
,  // measure 59
1000
0100
0000
0001
,  // measure 60
0100
0000
1000
0001
,  // measure 61
0000
1000
0100
0010
,  // measure 62
0001
1000
0010
0001
,  // measure 63
1000
0100
0001
0001
,  // measure 64
0010
1000
0001
0100
,  // measure 65
1000
0010
0010
0010
,  // measure 66
0100
0100
0100
0001
,  // measure 67
0001
0001
2000
0000
,  // measure 68
3000
0002
0000
0000
,  // measure 69
0003
0000
0000
2000
,  // measure 70
0000
0000
3000
0000
,  // measure 71
0000
0002
0000
0000
,  // measure 72
0003
0000
2000
0000
,  // measure 73
0000
3000
0000
0000
;

//---------------dance-single - NewbStepper-bSP----------------
#NOTES:
     dance-single:
     NewbStepper:
     Beginner:
     2:
     0.117603,0.211374,0.038740,0.048425,0,85,81,4,5,0,0,0.117603,0.211374,0.038740,0.048425,0,85,81,4,5,0,0:
// measure 0
0000
0000
0000
0000
,  // measure 1
0000
0000
0000
0000
,  // measure 2
0000
0000
0000
0000
,  // measure 3
0000
0000
0000
0000
,  // measure 4
0000
0000
0000
0000
,  // measure 5
0000
0000
0000
0000
,  // measure 6
0000
0000
0000
0000
,  // measure 7
0001
0000
0000
0000
,  // measure 8
0000
0000
0000
0000
,  // measure 9
0000
0000
0000
0000
,  // measure 10
0001
0000
0000
0000
,  // measure 11
0000
0000
0000
0000
,  // measure 12
0000
0000
0000
0000
,  // measure 13
1000
0000
0000
0001
,  // measure 14
0000
0000
1000
0000
,  // measure 15
0000
0010
0000
0000
,  // measure 16
1000
0000
0000
0001
,  // measure 17
0000
0000
0010
0000
,  // measure 18
0000
0001
0000
0000
,  // measure 19
0000
0000
0000
0000
,  // measure 20
0000
0000
0000
0000
,  // measure 21
0000
0000
0000
0000
,  // measure 22
1000
0000
0000
0000
,  // measure 23
0000
0000
0000
0000
,  // measure 24
0000
0000
0000
0000
,  // measure 25
0001
0000
0000
0000
,  // measure 26
0000
0000
1000
0000
,  // measure 27
0000
0000
0000
0000
,  // measure 28
0010
0000
0000
0000
,  // measure 29
0000
0000
0100
0000
,  // measure 30
0000
0000
0000
0000
,  // measure 31
0001
0000
0001
0001
,  // measure 32
0000
1000
1000
0000
,  // measure 33
0100
0100
0000
0000
,  // measure 34
1000
0000
1000
1000
,  // measure 35
0000
0001
0001
0000
,  // measure 36
0000
0200
0000
0000
,  // measure 37
0300
0000
0000
0020
,  // measure 38
0000
0000
0030
0000
,  // measure 39
0000
0000
0000
0000
,  // measure 40
1000
0000
0000
0001
,  // measure 41
0000
0000
1000
0000
,  // measure 42
0000
0001
0000
0000
,  // measure 43
0100
0000
0000
0010
,  // measure 44
0000
1000
0000
0001
,  // measure 45
0001
0000
0100
0100
,  // measure 46
0000
0010
0010
0000
,  // measure 47
0000
0001
0000
1000
,  // measure 48
1000
0000
0100
0100
,  // measure 49
0000
0010
0010
0000
,  // measure 50
0000
0001
0000
0000
,  // measure 51
1000
0000
0000
0001
,  // measure 52
0000
0000
1000
0000
,  // measure 53
0000
0020
0000
0030
,  // measure 54
2000
0000
3000
0002
,  // measure 55
0000
0003
0010
0000
,  // measure 56
0001
0001
0000
1000
,  // measure 57
1000
0000
0010
0010
,  // measure 58
0000
0100
0100
0000
,  // measure 59
0000
0010
0000
0000
,  // measure 60
0010
0000
0000
0100
,  // measure 61
0000
0000
0100
0000
,  // measure 62
0000
1000
0000
0000
,  // measure 63
0001
0000
0000
1000
,  // measure 64
0000
0000
0001
0000
,  // measure 65
0000
0100
0000
0000
,  // measure 66
0010
0000
0000
0100
,  // measure 67
0000
0000
0010
0000
,  // measure 68
0000
1001
0000
0000
,  // measure 69
0000
0000
0000
0110
,  // measure 70
0000
0000
0000
0000
,  // measure 71
0000
1001
0000
0000
,  // measure 72
0000
0000
0000
0110
;

//---------------dance-double - NewbStepper-EDP----------------
#NOTES:
     dance-double:
     NewbStepper:
     Hard:
     15:
     0.668261,0.996581,0.174329,0.377713,0.479405,483,465,18,39,0,0,0.668261,0.996581,0.174329,0.377713,0.479405,483,465,18,39,0,0:
00000000
00000000
00000000
00000000
,
00000000
00000000
00000000
00000000
,
00000000
00000000
00000000
00000000
,
00000000
00000000
00000000
00000000
,
00000000
00000000
00000000
00000000
,
00000000
00000000
00000000
00000000
,
00000000
00000000
00000000
00000000
,
00010000
00001000
00000100
00000001
00000010
00000000
00000100
00010000
,
00001000
00000000
00100000
00000000
00010000
01000000
00010000
01000000
00100000
00000000
10000000
00000000
01000000
00000000
00010000
00000000
,
00001000
00010000
00200000
00000000
20300000
00000000
32000000
00000000
,
03010000
00001000
00000100
00000001
00000010
00000000
00000002
00000000
,
00000203
00000000
00000320
00000000
00001030
00000100
00000001
00000100
,
00001000
00000100
00010000
00000000
00011000
00000000
01100000
00000000
,
00001000
00010000
01000000
10000000
00100000
10000000
00020000
00000000
,
02030000
00000000
00000000
03000000
00001000
00010000
00001000
00000000
00010000
00000000
00001000
00000000
00000100
00000000
00000001
00000000
,
00000010
00000011
00001010
00011000
,
00001000
00000100
00000001
00000010
00001000
00000000
00010000
01000000
,
10000000
00100000
00010000
00000000
00001000
00010000
00100000
00010000
,
00001000
00000010
00000002
00000000
00000000
00000000
00000003
00000000
,
00001000
00000100
00000010
00000001
00000100
00000010
00002000
00000000
,
00000000
00000000
00003000
00000000
00010000
01000000
00100000
10000000
,
01000000
00000000
00100000
00000000
00020000
00000000
00000000
00000000
02030000
00000000
00000000
03000000
00100000
10000000
00100000
00000000
,
00010000
00001000
00000010
00000001
00000100
00000010
00000200
00000000
,
00002300
00023000
00230000
20300000
,
32000000
03010000
00001000
00100000
,
00001000
00010000
00100000
00010000
00001000
01000000
00200000
00000000
,
00320000
00000000
00000000
00000000
00032000
00000000
00000000
00000000
00003010
00000001
00000010
00000000
00000001
00000000
00000100
00000000
,
00001000
00000100
00000002
00000000
00000023
00000000
00002030
00000000
,
00013000
01000000
10000000
01000000
00100000
01000000
00020000
00000000
,
00000000
00000000
00000000
00000000
00031000
00000000
00000000
00000000
00000010
00000100
00000010
00000000
00000001
00000000
00000100
00000000
,
00000010
00001000
00010000
01000000
00100000
10000000
00010000
00100000
,
00020000
00100000
10000000
02030000
,
10000000
00010000
03200000
10000000
,
01000000
00000000
00310000
00001000
00000100
00000001
00000010
00000100
,
00002000
00000010
00000001
00003200
,
00000001
00000000
00000300
00000000
00001000
00000010
00001000
00000000
00000200
00000000
00000000
00000000
00010000
00000000
00000000
00000000
,
00010300
00000000
00000000
00001000
00100000
00010000
00100000
00001000
01000000
00010000
10000000
01000000
,
00200000
00000000
00000000
00000000
00000000
00000000
00300000
00000000
00000000
00010000
00100000
00001000
,
00010000
00000100
00010000
00001000
00000010
00000001
00000100
00000010
00001000
00000001
00000010
00000100
,
00001000
00000010
00000100
00001000
00010000
00001000
00100000
00010000
00100000
01000000
10000000
00010000
,
20000000
00100000
30100000
00020000
,
01000000
00000000
00000000
00000000
01030000
00000000
00000000
00000000
10010000
00000000
00000000
00000000
00000000
00000000
01000000
00001000
,
01000000
00001000
01000000
00001000
00010000
00000000
00000000
00000000
00000000
00000000
00000000
00000000
00000000
00000000
00000000
00000000
,
00000010
00000000
00000000
00001000
,
00000000
00000000
00000001
00000100
00001000
00010000
01000000
00000000
,
10000000
00000000
00100000
00000000
00010000
00000000
00001000
00000000
00000010
00000100
00000010
00000000
00000001
00000000
00000100
00000000
,
00001000
00010000
01000000
10000000
11000000
01000000
01100000
00100000
,
00010000
01000000
00010000
00000000
10000000
00000000
01000000
00000000
00010000
00000000
00001000
00000000
00000100
00000000
00000000
00000000
,
00000001
00000000
00000010
00000000
00001000
00000000
00010000
00000000
00100000
00000000
00000000
00000000
10000000
00010000
10000000
00010000
,
10000000
00010000
10000000
00010000
10000000
00010000
10000000
00010000
01000000
00000000
00001000
00000000
00010000
00000000
00000100
00000000
,
00000110
00000000
00000000
00000000
00000001
00000010
00000001
00000000
00000100
00000000
00001000
00000000
00010000
00000000
01000000
00000000
,
10000000
00100000
10000000
00000000
01000000
00000000
00010000
00000000
00001000
00000000
00000100
00000000
00000001
00000010
00000001
00000000
,
00000100
00001000
00010000
00001000
01001000
01000000
01010000
00010000
,
00110000
00000000
00000000
00000000
10000000
01000000
10000000
00000000
00010000
01000000
00010000
00000000
00100000
00001000
00100000
00000000
,
00001000
00000000
00000000
00000000
00010000
00000000
00000000
00000000
00000100
00000000
00000000
00000000
00001000
00000000
00000000
00000000
00000001
00000000
00000000
00000000
00001000
00000000
00000000
00000000
00000010
00000000
00000000
00000000
00001000
00000000
00000000
00000000
00000100
00000000
00000000
00000000
00000010
00000000
00000000
00000001
00000000
00000000
00000010
00000000
00000000
00000000
00000000
00000000
,
00000100
00001000
00000100
00000000
00010000
00001000
00010000
00000000
00002000
00000000
00000000
00000000
00000000
00000000
00000000
00000000
,
01003000
00010000
01000000
00010000
01000000
00000000
10000000
00000000
01000000
00000000
00010000
00000000
00100000
00000000
00001000
00000000
,
00011000
00000000
00010000
00000000
00001000
00000000
00000100
00000000
00000010
00000100
00000010
00000100
00000001
00000000
00000100
00000000
,
00001000
00010000
01000000
10000000
11000000
00000000
00110000
00000000
,
10000000
00100000
10000000
00100000
01000000
00000000
00010000
00000000
10000000
00000000
00100000
00000000
00010000
00000000
00001000
00000000
,
00011000
00000000
00010000
00000000
00000010
00000000
00000100
00000000
00000001
00000010
00000001
00000010
00000100
00000000
00010000
00000000
,
00001000
00000000
00000010
00000000
00000001
00000000
00000010
00000000
00001000
00010000
00001000
00000000
00011000
00000000
00000000
00000000
,
01100000
00000000
00000000
00000000
10000000
00100000
10000000
00000000
01000000
00000000
00010000
00000000
00001000
00000000
00000100
00000000
,
00000001
00000010
00000001
00000000
00000100
00000000
00001000
00000000
00010000
00000000
01000000
00000000
10000000
00100000
10000000
00000000
,
01000000
00000000
00000000
00010000
00000000
00000000
00001000
00000000
00000000
00000100
00000000
00000000
00000001
00000000
00000010
00000000
00000100
00000000
00001000
00000000
00000010
00000000
00000100
00000000
,
00001000
00010000
00001000
00010000
00100000
01000000
00010000
00100000
01000000
10000000
00100000
01000000
,
10000000
01000000
00010000
00100000
00001000
00100000
00010000
00100000
00001000
00010000
00000010
00001000
,
00000001
00000000
00000000
00000000
00000100
00000000
00000000
00000000
00001000
00000000
00000000
00000000
00010000
00000000
00000000
00000000
00000100
00000000
00000000
00000000
00010000
00000000
00000000
00000000
00001000
00000000
00000000
00100000
00000000
00000000
00001000
00000000
00000000
00100000
00000000
00000000
00010000
00000000
00000000
00100000
00000000
00000000
00010000
00000000
00000000
00100000
00000000
00000000
,
00010000
10000000
00010000
10000000
00200000
00000000
00000000
00000000
00000000
00000000
00000000
00000000
00000000
00000000
00000000
00000000
,
01300000
00000000
00000000
00020000
,
00000000
00000000
00031000
00000000
,
00000000
00000200
00000000
00000000
,
00000310
00000000
00000000
00002000
,
00000000
00000000
00013000
00000000
;

//---------------dance-double - NewbStepper-DDP----------------
#NOTES:
     dance-double:
     NewbStepper:
     Medium:
     11:
     0.489782,0.605067,0.164644,0.377713,0,354,337,17,39,0,0,0.489782,0.605067,0.164644,0.377713,0,354,337,17,39,0,0:
00000000
00000000
00000000
00000000
,
00000000
00000000
00000000
00000000
,
00000000
00000000
00000000
00000000
,
00000000
00000000
00000000
00000000
,
00000000
00000000
00000000
00000000
,
00000000
00000000
00000000
00000000
,
00000000
00000000
00000000
00000000
,
00000001
00000000
00000100
00000010
00001000
00000000
00000001
00000000
,
00000100
00000010
00001000
00000000
00000001
00000000
00000010
00000100
,
00001000
00020000
02030000
03100000
,
10000000
00000000
01000000
00100000
00010000
00000000
00200000
00000000
,
02300000
00000000
13000000
00000000
10000000
01000000
00100000
01000000
,
00010000
00001000
00000010
00001000
,
00010000
00000000
00001000
00000010
00000001
00000000
00001000
00000000
,
00000001
00000100
00001000
00000100
00000001
00000000
00001000
00000100
,
00010000
00011000
01010000
00011000
,
00100000
00000000
10000000
01000000
00100000
00000000
00010000
00000000
,
01000000
00100000
00010000
00000000
00001000
00010000
00000100
00001000
,
00000010
00000100
00000002
00000000
00000000
00000000
00000003
00000000
,
00001000
00000100
00010000
00001000
00010000
00000100
00002000
00000000
,
00000000
00000000
00003000
00000000
00000001
00000100
00000001
00001000
,
00000100
00010000
00002000
00000000
00203000
00000000
00320000
00000000
,
10030000
00010000
10000000
01000000
00100000
00010000
00200000
00000000
,
02300000
23000000
30020000
02030000
,
03200000
10300000
01000000
00010000
,
00001000
00000000
00000010
00000100
00000010
00000001
00000010
00000000
,
00000001
00000000
00000100
00000000
00001000
00010000
00001000
00100000
,
00010000
01000000
10000000
00000000
01000000
00000000
00010000
00000000
,
00100000
00001000
00100000
00010000
00001000
00000100
00000020
00000000
,
00000000
00000000
00000030
00000000
00000001
00001000
00000100
00000010
,
00000001
00000100
00002000
00000000
00010000
00000000
00013000
00000000
,
00001000
01000000
01000000
00100000
,
10000000
10000000
01000000
00010000
,
00010000
00000000
00001000
00010000
00001000
00000100
00000010
00001000
,
00000001
00000100
00000010
00000010
,
00001000
00000000
00000100
00010000
00001000
00000000
00100000
00000000
,
00100000
00020000
02030000
03200000
,
10300000
01000000
01000000
20000000
,
30200000
02300000
03020000
00032000
,
00003020
00000230
00000302
00001003
,
00000001
00000000
00000000
00000101
,
00000000
00000000
00000000
00000000
00001100
00000000
00000000
00010000
,
00001000
00010000
00001000
00000000
00000000
00000000
00000000
00000000
,
00100000
00000000
00000000
01000000
,
00000000
00000000
10000000
01000000
00100000
00010000
10000000
00000000
,
00010000
01000000
00100000
00010000
00001000
00000000
00100000
00010000
,
00100000
00001000
00010000
00000000
00011000
00000000
00001100
00000000
,
00000110
00000000
00000001
00000100
00000010
00001000
00000001
00000000
,
00001000
00000100
00000010
00001000
00010000
00000000
00001000
00100000
,
00001000
00010000
00001000
01000000
00010000
00100000
01000000
10000000
,
00010000
00000000
10000000
01000000
10000000
00010000
01000000
00010000
,
00100000
00001000
00100000
00001000
00010000
00000100
00001000
00000100
,
00000010
00000001
00000100
00000010
00001000
00000000
00000010
00000000
,
00001001
00000000
00000001
00000100
00000010
00001000
00000001
00001000
,
00000100
00000010
00000100
00010000
00001000
00100000
00010000
10000000
,
00100000
01000000
00010000
10000000
02000000
00000000
03000000
00000000
,
10000000
00000000
00010000
01000000
00100000
10000000
00100000
00000000
,
10000000
01000000
00010000
00001000
00010000
00000000
00000010
00001000
,
00000010
00000100
00000001
00000000
00000101
00000000
00000110
00000000
,
00001010
00000000
00001000
00000100
00000010
00000001
00001000
00000000
,
00000001
00000100
00001000
00010000
00001000
00000000
00100000
00010000
,
00100000
01000000
10000000
00000000
11000000
00000000
01100000
00000000
,
00110000
00000000
00001000
00100000
00001000
00010000
00000100
00010000
,
00001000
00010000
00000010
00001000
00000001
00000100
00000010
00001000
,
00000001
00000100
00001000
00010000
00001000
00000000
00011000
00000000
,
01010000
20000000
32000000
03200000
,
00320000
00000000
00032000
00000000
00003200
00000000
00001300
00000001
,
00001000
00000010
00001000
00000100
00010000
00001000
01000000
00010000
,
00100000
01000000
00200000
00000000
00000000
00000000
00000000
00000000
,
00301000
00000000
00000000
00000020
,
00000000
00000000
00010030
00000000
,
00000000
02000000
00000000
00000000
,
03001000
00000000
00000000
00000200
,
00000000
00000000
00010300
00000000
;

//---------------dance-double - NewbStepper-BDP----------------
#NOTES:
     dance-double:
     NewbStepper:
     Easy:
     7:
     0.282247,0.320330,0.038740,0.116219,0,204,200,4,12,0,0,0.282247,0.320330,0.038740,0.116219,0,204,200,4,12,0,0:
00000000
00000000
00000000
00000000
,
00000000
00000000
00000000
00000000
,
00000000
00000000
00000000
00000000
,
00000000
00000000
00000000
00000000
,
00000000
00000000
00000000
00000000
,
00000000
00000000
00000000
00000000
,
00000000
00000000
00000000
00000000
,
10000000
00000000
00010000
01000000
,
00000000
00001000
00010000
00000000
,
00000010
00001000
00000010
00000100
,
00000001
00000000
00001000
00000100
,
00000000
00010000
00001000
00000000
,
01000000
00100000
00000000
00000000
,
10000000
00000000
00010000
01000000
,
00000000
00001000
00010000
00000000
,
00100000
00010000
00001000
00010000
,
00000010
00000000
00001000
00000100
,
00000000
00000001
00000100
00000000
,
00001000
00000020
00000000
00000030
,
00000100
00000001
00000010
00002000
,
00000000
00003000
01000000
00010000
,
00100000
02000000
03000000
00000000
,
10000000
01000000
00100000
00010000
,
00100000
00001000
00010000
00000010
,
00001000
00000002
00000000
00001003
,
00000010
00000001
00000010
00002000
,
00000000
00003000
00000100
00010000
,
00001000
02000000
00000000
03000000
,
00010000
10000000
01000000
00200000
,
00000000
00300000
00001000
00010000
,
00000100
00002000
00000000
00003000
,
00000001
00000100
00000100
00001000
,
00010000
00010000
00001000
00000010
,
00000010
00001000
00100000
00100000
,
00010000
01000000
01000000
10000000
,
01000000
01000000
00010000
00000000
,
00100000
00001000
00010000
00000010
,
00001000
00000000
00000000
00000001
,
00000100
00001000
00010000
00000000
,
01000000
10000000
00000000
00100000
,
01100000
00000000
00000000
00011000
,
00000000
00000000
00001010
00000000
,
00000000
00000101
00000000
00000000
,
00000010
00000000
00000000
00001000
,
00000000
00000001
00000100
00001000
,
00010000
01000000
10000000
00100000
,
10000000
00010000
10000000
00000000
,
00100000
10000000
01000000
00010000
,
00001000
00000100
00000001
00000010
,
00000001
00001000
00000001
00000000
,
00000000
00000100
00001000
00010000
,
00001000
00100000
00001000
00000010
,
00001000
00010000
01000000
10000000
,
00010000
10000000
01000000
00010000
,
00001000
00000100
00000001
00000010
,
00001000
00010000
00000100
00000000
,
00000010
00000001
00000100
00001000
,
00010000
01000000
10000000
00100000
,
00010000
00100000
10000000
01000000
,
00010000
00001000
00000100
00000010
,
00010000
00001000
00000010
00000001
,
00000100
00000010
00001000
00010000
,
01000000
00100000
10000000
01000000
,
00010000
00001000
00000100
00000001
,
00000010
00000001
00000100
00000010
,
00001000
00000001
00000100
00001000
,
00010000
01000000
10000000
00010000
,
10000000
01000000
00010000
00001000
,
00000100
00000002
00000000
00000000
,
00000003
00000000
00000000
00002000
,
00000000
00000000
00003000
00000000
,
00000000
00020000
00000000
00000000
,
00030000
00000000
00000000
20000000
,
00000000
00000000
30000000
00000000
;
