#TITLE:時守唄;
#ARTIST:felys feat.三澤 秋;
#TITLETRANSLIT:Tokimoriuta;
#ARTISTTRANSLIT:felys feat.Aki Misawa;
#BANNER:Tokimoriuta.png;
#BACKGROUND:Tokimoriuta-bg.png;
#MUSIC:Tokimoriuta.ogg;
#OFFSET:1.945;
#SAMPLESTART:59.559;
#SAMPLELENGTH:15;
#BPMS:0=120;
#STOPS:56=1.5;

//---------------dance-single - Talkion-bSP----------------
#NOTES:
     dance-single:
     Talkion:
     Beginner:
     2:
     0.115796,0.171916,0,0.114537,0,92,92,0,13,0,0,0.115796,0.171916,0,0.114537,0,92,92,0,13,0,0:
0000
0000
0000
0000
,
0000
0000
0000
0000
,
0000
0000
0000
0000
,
0000
0000
0000
0000
,
0000
0000
0000
0000
,
0000
0000
0000
0000
,
0001
0000
0000
0001
0000
0000
0000
0000
,
1000
0000
1000
0000
,
0010
0000
0000
0010
0000
0000
0000
0000
,
0100
0000
0100
0000
,
0010
0000
0000
0010
0000
0000
0000
0000
,
1000
0000
1000
0000
,
0001
0000
0000
0001
0000
0000
0000
0000
,
0010
0000
0010
0000
,
0000
0002
0000
0003
,
0000
2000
0000
3000
,
0000
0002
0000
0003
,
0000
2000
0000
3000
,
0000
0001
0000
0001
,
0000
0100
0000
0100
,
0000
0010
0000
0010
,
0000
2000
0000
3000
,
0000
0001
0000
0001
,
0000
0100
0000
0100
,
0000
1000
0000
1000
,
0000
0010
0000
0010
,
0000
0001
0000
0001
,
0000
1000
0000
1000
,
0000
0020
0000
0030
,
0000
0200
0000
0300
,
0000
0000
0001
0000
0000
0001
0000
0000
,
0000
1000
1000
0001
,
0000
0000
0010
0000
0000
0010
0000
0000
,
0000
0001
0001
1000
,
0000
0000
0100
0000
0000
0100
0000
0000
,
0000
1000
1000
0001
,
0000
0000
0010
0000
0000
0010
0000
0000
,
0000
0001
0001
1000
,
0000
0020
0000
0030
,
0000
0200
0000
0300
,
0000
0020
0000
0030
,
0000
0200
0000
0300
,
0000
0001
0000
0001
,
0000
1000
0000
1000
,
0000
0020
0000
0030
,
0200
0000
0300
0000
,
0000
0000
0000
0000
,
0000
0000
0000
0000
,
0000
0000
0001
0000
0000
0001
0000
0000
,
0000
0010
0010
0001
,
0000
0000
1000
0000
0000
1000
0000
0000
,
0000
0010
0010
1000
,
0000
0000
0001
0000
0000
0001
0000
0000
,
0000
0010
0000
0000
0010
0000
0010
0000
,
0000
0100
0000
0000
0100
0000
0100
0000
,
0000
1000
0000
0000
1000
0000
1000
0000
;

//---------------dance-single - Talkion-DSP----------------
#NOTES:
     dance-single:
     Talkion:
     Medium:
     9:
     0.352423,0.417511,0.176211,0.405286,0.022026,280,260,20,46,0,0,0.352423,0.417511,0.176211,0.405286,0.022026,280,260,20,46,0,0:
0000
0000
0000
0000
,
0000
0000
0000
0000
,
0000
0000
0000
0000
,
0000
0000
0000
0000
,
0000
0000
0000
0000
,
0000
0000
0000
0000
0000
0000
0200
0320
,
1030
0100
0010
0001
0000
0001
0100
0010
,
0000
0000
0010
0000
1000
0000
0100
0000
0200
0000
0000
0000
0300
0000
0010
0001
,
0010
0001
0100
0010
0000
0010
1000
0100
,
0000
0100
1000
0001
0100
0000
0110
0000
,
0001
0010
0100
1000
0000
1000
0010
0100
,
0000
0000
0100
0000
0001
0000
0010
0000
0020
0000
0000
0000
0030
0000
0100
1000
,
0100
1000
0010
0100
0000
0100
0001
0010
,
0000
0010
0001
1000
0010
0000
0110
0000
,
0000
0002
0100
2003
,
0000
3200
0320
0032
,
0000
2003
0010
3002
,
0000
0023
0230
2300
,
0000
0000
3001
0000
0001
0000
0100
0010
,
0100
0000
1000
0000
1000
0000
0100
0010
,
0100
0000
0002
0000
0000
0000
1003
0100
,
0010
0001
2000
0000
0000
0000
3000
0000
,
0002
0000
0103
0010
0100
0000
0010
1000
,
0100
0000
0010
0100
0010
0001
0100
0010
,
0100
0000
0010
0100
0001
0000
0010
0100
,
0001
0000
0100
1000
0100
1000
0001
0000
,
1001
0000
0100
1000
0100
0000
1000
0010
,
0100
0000
0010
0100
0001
1000
0002
0000
,
1003
0100
0020
0000
0000
0001
0000
0130
,
1000
0001
0200
0000
0000
0000
0310
0000
,
0110
0000
0001
0010
0100
0110
0000
0010
,
0001
0100
0000
0100
0001
0010
0020
0000
,
0030
0000
0100
1000
0100
0000
1000
0000
0001
0000
1001
0000
0000
0000
0001
0000
,
0100
1000
0000
1000
0100
0001
0010
0000
,
0110
0000
1000
0010
0100
0110
0000
0010
,
1000
0100
0000
0100
1000
0010
0020
0000
,
0030
0000
0100
0001
0100
0000
0001
0000
1000
0000
1001
0000
0000
0000
1000
0000
,
0100
0001
0000
0001
0100
0010
0001
0000
,
1001
2000
3020
0032
,
0023
2030
3200
0302
,
0203
2300
3002
0203
,
2300
3020
0032
2003
,
3020
0000
0130
0010
0100
0000
0001
1000
,
0100
0000
1000
0001
1000
0010
0100
0000
,
0001
1000
0200
0000
0000
0000
0310
0001
,
1000
0010
0200
0000
0000
0000
0020
0000
,
0330
0000
0000
0000
,
0000
0000
0000
0000
,
1001
0000
1000
0100
0010
0110
0000
0100
,
0001
0100
0000
0100
1000
0001
0100
0000
,
0110
0000
0001
0010
0100
0110
0000
0010
,
0001
0100
0000
0100
0001
0010
0020
0000
,
0030
0000
0100
1000
0100
0000
1000
0000
0010
0000
0110
0000
0000
0000
0100
0000
,
0001
0010
0000
0010
0100
1000
2002
3003
,
0000
0110
0000
0010
0100
0001
2002
3003
,
0000
0110
0000
1000
0100
0010
0110
0000
;

//---------------dance-single - Talkion-ESP----------------
#NOTES:
     dance-single:
     Talkion:
     Hard:
     13:
     0.517307,0.589427,0.422908,0.237885,0.273128,411,363,48,27,0,0,0.517307,0.589427,0.422908,0.237885,0.273128,411,363,48,27,0,0:
0000
0000
0000
0000
,
0000
0000
0000
0000
,
0000
0000
0000
0000
,
0000
0000
0000
0000
,
0000
0000
0000
0000
,
0000
0000
0000
0000
0000
0000
0002
0203
,
0310
0000
1000
0001
1000
0000
0110
0000
0000
0000
0011
0000
0001
0000
0101
0000
,
0000
0000
0100
0000
0010
1000
0010
1000
0001
0010
0100
0000
1000
0000
0100
0010
,
0001
0000
0100
0010
0100
0000
1001
0000
0000
0000
1100
0000
1000
0000
1010
0000
,
0000
0000
0010
0000
0100
0001
0010
0000
0100
0000
0010
0000
1001
0000
0000
0000
,
0100
0000
0001
1000
0001
0000
0110
0000
0000
0000
1100
0000
1000
0000
1010
0000
,
0000
0000
0010
0000
0100
0001
0100
0001
1000
0100
0010
0000
0001
0000
0010
0100
,
1000
0000
0010
0100
0010
0000
1001
0000
0000
0000
0011
0000
0001
0000
0101
0000
,
0000
0000
0100
0000
0010
1000
0100
0000
0010
0000
0100
0000
1001
0000
0000
0000
,
0000
0002
0100
2003
,
0000
0000
3100
0010
0001
0100
0020
0000
,
0000
2030
0100
3002
,
0000
0203
0320
2030
,
0000
0000
3001
0010
0100
0000
1000
0100
,
0010
0000
0100
1000
0010
0000
0100
0001
,
0010
0000
0200
0000
2300
0000
3001
0100
,
1000
0100
0020
0000
0000
0000
0030
0000
,
0020
0000
0000
0000
1030
0000
0100
0000
0200
0300
0010
0001
0100
0000
0010
0000
,
0010
0000
0000
0000
0100
0000
0010
0000
0110
0000
0001
1000
0100
0000
0000
0000
,
0110
0000
0000
0000
0001
0000
0010
0000
0010
0000
0100
1000
0010
0000
0100
0000
,
0100
0000
0000
0000
0010
1000
0010
1000
0010
1000
0010
1000
0001
0000
0000
0000
,
1001
0000
0000
0000
1000
0000
0100
0000
0200
0300
0001
0100
1000
0000
0001
0000
,
0001
0000
0000
0000
0100
0000
0010
0000
0110
0000
1000
0001
0010
0000
0000
0000
,
0210
2300
3002
0000
0103
0010
1000
0100
,
0010
0000
0100
0000
1000
0001
1000
0001
1000
0001
1000
0001
0100
0000
0000
0000
,
0110
0000
0000
0000
0001
0000
0100
0001
0010
0000
0110
0000
0000
0000
1100
0000
,
1000
0000
1010
0000
0000
0000
0010
0000
0100
0001
0100
0001
0010
0100
0010
0000
,
0001
0000
0100
0010
0100
0000
1000
0100
0010
0000
0110
0000
0000
0000
1010
0000
,
1000
0000
1001
0000
0000
0000
0001
0000
0010
1000
0010
0000
0100
0000
0010
0000
,
1001
0000
0000
0000
1000
0000
0010
1000
0100
0000
0110
0000
0000
0000
0011
0000
,
0001
0000
0101
0000
0000
0000
0100
0000
0010
1000
0010
1000
0100
0010
0100
0000
,
1000
0000
0010
0100
0010
0000
0001
0010
0100
0000
0110
0000
0000
0000
0101
0000
,
0001
0000
1001
0000
0000
0000
1000
0000
0100
0001
0100
0000
0010
0000
0100
0000
,
1001
0000
0001
0100
0002
0000
0103
1000
,
0200
0000
1300
0010
2000
0000
3010
0001
,
0020
0000
0000
0000
0031
0000
1000
0000
0001
0000
0000
0000
0100
0010
0100
0000
,
0010
0000
0000
0000
1000
0100
1000
0000
0100
0010
0100
0010
0001
0000
1000
0000
,
0001
0000
0100
0001
0020
0000
0130
1000
,
0020
0000
0130
0001
0100
1000
0100
0001
,
0010
0100
2000
0000
3001
0100
0010
0100
,
0001
0000
1000
0000
0100
0010
0100
0010
0100
0010
0100
0010
0002
0000
0000
0000
,
0000
0003
0000
0000
,
0000
0000
0000
0000
,
1001
0000
0000
0000
1000
0000
0010
1000
0100
0000
0110
0000
0000
0000
1001
0000
,
0001
0000
0101
0000
0000
0000
0100
0000
1000
0100
0001
0000
0010
0000
0100
0000
,
0110
0000
0000
0000
0001
0000
0100
0001
0010
0000
0110
0000
0000
0000
1001
0000
,
1000
0000
1010
0000
0000
0000
0010
0000
0100
0001
0100
1000
0100
0010
0100
0000
,
0001
0000
1000
0100
0010
0000
0100
0010
0001
0000
1001
0000
0000
0000
1010
0000
,
0010
0000
0110
0000
0000
0000
0100
0001
0010
0000
0100
1000
0010
0000
0100
0000
,
0001
0000
1001
0000
0000
0000
1000
0100
0001
0000
0100
0010
0001
0000
1000
0000
,
0010
0000
1010
0000
0000
0000
0010
1000
0100
0000
0010
0000
0110
0000
0000
0000
;

//---------------dance-single - Talkion-BSP----------------
#NOTES:
     dance-single:
     Talkion:
     Easy:
     6:
     0.225299,0.294714,0.149780,0.361233,0,179,162,17,41,0,0,0.225299,0.294714,0.149780,0.361233,0,179,162,17,41,0,0:
// measure 0
0000
0000
0000
0000
,  // measure 1
0000
0000
0000
0000
,  // measure 2
0000
0000
0000
0000
,  // measure 3
0000
0000
0000
0000
,  // measure 4
0000
0000
0000
0000
,  // measure 5
0000
0000
0000
0000
,  // measure 6
1000
0000
0010
2000
0000
0000
3001
0000
,  // measure 7
0010
0010
2002
3003
,  // measure 8
0001
0000
0100
0002
0000
0000
1003
0000
,  // measure 9
0100
0100
2002
3003
,  // measure 10
1000
0000
0010
0200
0000
0000
0310
0000
,  // measure 11
1000
1000
0220
0330
,  // measure 12
0001
0000
0010
0200
0000
0000
0310
0000
,  // measure 13
0001
0001
0220
0330
,  // measure 14
0000
2000
0000
3200
,  // measure 15
0000
0320
0001
0032
,  // measure 16
0000
2003
0000
3020
,  // measure 17
0000
0230
0001
0302
,  // measure 18
0000
1003
1000
0100
,  // measure 19
0100
0010
0010
0001
,  // measure 20
0001
0200
0000
0010
,  // measure 21
0010
0020
0000
0330
,  // measure 22
0000
1000
0100
1000
,  // measure 23
1000
0001
0100
0001
,  // measure 24
0001
1000
0100
0001
,  // measure 25
0001
0100
0010
0100
,  // measure 26
0000
0100
1000
0010
,  // measure 27
0010
0100
0001
0010
,  // measure 28
0010
0200
0000
1000
,  // measure 29
1000
2300
0000
3001
,  // measure 30
0000
0000
0001
0100
0001
0200
0000
0000
,  // measure 31
0310
1000
0100
1100
,  // measure 32
0000
0000
1000
0010
1000
0020
0000
0000
,  // measure 33
0130
0001
0010
0011
,  // measure 34
0000
0000
0001
1000
0001
2000
0000
0000
,  // measure 35
3010
0100
0010
0110
,  // measure 36
0000
0000
0100
0001
0100
0002
0000
0000
,  // measure 37
0013
0100
1000
1001
,  // measure 38
0000
0002
0000
0203
,  // measure 39
0000
2300
0000
3200
,  // measure 40
0000
0302
0000
2003
,  // measure 41
0000
3200
0000
0320
,  // measure 42
0000
0031
1000
0001
,  // measure 43
0001
0100
0010
0100
,  // measure 44
0100
0002
0000
1000
,  // measure 45
1000
2003
0000
3100
,  // measure 46
0000
0000
0000
0000
,  // measure 47
0000
0000
0000
0000
,  // measure 48
0110
0000
0001
1000
0001
2000
0000
0000
,  // measure 49
3010
0100
0010
0110
,  // measure 50
0000
0000
0010
1000
0010
2000
0000
0000
,  // measure 51
3100
0010
0001
1001
,  // measure 52
0000
0000
0001
0100
0001
0200
0000
0000
,  // measure 53
0010
0310
0000
0000
1001
0000
0110
0000
,  // measure 54
0000
1100
0000
0000
0010
0000
0011
0000
,  // measure 55
0000
0101
0000
0000
0010
0000
1010
0000
;

//---------------dance-double - Talkion-BDP----------------
#NOTES:
     dance-double:
     Talkion:
     Easy:
     6:
     0.226558,0.343833,0.167401,0.361233,0,180,161,19,41,0,0,0.226558,0.343833,0.167401,0.361233,0,180,161,19,41,0,0:
00000000
00000000
00000000
00000000
,
00000000
00000000
00000000
00000000
,
00000000
00000000
00000000
00000000
,
00000000
00000000
00000000
00000000
,
00000000
00000000
00000000
00000000
,
00000000
00000000
00000000
00000000
,
00001000
00000000
00010000
00002000
00000000
00000000
00003010
00000000
,
00000100
00000100
00002002
00003003
,
00000001
00000000
00001000
00000002
00000000
00000000
00000013
00000000
,
00001000
00001000
00022000
00033000
,
00010000
00000000
00001000
00020000
00000000
00000000
00130000
00000000
,
01000000
01000000
20020000
30030000
,
10000000
00000000
00010000
20000000
00000000
00000000
30100000
00000000
,
00010000
00010000
00022000
00033000
,
00000000
00020000
00000000
00030200
,
00000000
00000320
00000000
00000032
,
00000000
00000203
00000000
00000320
,
00000000
00020030
00000000
00032000
,
00000000
00103000
00100000
01000000
,
01000000
10000000
10000000
00010000
,
00010000
02000000
00000000
00100000
,
00100000
00200000
00000000
03300000
,
00000000
10000000
01000000
00010000
,
00010000
00001000
00000010
00000001
,
00000001
00001000
00000010
00000100
,
00000100
00001000
00010000
00001000
,
00000000
00001000
00010000
01000000
,
01000000
00100000
00010000
10000000
,
10000000
00200000
00000000
01000000
,
00000000
00320000
00000000
00031000
,
00000000
00000000
00010000
00000100
00010000
00000200
00000000
00000000
,
00000310
00000100
00010000
00011000
,
00000000
00000000
00001000
01000000
00001000
02000000
00000000
00000000
,
03100000
01000000
00001000
00011000
,
00000000
00000000
00001000
00000010
00001000
00000020
00000000
00000000
,
00000031
00001000
00000010
00000110
,
00000000
00000000
00000100
00001000
00000100
00002000
00000000
00000000
,
00013000
01000000
00100000
01100000
,
00000000
20000000
00000000
30200000
,
00000000
02300000
00000000
03020000
,
00000000
00032000
00000000
00003020
,
00000000
00000230
00000000
00000302
,
00000000
00001003
00000100
00001000
,
00001000
00010000
01000000
00010000
,
00010000
00002000
00000000
00000100
,
00000100
00003200
00000000
00000310
,
00000000
00000000
00000000
00000000
,
00000000
00000000
00000000
00000000
,
00000110
00000000
00000001
00000100
00000010
00002000
00000000
00000000
,
00003100
00010000
00001000
00100000
,
00110000
00000000
10000000
00100000
01000000
00020000
00000000
00000000
,
00130000
00001000
00010000
00000100
,
00001100
00000000
00000001
00000100
00001000
00020000
00000000
00000000
,
00001000
00031000
00000000
00000000
00011000
00000000
00101000
00000000
,
00000000
00110000
00000000
00000000
01100000
00000000
10010000
00000000
,
00000000
10100000
00000000
00000000
01100000
00000000
10010000
00000000
;

//---------------dance-double - Talkion-DDP----------------
#NOTES:
     dance-double:
     Talkion:
     Medium:
     9:
     0.352423,0.417511,0.176211,0.405286,0.022026,280,260,20,46,0,0,0.352423,0.417511,0.176211,0.405286,0.022026,280,260,20,46,0,0:
00000000
00000000
00000000
00000000
,
00000000
00000000
00000000
00000000
,
00000000
00000000
00000000
00000000
,
00000000
00000000
00000000
00000000
,
00000000
00000000
00000000
00000000
,
00000000
00000000
00000000
00000000
00000000
00000000
00020000
00032000
,
00003100
00000001
00000010
00000100
00000000
00000100
00010000
00001000
,
00000000
00000000
00001000
00000000
00010000
00000000
00100000
00000000
00200000
00000000
00000000
00000000
00300000
00000000
01000000
00010000
,
01000000
00010000
00100000
01000000
00000000
01000000
00010000
00001000
,
00000000
00001000
00010000
00000100
00001000
00000000
00001001
00000000
,
00000010
00000001
00000100
00000010
00000000
00000010
00010000
00001000
,
00000000
00000000
00001000
00000000
00010000
00000000
01000000
00000000
02000000
00000000
00000000
00000000
03000000
00000000
00100000
00010000
,
00100000
00010000
01000000
00100000
00000000
00100000
00010000
00001000
,
00000000
00001000
00000010
00000001
00000100
00000000
00000110
00000000
,
00000000
00000002
00000010
00002003
,
00000000
00023000
02030000
03200000
,
00000000
20300000
01000000
30020000
,
00000000
00032000
00003020
00000230
,
00000000
00000000
00000301
00000000
00000001
00000000
00000010
00000100
,
00001000
00000000
00010000
00000000
00010000
00000000
00100000
01000000
,
20000000
00000000
00010000
00000000
00000000
00000000
31000000
00100000
,
00001000
00010000
00002000
00000000
00000000
00000000
00003000
00000000
,
00000200
00000000
00000301
00001000
00000001
00000000
00000010
00001000
,
00010000
00000000
00001000
00010000
00001000
00010000
00100000
10000000
,
01000000
00000000
10000000
00010000
10000000
00000000
00100000
00010000
,
00001000
00000000
00010000
00000100
00010000
00000100
00001000
00000000
,
00001001
00000000
00000001
00000100
00001000
00000000
00010000
00001000
,
00010000
00000000
00001000
00010000
00001000
00010000
02000000
00000000
,
13000000
00010000
02000000
00000000
00000000
10000000
00000000
03010000
,
00100000
00001000
00020000
00000000
00000000
00000000
00031000
00000000
,
00011000
00000000
00000100
00001000
00000010
00000110
00000000
00000100
,
00001000
00010000
00000000
00010000
01000000
00100000
00200000
00000000
,
00300000
00000000
00010000
10000000
00010000
00000000
01000000
00000000
00100000
00000000
01100000
00000000
00000000
00000000
00100000
00000000
,
00010000
00001000
00000000
00001000
00000010
00000001
00000100
00000000
,
00000110
00000000
00000010
00001000
00000100
00000110
00000000
00000010
,
00001000
00010000
00000000
00010000
00100000
01000000
02000000
00000000
,
03000000
00000000
00010000
10000000
00010000
00000000
00100000
00000000
01000000
00000000
01100000
00000000
00000000
00000000
00100000
00000000
,
00010000
00001000
00000000
00001000
00010000
00100000
01000000
00000000
,
10010000
20000000
30200000
00320000
,
00030020
00002030
00003200
00000320
,
00000032
00000203
00002300
02003000
,
03020000
00230000
02300000
23000000
,
30020000
00000000
00130000
00001000
00010000
00000000
00001000
00010000
,
00000100
00000000
00001000
00000001
00001000
00000010
00000100
00000000
,
00000010
00000100
00000002
00000000
00000000
00000010
00000000
00000103
,
00001000
00010000
00002000
00000000
00000000
00000000
00020000
00000000
,
00000000
00033000
00000000
00000000
,
00000000
00000000
00000000
00000000
,
00011000
00000000
00100000
00010000
01000000
01100000
00000000
00100000
,
00010000
00001000
00000000
00001000
00000010
00000001
00000100
00000000
,
00000110
00000000
00000100
00000001
00000010
00001010
00000000
00001000
,
00010000
00100000
00000000
00100000
10000000
01000000
02000000
00000000
,
03000000
00000000
00100000
00010000
00100000
00000000
00001000
00000000
00010000
00000000
00110000
00000000
00000000
00000000
00100000
00000000
,
00010000
00001000
00000000
00001000
00000010
00000001
00002002
00003003
,
00000000
00001100
00000000
00001000
00010000
00100000
00220000
00330000
,
00000000
10010000
00000000
10000000
00100000
00010000
00011000
00000000
;

//---------------dance-double - Talkion-EDP----------------
#NOTES:
     dance-double:
     Talkion:
     Hard:
     13:
     0.513531,0.589427,0.422908,0.255507,0.259912,408,360,48,29,0,0,0.513531,0.589427,0.422908,0.255507,0.259912,408,360,48,29,0,0:
00000000
00000000
00000000
00000000
,
00000000
00000000
00000000
00000000
,
00000000
00000000
00000000
00000000
,
00000000
00000000
00000000
00000000
,
00000000
00000000
00000000
00000000
,
00000000
00000000
00000000
00000000
00000000
00000000
00002000
00023000
,
01030000
00000000
10000000
00010000
10000000
00000000
01100000
00000000
00000000
00000000
00110000
00000000
00001000
00000000
00011000
00000000
,
00000000
00000000
00000100
00000000
00001000
00000001
00001000
00000001
00000100
00000010
00000100
00000000
00001000
00000000
00010000
00001000
,
00000100
00000000
00000001
00001000
00000001
00000000
00000110
00000000
00000000
00000000
00010010
00000000
00010000
00000000
00011000
00000000
,
00000000
00000000
00100000
00000000
00010000
01000000
00100000
00000000
01000000
00000000
00100000
00000000
10010000
00000000
00000000
00000000
,
10000000
00000000
01000000
00100000
01000000
00000000
10010000
00000000
00000000
00000000
01001000
00000000
00001000
00000000
00011000
00000000
,
00000000
00000000
00000100
00000000
00001000
00000010
00001000
00000010
00000100
00000001
00000100
00000000
00001000
00000000
00010000
00001000
,
00000010
00000000
00000100
00000010
00000100
00000000
00001001
00000000
00000000
00000000
00010100
00000000
00010000
00000000
00011000
00000000
,
00000000
00000000
00100000
00000000
00010000
01000000
00100000
00000000
01000000
00000000
00100000
00000000
10010000
00000000
00000000
00000000
,
00000000
00000002
00000010
00002003
,
00000000
00000000
00103000
10000000
01000000
00100000
00020000
00000000
,
00000000
20030000
00100000
30020000
,
00000000
00030020
00000032
00002003
,
00000000
00000000
00013000
01000000
00100000
00000000
00001000
00000100
,
00000010
00000000
00010000
01000000
00100000
00000000
00001000
00000100
,
00000010
00000000
00002000
00000000
00023000
00000000
00130000
10000000
,
01000000
10000000
00200000
00000000
00000000
00000000
00300000
00000000
,
00200000
00000000
00000000
00000000
00310000
00000000
00001000
00000000
00002000
00003000
00010000
00001000
00000100
00000000
00000010
00000000
,
00000010
00000000
00000000
00000000
00000100
00000000
00000010
00000000
00000110
00000000
00000001
00001000
00000100
00000000
00000000
00000000
,
00011000
00000000
00000000
00000000
00001000
00000000
00010000
00000000
00010000
00000000
00001000
00010000
01000000
00000000
00100000
00000000
,
00100000
00000000
00000000
00000000
00010000
10000000
00010000
10000000
00010000
10000000
00010000
10000000
00100000
00000000
00000000
00000000
,
01100000
00000000
00000000
00000000
00010000
00000000
00100000
00000000
00200000
00300000
00001000
00010000
00100000
00000000
00010000
00000000
,
00010000
00000000
00000000
00000000
00000100
00000000
00000010
00000000
00000110
00000000
00000001
00001000
00000010
00000000
00000000
00000000
,
00000210
00000302
00000023
00000000
00001030
00100000
00001000
00000010
,
00000001
00000000
00000100
00000000
00001000
00010000
00001000
00010000
00001000
00010000
00001000
00100000
00010000
00000000
00000000
00000000
,
10010000
00000000
00000000
00000000
10000000
00000000
01000000
00100000
00010000
00000000
00110000
00000000
00000000
00000000
00101000
00000000
,
00001000
00000000
00011000
00000000
00000000
00000000
00000100
00000000
00001000
00000001
00001000
00000001
00000100
00001000
00010000
00000000
,
00001000
00000000
00010000
00001000
00000100
00000000
00000010
00001000
00000100
00000000
00001100
00000000
00000000
00000000
00010100
00000000
,
00010000
00000000
00011000
00000000
00000000
00000000
00010000
00000000
01000000
00100000
01000000
00000000
10000000
00000000
00010000
00000000
,
10010000
00000000
00000000
00000000
10000000
00000000
00100000
00010000
00001000
00000000
00011000
00000000
00000000
00000000
00010010
00000000
,
00010000
00000000
00011000
00000000
00000000
00000000
00100000
00000000
00001000
00010000
00001000
00010000
00000100
00001000
00000010
00000000
,
00001000
00000000
00010000
00001000
00000010
00000000
00001000
00000100
00010000
00000000
00011000
00000000
00000000
00000000
01001000
00000000
,
00001000
00000000
00011000
00000000
00000000
00000000
00010000
00000000
01000000
00100000
01000000
00000000
10000000
00000000
00010000
00000000
,
10010000
00000000
10000000
00100000
00020000
00000000
00031000
00000010
,
00000002
00000000
00001003
00000100
00000002
00000000
00001003
00010000
,
00002000
00000000
00013000
00100000
20000000
00000000
30010000
01000000
,
20000000
00000000
00000000
00000000
30010000
00000000
00001000
00000000
00010000
00001000
00010000
00001000
00010000
00000000
00000100
00000000
,
00001000
00000000
00000001
00000010
00000200
00000000
00010300
00100000
,
02000000
00000000
03001000
00010000
00001000
00000100
00001000
00010000
,
00001000
00000010
00000002
00000000
00000103
00001000
00010000
00100000
,
10000000
00000000
00010000
00000000
10000000
01000000
10000000
01000000
10000000
01000000
10000000
01000000
00200000
00000000
00000000
00000000
,
00000000
00300000
00000000
00000000
,
00000000
00000000
00000000
00000000
,
00000110
00000000
00000000
00000000
00000001
00000000
00000010
00001000
00010000
00000000
00011000
00000000
00000000
00000000
00110000
00000000
,
00100000
00000000
10100000
00000000
00000000
00000000
10000000
00000000
00010000
00100000
01000000
00000000
00010000
00000000
00001000
00000000
,
00011000
00000000
00000000
00000000
00001000
00000000
00010000
00001000
00000100
00000000
00000110
00000000
00000000
00000000
00000101
00000000
,
00000100
00000000
00001100
00000000
00000000
00000000
00001000
00000000
00010000
01000000
00100000
00010000
10000000
00100000
01000000
00000000
,
10000000
00000000
01000000
00100000
10000000
00000000
01000000
00010000
00001000
00000000
00011000
00000000
00000000
00000000
00001100
00000000
,
00000100
00000000
00000101
00000000
00000000
00000000
00000001
00000000
00001000
00000100
00000010
00000000
00001000
00000000
00100000
00000000
,
01000000
00000000
01100000
00000000
00000000
00000000
10000000
00000000
00010000
01000000
00100000
00000000
00001000
00000000
00000010
00000000
,
00000100
00000000
00000110
00000000
00000000
00000000
00000001
00000010
00000100
00010000
00001000
00000000
00011000
00000000
00000000
00000000
;
