#TITLE:Timepiece phase II;
#ARTIST:佐々木博史;
#ARTISTTRANSLIT:Hirofumi Sasaki;
#BANNER:Timepiece phase II.png;
#BACKGROUND:Timepiece phase II-bg.png;
#MUSIC:Timepiece phase II.ogg;
#SAMPLESTART:39.291;
#SAMPLELENGTH:15;
#DISPLAYBPM:287;
#BPMS:0=287,460=286.437,460.25=285.322,460.5=284.197,460.75=283.072,461=281.947,461.25=280.823,461.5=279.697,461.75=278.572,462=277.448,462.25=276.322,462.5=275.197,462.75=274.073,463=272.947,463.25=271.822,463.5=270.697,463.75=269.572,464=268.447,464.25=267.322,464.5=266.197,464.75=265.072,465=263.947,465.25=262.822,465.5=261.697,465.75=260.572,466=259.447,466.25=258.322,466.5=257.197,466.75=256.072,467=254.947,467.25=253.822,467.5=252.696,467.75=251.567,468=247.516,468.25=240.635,468.5=233.698,468.75=226.759,469=219.821,469.25=212.883,469.5=205.945,469.75=199.007,470=192.068,470.25=185.13,470.5=178.192,470.75=171.253,471=164.315,471.25=157.376,471.5=150.438,471.75=143.469,472=140;
#BGCHANGES:-1.5=Timepiece phase II.avi=1=0=0=0=StretchNoLoop====,99999=-nosongbg-=1=0=0=0 // don't automatically add -songbackground-;

//---------------dance-single - Nitrospan & RGTM-bSP----------------
#NOTES:
     dance-single:
     Nitrospan & RGTM:
     Beginner:
     6:
     :
0000
0000
0000
0000
,
0000
0000
0000
0000
,
0000
0000
0000
0000
,
0000
0000
0000
0000
,
0000
0000
0000
0000
,
0000
0000
0000
0000
,
0000
0000
0000
0000
,
0000
0000
0000
0000
,
1000
0000
0000
0000
,
0001
0000
0000
0000
,
0100
0000
0000
0000
,
0010
0000
0000
0000
,
1001
0000
0000
0000
,
0000
0000
0000
0000
,
0000
0000
0000
0000
,
0001
0000
0100
0000
,
0001
0000
0100
0000
,
0010
0000
1000
0000
,
0010
0000
1000
0000
,
0100
0000
0010
0000
,
0001
0000
0100
0000
,
0010
0000
1000
0000
,
0001
0000
0000
0000
,
1000
0000
0100
0000
,
1000
0000
0100
0000
,
0010
0000
0001
0000
,
0010
0000
0001
0000
,
0100
0000
0010
0000
,
1000
0000
0001
0000
,
0100
0000
0010
0000
,
1000
0000
0000
0000
,
1001
0000
0010
0000
,
0001
0000
0100
0000
,
1000
0000
0010
0000
,
0100
0000
0000
0000
,
0001
0000
0010
0000
,
1000
0000
0100
0000
,
0001
0000
0010
0000
,
0100
0000
1000
0000
,
0010
0000
0001
0000
,
0100
0000
1000
0000
,
0010
0000
0100
0000
,
0001
0000
0000
0000
,
0010
0000
1000
0000
,
0100
0000
0001
0000
,
0010
0000
0100
0000
,
1000
0000
0001
0000
,
0100
0000
0001
0000
,
0100
0000
0001
0000
,
1000
0000
0010
0000
,
1000
0000
0010
0000
,
1000
0000
0100
0000
,
0010
0000
0001
0000
,
0010
0000
0100
0000
,
1000
0000
0000
0000
,
0001
0000
0010
0000
,
0001
0000
0010
0000
,
0100
0000
1000
0000
,
0100
0000
1000
0000
,
0010
0000
0100
0000
,
0001
0000
0010
0000
,
0100
0000
1000
0000
,
0010
0000
0100
0000
,
1001
0000
0000
0000
,
0000
0000
0010
0000
,
0110
0000
0000
0000
,
0000
0000
0100
0000
,
1001
0000
0000
0000
,
0110
0000
0000
0000
,
1001
0000
0000
0000
,
0100
0000
0010
0000
,
1001
0000
0000
0000
,
0000
0000
0010
0000
,
0110
0000
0000
0000
,
0000
0000
0100
0000
,
1001
0000
0000
0000
,
0110
0000
0010
0000
,
0200
0000
0000
0000
,
0000
0000
0300
0000
,
0010
0000
1000
0000
,
0010
0000
0100
0000
,
0001
0000
0100
0000
,
0001
0000
0010
0000
,
0001
0000
0100
0000
,
0010
0000
1000
0000
,
0001
0000
0010
0000
,
0100
0000
0000
0000
,
1000
0000
0100
0000
,
1000
0000
0001
0000
,
0100
0000
0001
0000
,
1000
0000
0010
0000
,
1000
0000
0100
0000
,
0010
0000
0001
0000
,
2002
0000
0000
0000
,
0000
0000
3003
0000
,
0001
0000
0010
0000
,
0001
0000
0010
0000
,
0100
0000
1000
0000
,
0100
0000
1000
0000
,
0010
0000
0100
0000
,
0001
0000
1000
0000
,
0100
0000
0010
0000
,
0001
0000
0000
0000
,
0100
0000
0001
0000
,
0100
0000
0001
0000
,
1000
0000
0010
0000
,
1000
0000
0010
0000
,
0100
0000
0001
0000
,
0010
0000
0100
0000
,
1000
0000
0001
0000
,
0100
0000
0000
0000
,
0010
0000
0010
0000
,
1000
0000
1000
0000
,
0001
0000
0001
0000
,
0100
0000
0100
0000
,
0010
0000
0000
0000
,
1000
0000
0000
0000
,
0100
0000
0000
0000
,
0010
0000
0000
0000
;

//---------------dance-single - Nitrospan & RGTM-BSP----------------
#NOTES:
     dance-single:
     Nitrospan & RGTM:
     Easy:
     10:
     :
0000
0000
0000
0000
,
0000
0000
0000
0000
,
0000
0000
0000
0000
,
0000
0000
0000
0000
,
0000
0000
0000
0000
,
0000
0000
0000
0000
,
0000
0000
0000
0000
,
0000
0000
0000
0000
,
1000
0000
0001
0000
,
1001
0000
0000
0000
,
0001
0000
1000
0000
,
1001
0000
0000
0000
,
0110
0000
0000
0000
,
0000
0000
0000
0000
,
0000
0000
0000
0000
,
1001
0000
1000
0000
,
0100
0000
1000
0010
,
0100
0000
0001
0000
,
0100
0000
0010
1000
,
0001
0000
0010
0001
,
0100
0000
0010
1000
,
0100
0000
0010
0000
,
0001
0000
0000
0000
,
0110
0000
1000
0000
,
0010
0000
0100
0001
,
1000
0000
0100
0000
,
0010
0000
0001
0100
,
0010
0000
1000
0001
,
0010
0000
0100
1000
,
0010
0000
0100
0000
,
0001
0000
1000
0000
,
0001
0010
0100
0010
,
0001
0000
0100
0000
,
0010
1000
0100
1000
,
0010
0000
0100
0000
,
0001
1000
0100
0010
,
0001
0000
0100
0000
,
0010
1000
0001
0100
,
0010
0000
1001
0000
,
0001
0010
0100
1000
,
0010
0000
0100
0000
,
0001
0100
0010
1000
,
0100
0000
0010
0000
,
0001
0010
0100
1000
,
0001
0000
1000
0000
,
0010
0100
0010
0100
,
0001
0000
1000
0000
,
1001
0000
0100
0000
,
0010
0000
1000
0100
,
0010
0000
0001
0000
,
0010
0000
0100
1000
,
0001
0000
0100
0001
,
0010
0000
0100
1000
,
0010
0000
0100
0000
,
0001
1000
0001
0000
,
0110
0000
1000
0000
,
0100
0000
0010
0001
,
1000
0000
0010
0000
,
0100
0000
0001
0010
,
0100
0000
1000
0001
,
0100
0000
0010
1000
,
0100
0100
0010
0010
,
0001
0001
1000
0000
,
2002
3003
0000
0000
,
0000
0000
2020
3030
,
2200
0000
0000
3300
0000
0000
0000
0000
,
0000
0000
0022
0033
,
0202
0303
0000
0000
,
0220
0330
0000
0000
,
2002
3003
0000
0000
,
1000
0001
1000
0000
,
2002
3003
0000
0000
,
0000
0000
2020
3030
,
0202
0303
0000
0000
,
0000
0000
0022
0033
,
2200
3300
0000
0000
,
2001
0000
3001
0000
,
0220
0000
0000
0000
,
0000
0000
0330
0000
,
0001
0010
0001
0000
,
1000
0010
1000
0000
,
0001
0100
0001
0000
,
1000
0100
1000
0000
,
0002
0000
0023
0000
,
0230
0000
1300
2000
,
0000
3001
0100
0001
,
0100
0000
0010
0000
,
1000
0100
1000
0010
,
1000
0000
0100
0000
,
0010
0001
0100
0001
,
0010
0000
0100
0000
,
1000
0010
1000
0000
,
0001
0100
0001
0000
,
1000
0001
1000
0001
,
0010
0000
0100
0000
,
1001
0000
0001
0000
,
0010
0000
0001
0100
,
0010
0000
1000
0000
,
0010
0000
0100
0001
,
1000
0000
0100
1000
,
0010
0000
0100
0001
,
0010
0000
0100
0000
,
1000
0001
1000
0000
,
0110
0000
0001
0000
,
0100
0000
0010
1000
,
0001
0000
0010
0000
,
0100
0000
1000
0010
,
0100
0000
0001
1000
,
0100
0000
0010
0001
,
0100
0100
0010
0010
,
1000
1000
0001
0000
,
0011
0000
0001
0000
,
0101
0000
0100
0000
,
0110
0000
0010
0000
,
1010
0000
1000
0000
,
0100
0010
0100
0010
,
0001
1000
0001
1000
,
0010
0100
0001
1000
,
0200
0000
0000
0000
,
0000
0000
0000
0000
,
0000
0000
0000
0000
,
0300
0000
0000
0000
;

//---------------dance-single - Nitrospan & RGTM-DSP----------------
#NOTES:
     dance-single:
     Nitrospan & RGTM:
     Medium:
     13:
     :
0000
0000
0000
0000
,
0000
0000
0000
0000
,
0000
0000
0000
0000
,
0000
0000
0000
0000
,
0000
0000
0000
0000
,
0000
0000
0000
0000
,
0000
0000
0000
0000
,
0000
0000
0000
0000
,
0010
0000
0010
0000
,
1001
0000
0100
0000
,
0010
0000
0010
0000
,
1001
0000
0100
0000
,
0110
0000
0000
0000
,
0000
0000
0000
0000
,
0000
0000
0000
0000
,
1001
0000
1000
0001
0000
0000
0100
0000
,
0001
1000
0000
0000
0100
0000
1000
0000
,
0001
0000
0010
0001
0000
0000
1000
0000
,
0010
1000
0000
0000
0001
0000
0010
0000
,
0100
1000
0020
0130
,
2000
3100
0020
0130
,
0002
0013
0100
1000
,
0010
0000
0100
0000
0100
0010
0000
0000
,
1001
0000
0001
1000
0000
0000
0100
0000
,
0010
0001
0000
0000
1000
0000
0010
0000
,
0100
0000
0001
1000
0000
0000
0100
0000
,
1000
0010
0000
0000
0100
0000
0010
0000
,
1000
0100
0020
0130
,
0002
0103
2000
3010
,
0002
0013
2000
3001
,
0020
0030
1001
0000
,
1000
0010
0100
0000
0001
0000
1000
0000
,
0001
0100
1000
0100
,
0010
1000
0100
0010
,
0001
1000
0000
0000
0010
0000
0100
0000
,
0001
0010
0100
0000
1000
0000
0001
0000
,
1000
0100
0001
0100
,
0010
0001
1000
0010
,
0100
0010
0100
0000
0001
0100
0001
0000
,
1000
0100
0010
0000
0001
0000
1000
0000
,
0001
0010
1000
0010
,
0100
1000
0010
0100
,
0001
1000
0000
0000
0100
0000
0010
0000
,
0001
0100
0010
0000
1000
0000
0001
0000
,
0010
0100
1000
0010
,
0001
0000
0010
0000
1000
0000
0100
1000
,
0100
1000
0100
0000
0010
0100
0010
0000
,
1001
0000
0001
1000
0000
0000
0100
0000
,
1000
0001
0000
0000
0100
0000
0001
0000
,
1000
0000
0010
1000
0000
0000
0001
0000
,
0010
0001
0000
0000
1000
0000
0010
0000
,
0100
0001
0020
0130
,
0002
0103
0020
0130
,
2000
3010
0100
0001
,
0010
0001
0010
0000
0100
0000
0000
0000
,
1001
0000
1000
0001
0000
0000
1000
0000
,
0010
1000
0000
0000
0001
0000
0010
0000
,
0100
0000
1000
0001
0000
0000
0100
0000
,
0001
1000
0100
0010
,
0002
0103
0020
0130
,
2000
3100
0002
0013
,
0200
0000
1300
0100
1000
0000
0100
0010
,
0100
0000
0010
0001
0010
0000
0001
0000
,
2002
3003
0000
0000
,
0000
0000
0220
0330
,
2002
3003
0000
0000
,
0000
0000
0022
0033
,
2200
3300
0000
0000
,
0202
0303
0000
0000
,
0220
0330
0000
0000
,
0010
1000
0001
0000
,
2002
3003
0000
0000
,
0000
0000
2200
3300
,
0022
0033
0000
0000
,
0000
0000
0202
0303
,
2020
3030
0000
0000
,
0120
0000
0130
0000
,
2002
0000
3003
0000
,
0010
0000
0000
0010
0000
0000
0010
0000
,
1001
0000
0001
0000
1000
0001
0000
0010
,
0000
0010
0000
0100
0000
0000
1000
0000
,
0001
0000
1000
0000
0010
0100
0000
0010
,
1000
0000
1000
0001
0000
0000
0001
0000
,
0020
0000
0230
0000
,
2300
0000
3002
0203
,
0000
0310
1000
0001
,
0100
0001
1000
0010
,
1000
0000
0100
1000
0000
0100
1000
0000
,
0001
0100
0001
1000
,
0100
0010
0000
0001
0010
0001
0000
1000
,
0001
0000
0000
0001
1000
0000
0000
0000
,
0010
0000
1000
0001
1000
0000
0001
0000
,
0010
0001
0010
0000
0100
0000
1000
0000
,
0001
1000
0001
1000
0001
0000
0100
0010
,
0000
0010
1000
0010
1000
0010
1000
0000
,
1001
0000
0001
1000
0000
0000
0010
0000
,
1000
0001
0000
0000
0010
0000
0001
0000
,
1000
0000
0100
1000
0000
0000
0001
0000
,
0100
0001
0000
0000
1000
0000
0100
0000
,
0010
0001
0200
0310
,
0002
0013
0200
0310
,
2000
3001
0010
0100
,
0020
0031
0100
0010
,
1001
0000
1000
0001
0000
0000
1000
0000
,
0100
1000
0000
0000
0001
0000
0100
0000
,
0010
0000
1000
0001
0000
0000
0010
0000
,
0001
1000
0000
0000
0010
0000
0100
0000
,
0001
0000
0010
0000
0010
0100
0000
0000
,
1000
0000
1000
0001
0000
0000
0100
0000
,
0100
0010
0000
0010
1000
0000
0001
1000
,
0001
0010
0100
1000
,
1001
0000
0101
0000
,
1100
0000
1001
0000
,
0011
0000
1010
0000
,
0110
0000
1001
0000
,
0001
0010
0100
1000
,
0010
0100
0001
1000
,
0001
0010
0100
1000
0010
0100
0001
1000
,
0200
0000
0000
0000
,
0000
0000
0000
0000
,
0000
0000
0000
0000
,
0300
0000
0000
0000
;

//---------------dance-single - Nitrospan & RGTM-ESP----------------
#NOTES:
     dance-single:
     Nitrospan & RGTM:
     Hard:
     17:
     :
0000
0000
0000
0000
,
0000
0000
0000
0000
,
0000
0000
0000
0000
,
0000
0000
0000
0000
,
0000
0000
0000
0000
,
0000
0000
0000
0000
,
0000
0000
0000
0000
,
0000
0000
0000
0000
,
1000
0000
1000
0000
,
0110
0000
1000
0000
,
0001
0000
0001
0000
,
0110
0000
1000
0000
,
0110
0000
0000
0000
,
0000
0000
0000
0000
,
0000
0000
0000
0000
,
1001
0000
1000
0100
0000
0100
0001
0000
,
1000
0010
0000
0100
0001
1000
0100
0000
,
0010
0000
0001
0100
0000
0100
1000
0000
,
0001
0010
0000
0100
1000
0001
0100
0000
,
0001
0000
1000
0100
0000
0100
0001
0000
,
1000
0010
0000
0100
0001
0010
0100
0000
,
1000
0000
1000
0100
0000
0100
0001
0000
,
0001
0100
0000
0100
1000
0010
1000
0001
,
0100
0000
0001
0010
0000
0010
1000
0000
,
0001
0010
0000
0100
1000
0001
0100
0000
,
0001
0000
1000
0010
0000
0010
0001
0000
,
1000
0010
0000
0100
0001
1000
0100
0000
,
0010
0000
0001
0010
0000
0010
1000
0000
,
0001
0100
0000
0010
1000
0001
1000
0100
,
0010
0000
0001
0010
0001
0000
1000
0010
,
1000
0000
0001
1000
0100
0010
0100
0010
,
1000
0010
0001
1000
0100
0010
0001
1000
,
0001
0100
0010
0100
0001
1000
0010
0001
,
0010
0100
0001
1000
0001
0010
0100
0010
,
0001
1000
0100
0010
0001
1000
0010
0100
,
1000
0100
0001
1000
0010
0100
0001
1000
,
0001
0010
0100
0010
0001
1000
0100
0001
,
0100
0010
0001
1000
0001
0100
0010
0100
,
0001
1000
0010
0100
0001
1000
0100
0010
,
1000
0010
0001
0100
0010
1000
0001
0010
,
0100
0010
0001
1000
0001
0100
0010
0001
,
0010
1000
0001
1000
0100
0010
0100
1000
,
0001
0010
0001
1000
0100
0010
0001
0100
,
1000
0100
0001
1000
0001
0010
0100
0001
,
0100
1000
0001
0100
0010
1000
0001
0010
,
0110
0000
1100
0000
1001
0000
0101
0001
,
1000
0010
0100
0001
0010
0100
1000
0001
,
1000
0100
1000
0010
0000
0010
0001
0000
,
1000
0100
0000
0100
0001
0010
0100
0000
,
0010
0001
0010
0100
0000
0100
0001
0000
,
1000
0100
0000
0100
0001
0010
0100
0000
,
1000
0010
1000
0100
0000
0100
0001
0000
,
0010
0100
0000
0100
0001
1000
0100
0000
,
0010
0000
0001
0100
0000
0100
1000
0000
,
0001
0010
0000
0010
1000
0100
1000
0001
,
0010
0001
1000
0100
0000
0100
0001
0000
,
1000
0010
0000
0010
0001
0100
0010
0000
,
0100
0010
1000
0100
0000
0100
0001
0000
,
0100
0010
0000
0010
0001
1000
0100
0000
,
1000
0010
1000
0100
0001
0000
0100
1000
,
0001
0010
0001
0100
1000
0000
0100
0001
,
1000
0000
0100
0010
0100
0010
0100
0010
,
0001
0010
0100
1000
0001
0100
0010
1000
,
2002
3003
0000
0000
,
0000
0000
2020
3030
,
0202
0303
0000
0000
,
0000
0000
2200
3300
,
2020
3030
0000
0000
,
2002
3003
0000
0000
,
0220
0330
0000
0000
,
1100
0101
1100
0000
,
2002
3003
0000
0000
,
0000
0000
0022
0033
,
2200
3300
0000
0000
,
0000
0000
0202
0303
,
0022
0033
0000
0000
,
2001
0000
3020
0000
,
0130
0010
0100
0010
0100
0010
0100
0010
0100
0010
0100
0010
,
1000
0001
1000
0001
1000
0001
1000
0001
1000
0001
1000
0001
,
1000
0000
0100
0000
1000
0100
0000
0010
,
0001
0000
0001
0010
0000
0100
1000
0000
,
0001
0000
0100
0000
0001
0100
0000
0010
,
1000
0000
0000
0000
0000
0000
1000
0000
0000
0010
0000
0000
0000
0000
0000
0000
0000
0000
0100
0000
0010
0000
0100
0000
,
0002
0000
0023
0000
,
0230
0000
2300
3002
,
0000
0013
0001
0100
,
0010
1000
0001
0010
,
0100
0010
0001
1000
0010
1000
0100
0010
,
0100
1000
0001
0100
0010
1000
0010
1000
,
0001
0010
0001
0100
0010
0100
0001
1000
,
0010
1000
0001
0010
0200
0000
0000
0000
,
1300
0000
0001
0010
0001
0000
0100
0000
,
0010
1000
0010
0100
0010
1000
0001
1000
,
0100
0010
0100
0010
0002
0000
1003
0001
,
0010
0100
1000
0001
0100
0010
1000
0001
,
0010
0001
0100
1000
0000
1000
0010
0000
,
1000
0100
0000
0100
0001
1000
0010
0100
,
0010
1000
0100
0001
0000
0001
0010
0000
,
0001
0100
0000
0100
1000
0001
1000
0010
,
0100
0001
0010
1000
0000
1000
0100
0000
,
1000
0010
0000
0010
0001
0100
0001
1000
,
0100
1000
0010
0001
0000
0001
0100
0010
,
1000
0000
0001
1000
0100
0000
0110
0000
,
0010
0001
0100
0001
0010
0001
0100
0010
,
1000
0100
0010
0100
1000
0100
0010
0001
,
1000
0010
0001
0010
1000
0100
1000
0001
,
0010
0001
0100
0010
1000
0100
0010
0001
,
0100
1000
0100
0010
1000
0001
0010
0100
,
1000
0010
0100
0001
1000
0001
0010
0100
,
1000
0010
0100
0001
0010
1000
0010
0001
,
0200
0000
0000
0300
,
0001
1000
0010
1000
0100
0000
0100
0001
,
0010
0000
0010
1000
0100
0000
0100
0001
,
0010
0000
0010
0001
0100
0000
0100
1000
,
0010
0000
0010
0001
0100
0000
0100
1000
,
0010
1000
0100
1000
0001
0100
0001
0010
,
0001
1000
0010
1000
0100
1000
0001
0100
,
0001
0010
1000
0010
0001
0100
1000
0100
,
0220
0000
0000
0000
,
0000
0000
0000
0000
,
0000
0000
0000
0000
,
0330
0000
0000
0000
;

//---------------dance-double - RGTM-BDP----------------
#NOTES:
     dance-double:
     RGTM:
     Easy:
     10:
     :
00000000
00000000
00000000
00000000
,
00000000
00000000
00000000
00000000
,
00000000
00000000
00000000
00000000
,
00000000
00000000
00000000
00000000
,
00000000
00000000
00000000
00000000
,
00000000
00000000
00000000
00000000
,
00000000
00000000
00000000
00000000
,
00000000
00000000
00000000
00000000
,
10000000
00000000
00010000
00000000
,
10010000
00000000
00000000
00000000
,
00100000
00000000
01000000
00000000
,
01100000
00000000
00000000
00000000
,
00011000
00000000
00000000
00000000
,
00000000
00000000
00000000
00000000
,
00000000
00000000
00000000
00000000
,
00011000
00000000
00010000
00000000
,
00000100
00000000
00000010
00000001
,
00000100
00000000
00000010
00000000
,
00000100
00000000
00000001
00001000
,
00000001
00000000
00000010
00000000
,
00000100
00000000
00010000
00001000
,
01000000
00000000
00100000
00000000
,
10000000
00000000
00000000
00000000
,
10010000
00000000
10000000
00000000
,
00100000
00000000
01000000
00001000
,
00010000
00000000
00000100
00000000
,
00001000
00000000
00000010
00001000
,
00000001
00000000
00000010
00000100
,
00010000
00000000
00001000
00100000
,
00010000
00000000
10000000
00000000
,
01000000
00000000
00010000
00000000
,
00001000
00010000
00001000
00010000
,
00000100
00000000
00000010
00000000
,
00000001
00000100
00000001
00000100
,
00000010
00000000
00010000
00000000
,
00001000
00010000
00001000
00010000
,
00100000
00000000
10000000
00000000
,
01000000
10000000
01000000
00000000
,
00100000
00001000
00001000
00000000
,
00010000
00001000
00010000
00001000
,
01000000
00000000
00100000
00000000
,
10000000
01000000
10000000
01000000
,
00100000
00000000
00001000
00000000
,
00010000
00001000
00010000
00000000
,
00000010
00001000
00000010
00000000
,
00000100
00000001
00000100
00000001
,
00001000
00000100
00010000
00000000
,
00011000
00000000
00001000
00000000
,
01000000
00000000
00100000
10000000
,
01000000
00000000
00100000
00000000
,
01000000
00000000
10000000
00010000
,
10000000
00000000
00100000
00000000
,
01000000
00000000
00001000
00010000
,
00000100
00000000
00000010
00000000
,
00000001
00000000
00001000
00000000
,
00001001
00000000
00000001
00000000
,
00000010
00000000
00000100
00010000
,
00001000
00000000
01000000
00000000
,
00010000
00000000
00100000
00000000
,
00010000
10000000
00100000
00000000
,
01000000
00001000
00010000
00000000
,
00000010
00001000
00000001
00000000
,
00000010
00000100
00010000
00000000
,
00022000
00033000
00000000
00000000
,
00000000
00000000
00220000
00330000
,
22000000
33000000
00000000
00000000
,
00000000
00000000
02020000
03030000
,
00022000
00033000
00000000
00000000
,
00002200
00003300
00000000
00000000
,
00000220
00000330
00000000
00000000
,
00000001
00001000
00000001
00000000
,
00002002
00003003
00000000
00000000
,
00000000
00000000
00000202
00000303
,
00002020
00003030
00000000
00000000
,
00000000
00000000
00022000
00033000
,
00220000
00330000
00000000
00000000
,
02100000
00000000
03100000
00000000
,
20020000
00000000
00000000
00000000
,
00000000
00000000
30030000
00000000
,
10000000
00100000
10000000
00000000
,
00010000
01000000
00010000
00000000
,
00100000
00001000
00100000
00000000
,
00000100
00010000
00000100
00000000
,
00002000
00000000
00003020
00000000
,
00000230
00000000
00000301
00000002
,
00000000
00000013
00000001
00000010
,
00000100
00000000
00010000
00000000
,
00001000
00010000
00001000
00100000
,
00010000
00000000
10000000
00000000
,
00100000
01000000
00010000
01000000
,
00100000
00000000
10000000
00000000
,
01000000
00100000
01000000
00000000
,
00100000
00001000
00100000
00000000
,
00001000
00010000
00001000
00010000
,
00000100
00000000
00000010
00000000
,
00001001
00000000
00000001
00000000
,
00000100
00000000
00000010
00001000
,
00000010
00000000
00010000
00000000
,
00001000
00000000
00100000
00000000
,
00010000
00000000
10000000
01000000
,
10000000
00000000
00010000
01000000
,
00010000
00000000
00100000
00000000
,
01000000
00000000
10000000
00010000
,
10000000
00000000
00100000
00000000
,
01000000
00000000
00001000
01000000
,
00001000
00000000
00010000
00000000
,
00000100
00000000
00000010
00000000
,
00000001
00000010
00000100
00000000
,
00000010
00000100
00010000
00000000
,
00001000
00001000
00100000
00100000
,
01000000
01000000
10000000
00000000
,
10010000
00000000
00100000
00000000
,
01100000
00000000
00001000
00000000
,
00011000
00000000
00000010
00000000
,
00000110
00000000
00000001
00000000
,
00000001
00000010
00000001
00001000
,
00000100
00010000
00001000
00100000
,
00010000
01000000
00100000
10000000
,
02000000
00000000
00000000
00000000
,
00000000
00000000
00000000
00000000
,
00000000
00000000
00000000
00000000
,
03000000
00000000
00000000
00000000
;

//---------------dance-double - RGTM-DDP----------------
#NOTES:
     dance-double:
     RGTM:
     Medium:
     13:
     :
00000000
00000000
00000000
00000000
,
00000000
00000000
00000000
00000000
,
00000000
00000000
00000000
00000000
,
00000000
00000000
00000000
00000000
,
00000000
00000000
00000000
00000000
,
00000000
00000000
00000000
00000000
,
00000000
00000000
00000000
00000000
,
00000000
00000000
00000000
00000000
,
10000000
00000000
00010000
00000000
,
01100000
00000000
00001000
00000000
,
00010000
00000000
00001000
00000000
,
00000110
00000000
00000001
00000000
,
00001001
00000000
00000000
00000000
,
00000000
00000000
00000000
00000000
,
00000000
00000000
00000000
00000000
,
00011000
00000000
00001000
00010000
00000000
00000000
00000100
00000000
,
00000010
00000001
00000000
00000000
00000100
00000000
00000010
00000000
,
00010000
00000000
00001000
00010000
00000000
00000000
00100000
00000000
,
01000000
00010000
00000000
00000000
10000000
00000000
01000000
00000000
,
00100000
00010000
20000000
30100000
,
02000000
03010000
00200000
00301000
,
00020000
00030100
00000010
00000001
,
00000100
00000000
00000010
00000000
00000010
00010000
00000000
00000000
,
00011000
00000000
00010000
00001000
00000000
00000000
01000000
00000000
,
00100000
10000000
00000000
00000000
01000000
00000000
00100000
00000000
,
00001000
00000000
00010000
00001000
00000000
00000000
00000010
00000000
,
00000100
00001000
00000000
00000000
00000001
00000000
00000100
00000000
,
00000010
00001000
00000002
00000013
,
00000200
00001300
00000020
00010030
,
00002000
01003000
00200000
10300000
,
02000000
03000000
00011000
00000000
,
00010000
00000010
00010000
00000000
00000010
00000000
00000100
00000000
,
00000001
00000010
00000100
00010000
,
00001000
01000000
00100000
10000000
,
00010000
00100000
00000000
00000000
01000000
00000000
00100000
00000000
,
00001000
00100000
00001000
00000000
00100000
00000000
01000000
00000000
,
10000000
00100000
01000000
00001000
,
00010000
00000100
00000010
00000001
,
00001000
00000100
00001000
00000000
00000100
00010000
00000100
00000000
,
00010000
00001000
00010000
00000000
00100000
00000000
01000000
00000000
,
00010000
00100000
01000000
10000000
,
00010000
01000000
00001000
00010000
,
00000100
00000010
00000000
00000000
00000001
00000000
00001000
00000000
,
00000001
00001000
00000001
00000000
00001000
00000000
00000100
00000000
,
00010000
00001000
00010000
00000000
00001000
00000000
01000000
00000000
,
00010000
00000000
10000000
00000000
00100000
00000000
01000000
00001000
,
01000000
00000000
00001000
00000000
00010000
00001000
00010000
00000000
,
00011000
00000000
00001000
00010000
00000000
00000000
00000010
00000000
,
00000100
00000001
00000000
00000000
00000010
00000000
00000100
00000000
,
00010000
00000000
00001000
00010000
00000000
00000000
01000000
00000000
,
00100000
00010000
00000000
00000000
10000000
00000000
00100000
00000000
,
01000000
00010000
20000000
31000000
,
00200000
00310000
02000000
03001000
,
00020000
00030010
00000100
00000001
,
00000010
00000100
00000010
00000000
00000100
00000000
00000000
00000000
,
00011000
00000000
00010000
00001000
00000000
00000000
00100000
00000000
,
01000000
10000000
00000000
00000000
00100000
00000000
01000000
00000000
,
00001000
00000000
00010000
00001000
00000000
00000000
00000100
00000000
,
00000010
00001000
00000000
00000000
00000001
00000000
00000010
00000000
,
00000200
00010300
00002000
00103000
,
00020000
01030000
00200000
10300000
,
00020000
00000000
10030000
01000000
10000000
00000000
01000000
00100000
,
01000000
00000000
00100000
00001000
00100000
00000000
00001000
00000000
,
00022000
00033000
00000000
00000000
,
00000000
00000000
00020020
00030030
,
00000202
00000303
00000000
00000000
,
00000000
00000000
00000022
00000033
,
00020200
00030300
00000000
00000000
,
02002000
03003000
00000000
00000000
,
22000000
33000000
00000000
00000000
,
00010000
01000000
00100000
00000000
,
20020000
30030000
00000000
00000000
,
00000000
00000000
20200000
30300000
,
02002000
03003000
00000000
00000000
,
00000000
00000000
00020200
00030300
,
00000022
00000033
00000000
00000000
,
00000120
00000000
00000130
00000000
,
00002002
00000000
00003003
00000000
,
00000010
00000000
00000000
00000010
00000000
00000000
00000010
00000000
,
00001001
00000000
00001000
00000000
00000001
00000100
00000000
00000010
,
00000000
00000000
00001000
00000010
00000000
00000000
00010000
00000000
,
00000010
00000000
00010000
00000000
00001000
00010000
00000000
00001000
,
01000000
00000000
00001000
01000000
00000000
00000000
01000000
00000000
,
00200000
00000000
20300000
00000000
,
30020000
00000000
20030000
32000000
,
00000000
03100000
00010000
10000000
,
00100000
01000000
00001000
00010000
,
00000100
00000000
00010000
00000100
00000000
00001000
00000100
00000000
,
00000010
00000001
00001000
00000000
,
00000001
00000100
00000000
00000100
00000010
00000000
00000000
00000010
,
00010000
00000000
00000000
00010000
00001000
00000000
00000000
00000000
,
00100000
00000000
00010000
00100000
00010000
00000000
10000000
00000000
,
00100000
10000000
00100000
00000000
01000000
00000000
00001000
00000000
,
00010000
00001000
00000010
00000001
,
00000100
00000000
00000010
00010000
00000010
00010000
00001000
00000000
,
00011000
00000000
00010000
00001000
00000000
00000000
01000000
00000000
,
00100000
10000000
00000000
00000000
01000000
00000000
00100000
00000000
,
00001000
00000000
00010000
00001000
00000000
00000000
00000010
00000000
,
00000100
00001000
00000000
00000000
00000001
00000000
00000100
00000000
,
00000010
00001000
00000002
00000013
,
00000200
00001300
00000020
00010030
,
00002000
01003000
00100000
10000000
,
02000000
03100000
00001000
00010000
,
00011000
00000000
00001000
00010000
00000000
00000000
00000100
00000000
,
00000010
00000001
00000000
00000000
00000100
00000000
00000010
00000000
,
00010000
00000000
00001000
00010000
00000000
00000000
00100000
00000000
,
01000000
00010000
00000000
00000000
10000000
00000000
01000000
00000000
,
00100000
00000000
00001000
00000000
00001000
00010000
00000000
00000000
,
00000100
00000000
00000100
00000010
00000000
00000000
00000001
00000000
,
00000001
00000100
00000000
00000100
00000010
00000000
00010000
00001000
,
00010000
00001000
01000000
00100000
,
10100000
00000000
00101000
00000000
,
00010010
00000000
00000011
00000000
,
00000101
00000000
00010100
00000000
,
01001000
00000000
11000000
00000000
,
10000000
00100000
00010000
00001000
,
00010000
00001000
00000010
00000001
,
00001000
00000010
00000100
00000001
00000010
00000100
00010000
00001000
,
02000000
00000000
00000000
00000000
,
00000000
00000000
00000000
00000000
,
00000000
00000000
00000000
00000000
,
03000000
00000000
00000000
00000000
;

//---------------dance-double - RGTM-EDP----------------
#NOTES:
     dance-double:
     RGTM:
     Hard:
     17:
     :
00000000
00000000
00000000
00000000
,
00000000
00000000
00000000
00000000
,
00000000
00000000
00000000
00000000
,
00000000
00000000
00000000
00000000
,
00000000
00000000
00000000
00000000
,
00000000
00000000
00000000
00000000
,
00000000
00000000
00000000
00000000
,
00000000
00000000
00000000
00000000
,
10000000
00000000
10000000
00000000
,
01100000
00000000
00010000
00000000
,
00001000
00000000
00001000
00000000
,
00000110
00000000
00000001
00000000
,
00000110
00000000
00000000
00000000
,
00000000
00000000
00000000
00000000
,
00000000
00000000
00000000
00000000
,
00001001
00000000
00000001
00000100
00000000
00000100
00001000
00000000
,
00001000
00010000
00000000
00010000
01000000
00100000
10000000
00000000
,
00010000
00000000
10000000
01000000
00000000
01000000
00010000
00000000
,
00010000
00001000
00000000
00001000
00000100
00000010
00000001
00000000
,
00001000
00000000
00000001
00000010
00000000
00000010
00001000
00000000
,
00001000
00010000
00000000
00010000
00100000
01000000
10000000
00000000
,
00010000
00000000
10000000
00100000
00000000
00100000
00010000
00000000
,
00010000
00001000
00000000
00001000
00000010
00000100
00000001
00000000
,
00001001
00000000
00000001
00000100
00000000
00000100
00010000
00000000
,
00010000
01000000
00000000
01000000
00100000
00010000
10000000
00000000
,
00010000
00000000
10000000
01000000
00000000
01000000
00001000
00000000
,
00001000
00000100
00000000
00000100
00000010
00001000
00000001
00000000
,
00001000
00000000
00000001
00000010
00000000
00000010
00010000
00000000
,
00010000
00100000
00000000
00100000
01000000
00010000
10000000
00000000
,
01000000
00000000
00100000
01000000
00100000
00000000
00001000
00100000
,
00001000
00000000
00010000
00001000
00010000
00001000
00010000
00001000
,
00010000
00100000
01000000
00010000
00100000
01000000
10000000
00000000
,
00010000
00100000
00001000
00010000
00100000
01000000
00001000
00000000
,
00010000
00000010
00000100
00001000
00010000
00000010
00000100
00000001
,
00000010
00000100
00001000
00000010
00000100
00001000
00010000
00000000
,
00001000
00000100
00000010
00001000
00000100
00000010
00000001
00000000
,
00001000
00000100
00010000
00001000
00000100
00000010
00010000
00000000
,
00001000
01000000
00100000
00010000
00001000
01000000
00100000
10000000
,
01000000
00100000
00010000
01000000
00100000
00010000
00001000
00000000
,
00010000
00100000
01000000
00010000
00100000
00001000
00010000
00000000
,
00000100
00001000
00000010
00000100
00001000
00010000
00000100
00000000
,
00001000
00000001
00000010
00000100
00001000
00000010
00000100
00001000
,
00010000
00000100
00001000
00010000
00100000
00001000
00010000
00000000
,
00001000
00000100
00000010
00001000
00000100
00010000
00001000
00000000
,
00100000
00010000
01000000
00100000
00010000
00001000
00100000
00000000
,
00010000
10000000
01000000
00100000
00010000
01000000
00100000
00010000
,
00001000
00000100
00000010
00001000
00000100
00000010
00000001
00001000
,
00000001
00000000
00000001
00000010
00000000
00000010
00001000
00000000
,
00001000
00010000
00000000
00010000
00100000
01000000
10000000
00000000
,
00010000
00000000
10000000
00100000
00000000
00100000
00010000
00000000
,
00010000
00001000
00000000
00001000
00000010
00000100
00000001
00000000
,
00001000
00000000
00000001
00000100
00000000
00000100
00001000
00000000
,
00001000
00010000
00000000
00010000
01000000
00100000
10000000
00000000
,
00010000
00000000
10000000
01000000
00000000
01000000
00010000
00000000
,
00010000
00001000
00000000
00001000
00000100
00000010
00000001
00001000
,
00000001
00000000
00000001
00000010
00000000
00000010
00010000
00000000
,
00010000
00100000
00000000
00100000
01000000
00010000
10000000
00000000
,
00010000
00000000
10000000
00100000
00000000
00100000
00001000
00000000
,
00001000
00000010
00000000
00000010
00000100
00001000
00000001
00000000
,
00001000
00000001
00000010
00001000
00010000
00000000
00001000
00010000
,
00100000
10000000
01000000
00010000
00001000
00000000
00010000
00001000
,
00000100
00000000
00000010
00001000
00000001
00000010
00000100
00010000
,
00001000
01000000
00100000
10000000
01000000
00100000
00001000
00010000
,
00022000
00033000
00000000
00000000
,
00000000
00000000
22000000
33000000
,
00020020
00030030
00000000
00000000
,
00000000
00000000
00000022
00000033
,
00022000
00033000
00000000
00000000
,
20200000
30300000
00000000
00000000
,
00002200
00003300
00000000
00000000
,
00011000
01010000
00010100
00000000
,
00022000
00033000
00000000
00000000
,
00000000
00000000
00000202
00000303
,
00202000
00303000
00000000
00000000
,
00000000
00000000
20200000
30300000
,
00022000
00033000
00000000
00000000
,
00000021
00000000
00000230
00000000
,
00020300
00000000
00000000
00000000
,
00031000
00010000
00001000
00010000
00001000
00010000
00001000
00010000
00001000
00010000
00000000
00000000
,
00001000
00000000
00100000
00000000
01000000
10000000
00000000
00010000
,
01000000
00000000
00100000
10000000
00000000
00010000
00100000
00000000
,
00001000
00000000
00010000
00000100
00001000
00000001
00000100
00000010
,
00001000
00000000
00000000
00000001
00000000
00000000
00000010
00000000
00000000
00000100
00000000
00000000
00000000
00000000
00000000
00000000
00000000
00000000
00010000
00000000
00001000
00000000
00010000
00000000
,
00002000
00000000
00203000
00000000
,
02300000
00000000
23000000
30020000
,
00000000
10030000
00100000
00010000
,
00001000
00000010
00000001
00001000
,
00000001
00000010
00000100
00000010
00000001
00001000
00000100
00010000
,
00001000
01000000
00010000
00100000
00001000
00010000
00001000
00010000
,
00000100
00000010
00000100
00010000
00001000
01000000
00100000
01000000
,
00010000
10000000
01000000
00100000
00020000
00000000
00000000
00000000
,
01030000
00000000
00001000
00100000
00001000
00000000
00010000
00000000
,
00000010
00001000
00000010
00000000
00000100
00000001
00001000
00000000
,
00000001
00000010
00000001
00000010
00002000
00000000
00013000
00001000
,
00010000
00100000
00010000
00100000
10000000
01000000
00100000
00010000
,
10000000
00000000
10000000
00100000
00000000
00100000
00001000
00000000
,
00001000
00000010
00000000
00000010
00000001
00000100
00000010
00001000
,
00000001
00000000
00000001
00000100
00000000
00000100
00010000
00000000
,
00010000
01000000
00000000
01000000
10000000
00010000
01000000
00100000
,
10000000
00000000
01000000
00010000
00000000
00010000
00100000
00000000
,
00100000
00001000
00000000
00001000
00000010
00000100
00000001
00000010
,
00000001
00000000
00000100
00001000
00000000
00001000
00000010
00000000
,
00000010
00010000
00000000
00010000
00100000
01000000
10000000
00100000
,
10000000
01000000
00100000
01000000
10000000
00001000
00100000
01000000
,
00100000
00001000
00010000
00000010
00000100
00000010
00010000
00000100
,
00000010
00000001
00000100
00000010
00000100
00001000
00010000
00100000
,
00010000
00001000
00000010
00001000
00010000
01000000
00100000
00010000
,
20000000
00000000
30100000
01000000
10000000
01000000
00100000
01000000
,
00010000
00100000
00001000
00010000
00100000
00010000
00001000
00000010
,
00000100
00001000
00000001
00000100
00000010
00000001
00000010
00001000
,
00000200
00000000
00000000
00000000
,
00000310
00000000
00000001
00000010
00001000
00000000
00010000
00001000
,
00000100
00000000
00001000
00010000
00100000
00000000
00010000
00100000
,
10000000
00000000
01000000
00010000
00001000
00000000
00000010
00001000
,
00010000
00000000
00100000
00010000
00001000
00000000
00000010
00000001
,
00001000
00000010
00000100
00000001
00000010
00001000
00010000
00001000
,
00100000
01000000
10000000
00100000
00010000
00001000
00010000
00000100
,
00000010
00000001
00000100
00001000
00010000
01000000
10000000
00100000
,
02200000
00000000
00000000
00000000
,
00000000
00000000
00000000
00000000
,
00000000
00000000
00000000
00000000
,
03300000
00000000
00000000
00000000
;
