#VERSION:0.83;
#TITLE:Theory of Eternity(XX-Special);
#ARTIST:TAG;
#BANNER:Theory of Eternity(XX-Special).png;
#BACKGROUND:Theory of Eternity(XX-Special)-bg.png;
#JACKET:Theory of Eternity(XX-Special)-jacket.png;
#MUSIC:Theory of Eternity(XX-Special).ogg;
#SAMPLESTART:61.53;
#SAMPLELENGTH:15;
#BPMS:0=160;

//---------------dance-single - Talkion-CSP----------------
#NOTEDATA:;
#CHARTNAME:Talkion-CSP;
#STEPSTYPE:dance-single;
#DESCRIPTION:Talkion-CSP;
#DIFFICULTY:Challenge;
#METER:15;
#CREDIT:Talkion;
#NOTES:
0000
0000
0000
0000
,
0000
0000
0000
0000
,
0000
0000
0000
0000
,
0000
0000
0000
0000
,
0000
0000
0000
0000
,
1001
1000
0100
0010
0000
0001
0100
0010
,
0000
1000
0100
0010
1000
0010
0100
1000
,
0001
1000
0010
0100
0001
1000
0001
0010
,
0100
0200
0000
0000
0000
0001
1300
0000
,
0001
0000
0100
0010
2000
0000
0000
0000
3001
0010
0002
0000
0000
0000
1003
0100
,
2000
0000
0000
0000
3001
0100
0002
0000
0000
0000
1003
0010
0100
0000
0001
0000
,
1000
0000
0001
0010
0200
0000
0000
0000
1300
0001
2000
0000
0000
0000
3010
0100
,
0002
0000
0000
0000
0103
0010
2000
0000
0000
0000
3001
0010
0001
0000
1000
0000
,
1001
0000
0001
0100
0020
0000
0000
0000
1030
0100
2000
0000
0000
0000
3010
0100
,
0002
0000
0000
0000
0013
0100
2000
0000
0000
0000
3010
0100
0010
0000
1000
0000
,
1001
0000
0001
0010
0200
0000
0000
0000
0310
0001
0200
0000
0000
0000
0310
1000
,
0200
0000
0310
0002
0000
0013
0100
1000
,
0001
0000
0100
0000
0100
0000
0000
0000
1200
0000
0000
0010
0000
0000
0301
0000
,
0000
0000
1000
0000
0100
0000
0000
0000
1000
0100
1000
0000
0001
0010
0001
0000
,
1000
0000
0010
0000
0010
0000
0000
0000
0021
0000
0000
0100
0000
0000
1030
0000
,
0000
0001
0010
0100
0001
0100
0010
0001
,
1000
0000
0010
0000
0010
0000
0000
0000
0021
0000
0000
0100
0000
0000
1030
0000
,
0000
0000
0001
0000
0010
0000
0000
0000
0001
0010
0001
0000
1000
0100
1000
0000
,
0001
0000
0100
0000
0100
0000
0000
0000
1200
0000
0000
0010
0000
0000
0301
0000
,
1000
0000
2000
0000
0000
0000
3100
0000
0000
0000
1002
0000
0000
0000
0013
0100
,
1000
0000
0100
0000
0100
0000
0000
0000
0201
0000
0000
0010
0000
0000
1300
0000
,
0000
0000
0001
0000
0100
0000
0010
0000
1000
0010
0100
0001
1000
0001
0010
0001
,
1000
0000
0010
0000
0010
0000
0000
0000
0021
0000
0000
0100
0000
0000
1030
0000
,
0000
0000
0001
0000
0010
0000
0001
1000
0100
1000
0001
1000
0010
0100
0010
1000
,
0001
0000
0010
0000
0010
0000
0000
0000
1020
0000
0000
0100
0000
0000
0031
0000
,
0000
0000
1000
0000
0010
0000
0100
0000
0001
0100
0010
1000
0001
1000
0100
1000
,
0001
0000
0100
0000
0100
0000
0000
0000
1200
0000
0000
0010
0000
0000
0301
0000
,
1000
0000
2000
0000
0000
0000
3100
0000
1000
0001
1000
0001
1000
0001
1000
0001
,
0010
0000
0010
0000
0100
0010
0001
0000
,
1000
0000
1000
0000
0010
0100
0001
0000
,
1000
0000
1000
0000
0100
0010
0001
0000
,
1000
0000
0010
0000
0200
0000
0000
0302
0000
0000
0013
0000
0100
0000
1000
0000
,
1001
0000
0001
0000
0100
0000
0010
0100
0000
0100
0000
0100
0002
0000
0000
0000
,
1003
0000
0001
0000
0010
0000
0100
0010
0000
0010
0000
0010
0002
0000
0000
0000
,
1003
0000
1000
0000
0010
0000
0100
0010
1000
0000
1000
0000
0001
0010
0200
0000
,
0001
0000
0000
0320
0000
0000
1000
0000
0000
0230
0000
0000
1300
0001
1000
0010
,
0100
0000
0001
0100
0010
0000
1000
0000
0001
0010
0000
0010
0000
0100
1000
0002
,
0010
0000
1003
0010
0100
0000
0001
0000
0100
0010
0000
0010
0000
1000
0001
2000
,
0100
0000
3001
0010
0100
0000
1000
0000
0100
0010
0000
0010
0000
0001
1000
0020
,
0100
0000
1030
0001
1000
0000
0100
0000
0010
0100
0000
0100
1000
0000
0001
0000
,
1001
0000
1000
0010
0100
0000
0001
0000
1000
0100
0000
0100
0000
0010
0001
2000
,
0100
0000
3001
0100
0010
0000
1000
0000
0010
0100
0000
0100
0000
0001
1000
0002
,
0010
0000
1003
0100
0010
0000
0001
0000
0010
0100
0000
0100
0000
1000
0001
0100
,
0010
0000
1000
0010
0000
0010
0001
0000
1000
0100
0000
0100
0001
0000
2000
0000
,
0000
0000
3100
0000
0020
0000
0000
0000
0001
0000
0000
0001
0000
0000
0031
0000
,
0000
0000
0100
0000
0020
0000
0000
0000
1000
0000
0000
1000
0000
0000
1030
0000
,
0001
0000
0010
0000
0100
0000
0010
0000
0001
0000
0000
0001
0000
0000
0001
0000
,
1000
0000
0010
0000
0100
0000
0010
0000
1000
0000
0000
1000
0000
0000
1000
0000
,
0001
0000
0010
0100
1000
0000
0001
0000
0100
0000
0000
0100
0000
0000
0100
0000
,
0010
0000
1000
0010
0100
0000
0001
0000
1000
0000
0000
1000
0000
0000
1000
0000
,
0100
0010
0001
1000
0010
0100
0001
0010
0100
1000
0001
0100
0010
1000
0100
0010
,
0001
0000
0000
0000
,
0101
0000
0100
0000
0010
0100
0001
0000
,
1000
0000
1000
0000
0100
0010
0001
0000
,
1000
0000
1000
0000
0010
0100
0001
0000
,
1000
0000
0100
0000
0020
0000
0000
0032
0000
0000
0103
0000
0010
0000
1000
0000
,
1001
0000
0001
0000
0010
0000
0100
0010
0000
0010
0000
0010
0001
0000
1000
0000
,
1001
0000
0001
0000
0100
0000
0010
0100
0000
0100
0000
0100
0001
0000
1000
0000
,
0001
0000
0001
0000
0010
0000
0100
0010
0001
0000
0001
0000
1000
0010
0200
0000
,
1000
0000
0000
0320
0000
0000
0001
0000
0000
0230
0000
0000
0301
1000
0001
0010
,
0100
0000
0001
0100
0010
0000
0001
0000
1000
0010
0000
0010
0000
0100
1000
0200
,
0010
0000
0301
1000
0001
0000
0010
0000
0100
0010
0000
0010
0000
1000
0010
0200
,
1000
0000
0310
0001
1000
0000
0001
0000
0100
0010
0000
0010
0000
1000
0010
0200
,
1000
0000
0310
0100
0001
0000
1000
0000
0001
0100
0000
0100
0010
0000
1000
0000
,
1001
0000
0001
0010
0100
0000
1000
0000
0001
0100
0000
0100
0000
0010
0001
0020
,
0100
0000
1030
0001
1000
0000
0100
0000
0010
0100
0000
0100
0000
0001
0100
0020
,
0001
0000
0130
1000
0001
0000
1000
0000
0010
0100
0000
0100
0000
0001
1000
0100
,
0010
0000
0001
0010
0000
0010
1000
0000
0001
0100
0000
0100
1000
0000
0001
0000
,
1000
0010
0001
0000
0010
0000
0001
0010
1000
0000
0001
0000
1000
0100
0001
0000
,
0100
0000
0001
0100
1000
0000
2002
0000
0000
0000
0000
0000
0000
0000
0000
0000
,
0000
0000
3003
0000
;

//---------------dance-double - forcednature-CDP----------------
#NOTEDATA:;
#CHARTNAME:forcednature-CDP;
#STEPSTYPE:dance-double;
#DESCRIPTION:forcednature-CDP;
#DIFFICULTY:Challenge;
#METER:15;
#CREDIT:forcednature;
#NOTES:
00000000
00000000
00000000
00000000
,
00000000
00000000
00000000
00000000
,
00000000
00000000
00000000
00000000
,
00000000
00000000
00000000
00000000
,
00000000
00000000
00000000
00000000
,
00012000
00000000
02003000
00000000
,
03020000
00000000
00000000
00030000
,
01000000
00010000
01000000
00010000
00100000
00001000
00010000
00000010
,
00000100
00000000
00000120
00000000
00000000
00000000
00000000
00000000
00000000
00000000
00001000
00000000
00001030
00000000
00000010
00000100
,
00000001
00001000
00000010
00000100
00001000
00010000
01000000
00100000
,
00010000
10000000
00100000
00010000
00001000
00100000
00010000
10000000
,
01000000
00010000
00001000
00000100
00000001
00000010
00000100
00001000
,
00000001
00000000
00000100
00000000
00001000
00000000
00000100
00000000
00000010
00000000
00000000
00000010
00001000
00000000
00000100
00000000
,
00000010
00001000
00010000
00100000
00010000
00001000
00010000
01000000
,
10000000
00100000
00010000
00001000
00010000
01000000
00100000
00001000
,
00010000
00000000
00100000
01000000
00010000
00000000
00100000
00001000
00010000
00000010
00000000
00000010
00002000
00000000
00000000
00000000
,
00003200
00000000
00000000
00000000
00000000
00000000
00000001
00000000
00000000
00000000
00000010
00000000
00001300
00000000
00000100
00000010
,
00000001
00000000
00001000
00000000
00000001
00000000
00000000
00000000
00000200
00000000
00000000
00002300
00000000
00000000
00023000
00000000
,
00000000
00000000
00130000
00000000
00000000
00000000
00000000
00000000
01000000
00010000
10000000
00010000
00100000
01000000
10000000
01000000
,
00000000
00000000
00100000
00000000
00001000
00000000
00000000
00000000
00020000
00000000
00000000
00030020
00000000
00000000
00002030
00000000
,
00000000
00003100
00000010
00000001
00000100
00001000
00010000
00001000
,
00100000
00000000
00010000
00000000
01000000
00000000
00000000
00000000
00200000
00000000
00000000
20300000
00000000
00000000
32000000
00000000
,
00000000
00000000
03010000
00000000
00000000
00000000
00000000
00000000
00001000
00010000
00000100
00001000
00000100
00000010
00000001
00001000
,
00000000
00000010
00000100
00000000
00001000
00001000
00010000
00010000
,
01000000
00000000
01100000
00000000
00000000
00000000
00100000
00000000
00001000
00000000
00011000
00000000
00010000
00000000
00000100
00001000
,
00000010
00000000
00000100
00000000
00000001
00000000
00000000
00000000
00000011
00000000
00000000
00000110
00000000
00000000
00001200
00000000
,
00000000
00000000
00010300
00000000
00000000
00000000
00000000
00000000
00010000
00001000
01000000
00010000
01000000
00100000
10000000
00010000
,
00000000
00000000
10000000
00000000
01000000
00000000
00000000
00000000
00110000
00000000
00000000
00101000
00000000
00000000
00021000
00000000
,
00000000
00000000
00030010
00000000
00000000
00000000
00000010
00001000
00000001
00001000
00000100
00000010
00000001
00001000
00000001
00000100
,
00000010
00000000
00001000
00000000
00010000
00000000
00000000
00000000
01010000
00000000
00000000
00110000
00000000
00000000
02100000
00000000
,
00000000
00000000
13000000
00000000
00000000
00000000
00000000
00000000
01000000
00100000
00010000
00100000
00001000
00010000
00001000
00100000
,
00000000
00010000
01000000
00000000
00001000
00001000
00010000
00000100
,
00001100
00000000
00000000
00000000
00001000
00000000
00000001
00000000
00000100
00000001
00000100
00000001
00001000
00000010
00001000
00000010
,
00000200
00000000
00002300
00000000
,
00023000
00000000
00230000
00000000
,
02300000
00000000
03002000
00000000
,
00203000
00000000
00010000
00000000
01300000
00100000
00010000
10000000
,
10100000
00010000
00001000
00000010
,
00000011
00001000
00010000
00100000
,
10000000
01000000
00020000
00000000
00031000
00000100
00000002
00000000
,
00000013
00000000
00000000
00000011
00000000
00000000
00000110
00000000
00000000
00001100
00000000
00000000
00001000
00000100
00010000
00001000
,
00100000
00000000
00010000
01000000
00100000
00000000
10000000
00000000
01000000
00010000
00000000
00001000
00000000
00010000
00000100
00002000
,
00000000
00000000
00003010
00001000
00000001
00000000
00000010
00000000
00000100
00001000
00000000
00000001
00000000
00000100
00001000
00020000
,
00000000
00000000
00031000
01000000
00010000
00000000
00100000
00000000
01000000
10000000
00000000
00010000
00000000
01000000
00100000
20000000
,
00000000
00000000
31000000
00100000
00010000
00000000
01000000
00000000
00001000
00010000
00000000
00010000
00000100
00000000
00001000
00000000
,
00001001
00000000
00000001
00000100
00000010
00000000
00001000
00000000
00000100
00000010
00000000
00000100
00000000
00010000
00001000
00200000
,
00000000
00000000
00310000
01000000
00100000
00000000
10000000
00000000
01000000
00010000
00000000
00001000
00000000
00010000
00000100
00002000
,
00000000
00000000
00003010
00000100
00001000
00000000
00010000
00000000
00000100
00000000
00000100
00000000
00001000
00000001
00001000
00000001
,
00000100
00000000
00000000
00000110
00000000
00000000
00011000
00000000
00000000
01000000
00010000
00000000
00110000
00000000
00100000
01000000
,
20000000
00010000
00000000
00010000
,
00000000
00000000
00000000
00000000
00010000
00000000
00000000
00000000
00000000
00000000
00000000
00000000
31000000
10000000
01000000
10000000
,
00100000
00000000
01000000
00000000
00010000
00000000
00000000
00000000
00200000
00000000
00000000
00320000
00000000
00000000
00032000
00000000
,
00000000
00000000
00003001
00000000
00000100
00000000
00000000
00000000
00000010
00000000
00000000
00001000
00000100
00000000
00000100
00000000
,
00000110
00000000
00000010
00000000
00000001
00000000
00000000
00000000
00000200
00000000
00000000
00002300
00000000
00000000
02003000
00000000
,
00000000
00000000
03010000
00000000
10000000
00000000
00000000
00000000
01000000
00000000
00000000
01000000
00010000
00000000
00010000
00000000
,
00001000
00000000
00001000
00000000
00000100
00000000
00000100
00000000
00000010
00001000
00000001
00001000
00000100
00000010
00000001
00001000
,
00000010
00000000
00000000
00000000
,
00000102
00000000
00002003
00000000
,
00003020
00000000
00020030
00000000
,
00032000
00000000
00203000
00000000
,
00320000
00000000
01000000
00000000
00130000
00010000
10000000
01000000
,
01200000
00000000
00310000
00000000
00001000
00000000
00000001
00000100
,
00000120
00000000
00001030
00000000
00010000
00000000
10000000
01000000
,
00010000
00001000
00000020
00000000
00001030
00010000
00200000
00000000
,
01300000
00000000
00000000
01100000
00000000
00000000
00011000
00000000
00000000
00000110
00000000
00000000
00000001
00000100
00000010
00001000
,
00000000
00000000
00000001
00000100
00001000
00000000
00000100
00000000
00000010
00010000
00000000
00001000
00000000
00100000
00010000
02000000
,
00000000
00000000
03100000
10000000
00010000
00000000
00100000
00000000
01000000
00010000
00000000
00001000
00000000
00010000
00000010
00002000
,
00000000
00000000
00003100
00000010
00000001
00000000
00000100
00000000
00000010
00001000
00000000
00010000
00000000
01000000
00010000
00200000
,
00000000
00000000
01300000
10000000
00010000
00000000
01000000
00000000
00001000
00010000
00000000
00010000
00000100
00000000
00001000
00000000
,
00001100
00000000
00000100
00000010
00000001
00000000
00001000
00000000
00000001
00000100
00000000
00001000
00000000
00010000
00001000
00200000
,
00000000
00000000
00310000
01000000
00001000
00000000
00010000
00000000
01000000
00100000
00000000
00010000
00000000
10000000
00100000
02000000
,
00000000
00000000
03001000
00010000
00000100
00000000
00000100
00000000
00001000
00000010
00001000
00000010
00000100
00000001
00001000
00000001
,
00000010
00000000
00000000
00000110
00000000
00000000
00010100
00000000
00000000
00010000
00001000
00000000
01001000
00000000
01000000
00000000
,
00010000
00100000
01000000
00000000
00010000
00000000
00001000
00010000
00000010
00000000
00001000
00000000
00000100
00000010
00000001
00000000
,
00000100
00000000
00001000
00010000
00100000
00000000
02200000
00000000
00000000
00000000
00000000
00000000
00000000
00000000
00000000
00000000
,
00000000
00000000
03300000
00000000
;
