#TITLE:The Uchiwa Drenched in Blood;
#ARTIST:avenge-Z;
#BANNER:The Uchiwa Drenched in Blood.png;
#BACKGROUND:The Uchiwa Drenched in Blood-bg.png;
#MUSIC:The Uchiwa Drenched in Blood.ogg;
#SAMPLESTART:85.95;
#SAMPLELENGTH:15;
#BPMS:0=134;
#BGCHANGES:;

//---------------dance-single - Kekkle-bSP----------------
#NOTES:
     dance-single:
     Kekkle:
     Beginner:
     4:
     :
0000
0000
0000
0000
,
0000
0000
0000
0000
,
0000
0000
0000
0000
,
0000
0000
0000
0000
,
0000
1000
0000
1000
,
0000
0001
0000
0001
,
0000
0100
0000
0100
,
0000
0010
0000
0010
,
1000
0000
0001
0000
,
0010
0000
0100
1000
,
0001
0000
1000
0000
,
0010
0000
0100
0001
,
1000
0000
0100
0000
,
0010
0000
0001
1000
,
0010
0000
0100
0000
,
0010
0000
1000
0001
,
0010
0100
0010
0000
,
0001
1000
0001
0000
,
0100
0010
0100
0000
,
0001
1000
0001
0000
,
0010
0010
0100
0000
,
1000
1000
0001
0000
,
0100
0100
0010
0000
,
1000
1000
0001
0000
,
0020
0000
0130
1000
,
0002
0000
1003
0000
,
0001
0000
0100
0000
,
0010
0100
0010
0000
,
0200
0000
0310
1000
,
0002
0000
1003
0000
,
0100
0000
0010
0000
,
0001
1000
0001
0000
,
1001
0000
0000
0000
,
1000
0000
0000
0000
,
0010
0000
0000
0000
,
0100
0000
0000
0001
,
0001
0000
0000
0000
,
1000
0000
0000
0000
,
0100
0000
0000
0000
,
0010
0000
0000
0000
,
0001
0000
1000
0000
,
0010
0000
0100
0000
,
1000
0000
0100
0000
,
0001
1000
0001
0000
,
1000
0000
0100
0000
,
0010
0000
1000
0000
,
0020
0000
0000
0000
,
0031
0000
1000
0000
,
0010
0100
0010
0000
,
1000
0001
1000
0000
,
0100
0010
0100
0000
,
1000
1000
1000
0000
,
0001
1000
0010
0000
,
0100
0001
1000
0000
,
0001
1000
0100
0000
,
1000
1000
1000
0000
,
0100
0010
0100
0010
,
0100
0100
0100
0000
,
1000
0001
1000
0001
,
1000
1000
1000
0000
,
0001
0000
0001
0000
,
1000
0000
1000
0000
,
0020
0000
0030
0000
,
0100
0010
0100
0000
,
1001
0000
0000
0000
;

//---------------dance-single - Kekkle-BSP----------------
#NOTES:
     dance-single:
     Kekkle:
     Easy:
     7:
     :
0000
0000
0000
0000
,
0000
0000
0000
0000
,
0000
0000
0000
0000
,
0000
0000
0000
0000
,
0000
1000
0000
1000
,
0000
0001
0000
0001
,
0000
0100
0000
0100
,
0010
0100
0010
0100
,
0001
0000
1000
0000
0100
0000
0000
0010
,
0001
1000
0010
0010
,
0100
0000
0001
0000
1000
0000
0000
0100
,
0010
0000
0001
0000
1000
0001
1000
0000
,
0001
0000
0100
0000
0010
0000
0000
1000
,
0010
0100
0001
0001
,
1000
0000
0100
0000
0010
0000
0000
0001
,
1000
0010
0100
0100
,
0001
0000
1000
0000
0100
0000
0000
0001
,
0100
0010
0001
0001
,
1000
0000
0001
0000
0100
0000
0000
1000
,
0100
0000
0010
0000
1000
0001
1000
0000
,
0001
0000
1000
0000
0010
0000
0000
0001
,
0010
0100
0001
0001
,
1000
0000
0001
0000
0010
0000
0000
1000
,
0010
0000
0100
0000
1000
0001
1000
0000
,
1001
0000
0001
0100
,
0020
0000
1030
1000
,
0001
0010
0100
0100
,
0000
0000
0010
0000
0001
1000
0001
0000
,
1001
0000
1000
0100
,
0020
0000
0031
0001
,
1000
0000
0010
0000
0100
0010
0100
0000
,
0001
0100
1000
0100
,
0002
0000
0000
1003
,
0200
0000
0310
0001
,
2000
0000
0000
3010
,
0200
0000
1300
0100
,
0002
0000
0000
1003
,
0200
0000
0310
0010
,
0002
0000
0000
0000
,
0000
1003
0010
0010
,
0001
0010
1000
0001
,
0010
1000
0010
0001
,
2000
0000
3002
0000
,
0013
0100
2000
0000
,
3001
0100
1000
0001
,
0010
1000
0001
0010
,
0200
0000
0000
0000
,
0310
0000
0001
0000
1000
0001
1000
0000
,
0001
0000
0100
0000
0010
0000
1000
0001
,
1000
0000
0100
0000
0010
0000
0001
1000
,
0001
0000
0100
0000
0010
0000
1000
0001
,
1000
0100
0001
0100
,
0010
0000
0001
0000
1000
0000
0010
0100
,
0010
0000
1000
0000
0001
0000
0010
0100
,
0010
0000
0001
0000
1000
0000
0010
0100
,
0010
0100
1000
0100
,
0001
1000
0001
1000
0001
0000
0010
0000
,
0100
0010
0100
0010
0100
0000
0010
0000
,
0001
0010
0001
0010
0001
0000
1000
0000
,
0010
1000
0010
1000
0010
0000
0100
0000
,
0000
0001
1000
1000
,
0000
1000
0001
0001
,
0010
0000
0100
0000
,
1000
0000
0001
0000
1000
0001
1000
0001
,
2000
0000
0000
0000
,
3000
0000
0000
0000
;

//---------------dance-single - Kekkle-DSP----------------
#NOTES:
     dance-single:
     Kekkle:
     Medium:
     11:
     :
0000
0000
0000
0000
,
0000
0000
0000
0000
,
0000
0000
0000
0000
,
0000
0000
0000
0000
,
2000
3100
0000
1001
,
0002
0103
0000
1001
,
1000
1000
0001
0001
,
0100
0010
1000
0000
0100
0010
0001
0000
,
1000
0000
0010
0000
0001
0010
0000
1000
,
0001
0000
0001
0000
0010
0100
0010
0000
,
0001
0000
0010
0000
1000
0010
0000
0001
,
1000
0000
0010
0100
0010
1000
0001
0000
,
1000
0000
0100
0000
0001
0100
0000
1000
,
0001
0000
0010
0000
0100
0010
0100
0000
,
1000
0000
0100
0000
0001
0100
0000
1000
,
0001
0000
0100
0010
0100
0001
1000
0000
,
0001
0010
0100
0000
0001
0100
0000
1000
,
0001
0100
0010
0000
0100
0010
0100
0000
,
0001
0100
0010
0000
0001
0010
0000
1000
,
0001
0010
0100
0010
0100
1000
0001
0000
,
1000
0010
0100
0000
1000
0100
0000
0001
,
1000
0100
0010
0000
0100
0010
0100
0000
,
1000
0100
0010
0000
1000
0010
0000
0001
,
1000
0010
0100
0010
0100
0001
2000
0000
,
3002
0000
0000
1003
0001
0010
0100
0010
,
2000
0000
3010
0001
1000
0000
0001
0000
,
0100
0000
0010
0010
0100
0000
0010
0000
,
1000
0000
0001
0010
0100
1000
0001
0000
,
2000
0000
0000
3001
1000
0010
0100
0010
,
0002
0000
0013
1000
0001
0000
1000
0000
,
0100
0000
0010
0001
1000
0010
0100
0000
,
0010
0100
0010
0001
0010
1000
0001
0010
,
0200
0000
0000
0310
,
0001
0001
0100
0010
,
0002
0000
0000
0013
,
1000
0000
0000
0001
0010
0000
0100
0000
,
2000
0000
0000
0000
0000
3001
0100
0000
,
0020
0000
0000
0130
0001
0100
1000
0100
,
0020
0000
0000
0000
,
0000
0130
0000
0100
0000
0001
1000
0000
,
0100
0001
0100
0000
0010
0000
0001
0000
,
0100
1000
0100
0000
0010
0000
1000
0000
,
0001
0010
1000
0010
,
0100
0001
0200
0000
,
0310
1000
0010
0000
0100
0000
1000
0000
,
0010
0001
0010
0000
0100
0000
0001
0000
,
2000
0000
0000
3001
0000
0001
0000
0001
,
0010
0100
1000
0001
0100
0010
0200
0000
,
0310
1000
0010
0100
0010
0001
0010
0000
,
0100
0001
0100
0010
0100
1000
0100
0000
,
0001
1000
0100
0010
0100
0001
0100
0000
,
0010
0001
0100
0000
0010
1000
0100
0000
,
0010
0001
0100
0010
0100
1000
0100
0000
,
0010
1000
0100
0010
0100
0001
0100
0000
,
1000
0001
0100
0010
0100
1000
0100
0000
,
0010
1000
0100
0000
0010
0001
0100
0000
,
0001
0100
0010
0001
0010
1000
0001
0001
,
1000
0100
0010
1000
0010
0001
1000
1000
,
0001
0100
1000
0001
1000
0100
0001
0001
,
1000
0100
0001
1000
0001
0100
1000
0001
,
0000
1001
0000
1000
0010
0100
0010
0010
,
0000
1001
0000
0001
0010
0100
0010
0010
,
0001
0100
0010
1000
,
0001
0010
0100
1000
0010
0100
0010
0000
,
0220
0000
0000
0000
,
0330
0000
0000
0000
;

//---------------dance-single - Kekkle-ESP----------------
#NOTES:
     dance-single:
     Kekkle:
     Hard:
     14:
     :
0000
0000
0000
0000
,
0000
0000
0000
0000
,
0000
0000
0000
0000
,
0000
0000
0000
0000
,
1000
0000
0000
0000
0001
0000
0000
0001
0000
0000
0000
0000
0110
0000
0000
0000
,
0001
0000
0000
0000
1000
0000
0000
1000
0000
0000
0000
0000
0110
0000
0000
0000
,
1000
0100
1000
0100
0010
0001
0010
0001
,
1000
0010
1000
0000
0001
0100
0001
0000
1000
0001
1000
0001
1000
0001
1000
0000
,
0100
0000
0000
0010
0000
0001
0000
1000
0010
0000
0200
0000
0000
0000
0310
0000
,
1000
0000
0000
0001
0000
0010
0100
0010
0100
0000
1000
0000
0001
0000
0100
0001
,
0100
0000
0000
0010
0000
1000
0000
0001
0010
0000
0200
0000
0000
0000
0310
0000
,
0001
0000
0000
1000
0000
0010
0100
0010
0100
0000
0001
1000
0001
1000
0001
0000
,
1000
0000
0000
0100
0000
0010
0000
0001
1000
0000
0020
0000
0000
0000
1030
0000
,
0001
0000
0000
0010
0000
0100
1000
0100
1000
0000
0001
0000
0100
0000
0001
1000
,
0001
0000
0000
0010
0000
0100
0000
1000
0001
0000
0200
0000
0000
0000
0301
0000
,
1000
0000
0000
0100
0000
0010
0001
0010
0001
0000
1000
0001
1000
0000
0010
0000
,
0100
0000
0000
0001
0000
1000
0000
0100
0010
0000
0002
0000
0000
0000
1003
0000
,
0010
0000
0000
0100
0000
0001
1000
0001
0010
0000
0100
0000
1000
0000
0001
0100
,
0010
1000
0010
1000
0000
0001
0010
0001
0010
0000
0200
0000
0000
0000
1300
0000
,
0001
0000
0000
0100
0000
0010
1000
0010
1000
0000
0001
0010
0001
0010
0100
0000
,
1000
0000
0000
0001
0000
0100
0000
0010
1000
0000
0002
0000
0000
0000
1003
0000
,
0100
0000
0000
0010
0000
0001
1000
0001
0100
0000
0010
0000
1000
0000
0001
1000
,
0100
0000
0000
0010
0000
0001
0000
1000
0010
0000
0200
0000
0000
0000
0301
0000
,
1000
0000
0000
0100
0000
0010
0001
0010
0001
0000
1000
0010
0100
0000
0010
0100
,
0002
0000
0000
0000
0000
1003
0100
1000
0000
0100
0010
0100
0010
0001
0010
0000
,
0002
0000
0000
0000
1003
0010
1000
0000
0010
0000
0001
0000
0010
0000
0100
0000
,
0002
0000
0000
0000
1000
0000
1003
0000
0100
0000
0010
0100
0010
0000
0001
0000
,
0000
0000
1000
0010
1000
0000
0010
0000
0100
0001
1000
0001
0010
0000
0100
0000
,
2000
0000
0000
0000
0000
3001
0100
0001
0000
0100
0010
0100
0010
1000
0010
0000
,
2000
0000
0000
0000
3001
0010
0001
0000
0010
0000
1000
0000
0010
0000
0100
0000
,
1000
0000
0100
1000
0100
0000
0010
0001
1000
0010
1000
0000
0001
0100
0001
0000
,
1000
0100
1000
0100
0010
0001
0010
0000
0001
0100
0001
0100
0010
1000
0010
1000
,
0002
0000
0000
0000
0000
0000
0000
0000
0000
0000
0000
0000
1003
0000
0100
0010
,
0100
0000
0000
0100
0000
0000
0100
0000
0000
0000
0010
0000
0100
0000
0010
0000
,
2000
0000
0000
0000
0000
0000
0000
0000
0000
0000
3010
0000
0100
0000
0010
0002
,
0000
0000
0000
0000
0000
0000
1003
0000
0010
0100
0010
0000
0100
0000
0001
0000
,
2000
0000
0000
0000
0000
3100
0010
1000
,
0020
0000
0000
0000
0000
0000
0031
1000
0001
0000
0001
0000
0001
0000
0100
0000
,
0010
0100
0000
0200
0000
0000
0000
0000
0000
0000
0000
0000
0000
0000
0000
0000
,
0000
0000
0310
0000
0000
0000
0010
0100
0000
0000
0010
0000
1000
0000
0001
0000
,
0010
0000
0100
0000
1000
0000
0100
0010
0100
0000
1000
0000
0001
0000
1000
0000
,
0010
0000
0100
0000
0001
0000
0100
0010
0100
0000
0001
0000
1000
0000
0100
0000
,
0020
0000
0031
1000
0020
0000
0130
0001
,
1000
0100
0001
0100
2000
0000
0000
3001
,
0100
0000
0010
0000
1000
0000
0010
0100
0001
0000
1000
0000
0001
0010
0001
0000
,
0010
0000
0100
0000
1000
0000
0100
0010
0001
0000
1000
0000
0001
0100
0001
0000
,
2000
0000
3001
0010
0000
0100
0000
0100
,
1000
0100
1000
0100
0010
0001
0010
0001
1000
0010
1000
0010
0100
0000
0100
0000
,
0001
1000
1100
0100
0010
1000
0010
0010
,
0001
1000
1010
0010
0001
0010
0100
0010
,
1000
0001
0101
0100
0010
0001
0010
0010
,
1000
0001
0011
0010
1000
0010
0100
0010
,
0001
1000
1010
0010
0100
1000
1100
0100
,
0001
1000
1100
0100
0001
0100
0010
0100
,
1000
0001
0011
0010
0100
0001
0101
0100
,
1000
0001
0101
0100
1000
0100
0010
0100
,
0001
1000
0001
0010
0001
0010
0100
0000
0010
0001
0010
0001
1000
0000
1000
0000
,
0001
1000
0001
0100
0001
0100
0010
0000
0100
0001
0100
0001
1000
0000
1000
0000
,
0010
0100
0001
0100
0010
1000
0010
0000
1000
0100
0010
0001
1000
0000
1000
0000
,
0100
0010
0001
0010
0100
1000
0100
0000
1000
0000
0010
0000
0100
0000
0001
0000
,
0000
0000
1100
0000
0000
0000
0100
0010
0100
0000
0001
0000
0100
0000
1000
0000
,
0000
0000
0101
0000
0000
0000
0100
0010
0100
0000
0010
0000
0001
0000
0010
0000
,
2000
0000
3001
0000
0010
0100
1000
0001
,
1000
0010
1000
0010
0100
0001
0100
0001
1000
0100
1000
0100
0010
0001
1000
0010
,
0200
0000
0000
0000
,
0300
0000
0000
0000
;

//---------------dance-single - Kekkle-CSP----------------
#NOTES:
     dance-single:
     Kekkle:
     Challenge:
     16:
     :
0000
0000
0000
0000
,
0000
0000
0000
0000
,
0000
0000
0000
0000
,
0000
0000
0000
0000
,
1002
0000
0000
0000
0100
0000
0000
1003
0000
0000
0100
0000
0110
0000
0000
0000
,
2000
0000
0000
0000
0100
0000
0000
3001
0000
0000
0100
0000
0110
0000
0000
0000
,
1000
1000
0010
0010
0100
0100
0001
0001
,
1000
0000
0000
0001
0000
0000
0010
0000
0000
0100
0000
0000
1000
0000
0000
0001
0000
0000
0100
0000
0000
0010
0000
0000
1000
0000
0000
0010
0000
0000
0100
0000
0000
0001
0000
0000
1000
0000
0001
0000
0010
0000
0100
0000
1000
0000
0001
0000
,
0100
0000
0000
0010
0000
1000
0000
0010
0001
0000
0020
0000
0000
0000
1030
0000
,
0001
0000
0000
0010
0000
0001
0010
0100
0010
0000
1000
0000
0010
0000
0001
1000
,
0010
0000
0000
0100
0000
0001
0000
0100
1000
0000
0200
0000
0000
0000
0310
0000
,
1000
0000
0000
0000
0000
0000
0001
0000
0000
0000
0010
0000
0100
0000
1000
0000
0001
0000
0100
0000
1000
0000
0100
0000
0001
1000
0001
0000
1000
0000
0000
0000
,
0100
0000
0000
0010
0000
0001
0000
0010
1000
0000
0020
0000
0000
0000
0031
0000
,
1000
0000
0000
0010
0000
0100
0001
0100
0010
0000
0001
0000
0010
0000
1000
0001
,
0010
0000
0000
0100
0000
1000
0000
0100
0001
0000
0200
0000
0000
0000
0310
0000
,
0001
0000
0000
1000
0000
0010
0100
0001
1000
0100
0001
0100
0020
0000
0031
0000
,
1000
0000
1000
0010
0000
0100
0000
0010
0001
0000
0020
0000
0000
0000
0130
0001
,
1000
0000
1000
0100
0000
0010
0001
0010
0100
0000
0001
0000
0100
0000
1000
0001
,
0100
0010
1000
0010
0100
0001
1000
0100
0001
0000
0200
0000
0000
0000
0310
0001
,
1000
0000
0000
0000
1000
0000
0010
0000
0000
0000
0100
0000
0001
0000
1000
0000
0001
0000
0010
0000
1000
0000
0010
0000
0001
1000
0001
0000
1000
0000
0010
0000
,
0100
0000
0100
0010
0000
1000
0000
0010
0001
0000
0020
0000
0000
0000
0130
0001
,
1000
0000
1000
0100
0000
0010
0001
1000
0010
0000
0001
0000
0010
0000
1000
0001
,
0010
0000
0010
0100
0000
1000
0000
0100
0001
0000
0200
0000
0000
0000
0310
0001
,
1000
0000
0000
0000
1000
0000
0010
0000
0000
0000
0100
0000
0001
0000
1000
0000
0001
0000
0010
0000
1000
0000
0010
0000
0001
2000
0000
0000
3010
0000
0100
0000
,
0001
0000
0000
0001
0000
0100
0020
1000
0000
0130
0001
1000
0001
0010
0100
0010
,
2000
0000
0000
0000
3010
0001
1000
0010
0100
0100
1000
0000
0100
0000
0001
0000
,
2000
0000
0000
0000
0000
0000
3100
0010
0100
0000
0000
0000
0100
0000
0000
0000
0001
0000
0100
0000
1000
0000
0001
0000
0100
0000
0000
0000
0010
0000
0000
0000
,
1000
0000
0001
0010
0100
0000
1000
0000
0001
0100
1000
0100
0001
0000
1000
0000
,
0001
0000
0000
0001
0000
0010
0200
1000
0000
0310
0001
1000
0001
0100
0010
0100
,
2000
0000
0000
0000
3100
0001
1000
0100
0010
0010
1000
0000
0010
0000
0001
0000
,
1000
0000
0001
0100
0010
1000
0001
0010
0100
1000
0010
1000
0100
0010
0001
1000
,
0010
0000
0000
0100
0000
0000
0001
0000
0000
1000
0000
0000
0100
0000
0000
0010
0000
0000
0100
0000
0000
1000
0000
0000
0001
0000
0000
0100
0000
0000
0010
0000
0000
1000
0000
0000
0001
0000
0010
0000
0100
0000
1000
0000
0001
0000
0100
0000
,
0020
0000
0000
0000
0000
0000
0000
0000
0000
0000
0000
0000
0130
0000
0100
0001
,
1000
0000
0000
1000
0000
0000
1000
0000
0000
0000
0001
0000
0010
0000
0100
0010
,
2000
0000
0000
0000
0000
0000
0000
0000
0000
0000
3010
0000
0001
0000
1000
0020
,
0000
0000
0000
0000
0000
0000
1030
0000
0010
0001
0010
0000
0100
0000
0001
0000
,
2000
0000
0000
0000
0000
3100
0010
1000
,
0020
0000
0000
0000
0000
0000
0031
1000
0010
0000
0010
0000
0010
0000
0100
0000
,
0001
1000
0000
2000
0000
0000
0000
0000
0000
0000
0000
0000
0000
0000
0000
0000
,
0000
0000
3001
0000
0000
0000
0001
1000
0000
0000
0001
0000
0010
0000
0100
0000
,
0001
0000
0100
0000
1000
0000
0001
0100
1000
0000
0100
0000
0010
0000
0100
0000
,
1000
0000
0100
0000
0001
0000
1000
0100
0001
0000
0100
0000
0010
0000
0001
1000
,
0020
0000
0130
0010
0002
0000
0013
1000
,
0001
0010
1000
0010
0002
0000
1003
0010
,
0001
0000
0010
0000
1000
0000
0001
0010
1000
0000
0010
0000
1000
0010
0100
0000
,
0001
0000
0100
0000
1000
0000
0001
0100
1000
0000
0100
0000
1000
0100
0010
0000
,
0100
0100
0010
0010
1000
1000
0001
0001
,
0010
0100
1000
0001
0100
0010
1000
0100
0010
0001
0010
0100
2000
0000
0001
0000
,
3010
0000
0000
0100
0000
0000
1001
0000
0000
1000
0000
0000
0100
0000
0010
0001
0000
0000
0020
0000
0000
1000
0000
0000
,
0130
0000
0000
0010
0000
0000
1001
0000
0000
1000
0000
0000
0010
0000
0100
0001
0000
0000
0010
0000
0100
1000
0000
0000
,
0100
0000
0000
0010
0000
0000
1001
0000
0000
1000
0000
0000
0010
0000
0100
0001
0000
0000
0200
0000
0000
1000
0000
0000
,
0310
0000
0000
0100
0000
0000
1001
0000
0000
1000
0000
0000
0100
0000
0010
0001
0000
0000
0100
0000
0010
1000
0000
0000
,
0010
0000
0000
0100
0000
0000
0101
0000
0000
1000
0000
0000
0001
0000
0010
0100
0000
0000
0020
0000
0000
1000
0000
0000
,
0031
0000
0000
1000
0000
0000
1010
0000
0000
0001
0000
0000
0100
0000
0001
0010
0000
0000
0100
0000
1000
0010
0000
0000
,
0100
0000
0000
0010
0000
0000
1010
0000
0000
0001
0000
0000
1000
0000
0100
0010
0000
0000
0200
0000
0000
0001
0000
0000
,
1300
0000
0000
0001
0000
0000
0101
0000
0000
1000
0000
0000
0010
0000
1000
0100
0000
0000
0010
0000
0001
0100
0000
0000
,
0001
0010
0100
1000
0010
0100
0010
0001
0010
1000
0100
0010
0001
0000
0001
0000
,
1000
0010
0100
0001
0010
0100
0010
1000
0010
0001
0100
0010
1000
0000
1000
0000
,
0010
0100
1000
0100
0010
1000
0100
0001
0100
0010
0100
1000
0001
0000
0001
0000
,
0100
0010
0001
0010
0100
0001
0010
1000
0010
0000
0100
0000
1000
0000
0001
0000
,
0200
0000
1000
0000
0000
0000
1300
0001
0010
0000
1000
0000
0001
0000
0010
0000
,
0200
0000
0001
0000
0000
0000
0301
1000
0010
0000
0001
0000
1000
0000
0010
0000
,
0100
0010
1001
0001
0010
1000
0010
0001
,
1000
0010
0100
0001
1000
0100
0010
0001
0100
0010
1000
0100
0010
0001
1000
0010
,
0220
0000
0000
0000
,
0330
0000
0000
0000
;

//---------------dance-double - Kekkle-BDP----------------
#NOTES:
     dance-double:
     Kekkle:
     Easy:
     7:
     :
00000000
00000000
00000000
00000000
,
00000000
00000000
00000000
00000000
,
00000000
00000000
00000000
00000000
,
00000000
00000000
00000000
00000000
,
00000000
00010000
00000000
00010000
,
00000000
00001000
00000000
00001000
,
00000000
00010000
00000000
00010000
,
00001000
00010000
00001000
00010000
,
00001000
00000000
00100000
00000000
00010000
00000000
00000000
00100000
,
01000000
10000000
00010000
00010000
,
01000000
00000000
00001000
00000000
00010000
00000000
00000000
00000100
,
00000010
00000000
00000001
00000000
00001000
00000001
00001000
00000000
,
00000001
00000000
00000100
00000000
00000010
00000000
00000000
00010000
,
00001000
01000000
00100000
00100000
,
10000000
00000000
01000000
00000000
00100000
00000000
00000000
00001000
,
00010000
00000000
00000100
00000000
00000010
00000100
00000010
00000000
,
00000001
00000000
00000100
00000000
00001000
00000000
00000000
00010000
,
00001000
00010000
00100000
00100000
,
10000000
00000000
01000000
00000000
00010000
00000000
00000000
00001000
,
00010000
00000000
00001000
00000000
00000010
00000100
00000010
00000000
,
00000001
00000000
00000010
00000000
00001000
00000000
00000000
00010000
,
00001000
00010000
01000000
01000000
,
10000000
00000000
00100000
00000000
00010000
00000000
00000000
00001000
,
00010000
00000000
00001000
00000000
00000100
00000010
00000100
00000000
,
00001001
00000000
00000001
00000010
,
00000200
00000000
00001300
00001000
,
00000001
00000000
00000100
00000000
,
00000010
00000000
00000100
00000000
00001000
00010000
00001000
00000000
,
00011000
00000000
00010000
00001000
,
02000000
00000000
00010000
03010000
,
10000000
00000000
01000000
00000000
,
00100000
00000000
00001000
00000000
00010000
00001000
00010000
00000000
,
00012000
00000000
00000000
00003100
,
00000001
00000000
00001000
00000100
,
00000020
00000000
00000000
00001030
,
00010000
00000000
00001000
00010000
,
00200000
00000000
00000000
10300000
,
00010000
00000000
00100000
01000000
,
00020000
00000000
00000000
00000000
,
00000000
00000000
00001000
00031000
,
00000010
00000001
00001000
00000010
,
00000001
00000010
00001000
00000001
,
00000020
00000000
00002030
00000000
,
00013000
01000000
20000000
00000000
,
30010000
01000000
10000000
01000000
,
00010000
10000000
01000000
00010000
,
00001000
00001000
00010000
00010000
,
00000100
00000000
00000010
00000000
00000001
00001000
00000001
00000000
,
00001000
00000000
00000001
00000000
00000100
00000010
00000100
00000000
,
00001000
00000000
00010000
00000000
00001000
00010000
00001000
00000000
,
00100000
00000000
00010000
00000000
00100000
01000000
00100000
00000000
,
00010000
00100000
10000000
00100000
,
01000000
00000000
00010000
00000000
00001000
00010000
00001000
00000000
,
00000100
00000000
00000001
00000000
00001000
00000001
00001000
00000000
,
00000001
00000000
00000010
00000000
00001000
00010000
00001000
00000000
,
00010000
01000000
10000000
00010000
,
10000000
00010000
10000000
00010000
10000000
00000000
00100000
00000000
,
00010000
00001000
00010000
00001000
00010000
00000000
00000100
00000000
,
00000010
00000001
00000010
00000001
00000010
00000000
00000001
00000000
,
00001000
00000010
00001000
00000010
00001000
00000000
00000010
00000000
,
00000000
00000100
00001000
00001000
,
00000000
00010000
00100000
00100000
,
10000000
00000000
00010000
00000000
,
10000000
00000000
01000000
00000000
00010000
00001000
00010000
00001000
,
00020000
00000000
00000000
00000000
,
00030000
00000000
00000000
00000000
;

//---------------dance-double - Kekkle-DDP----------------
#NOTES:
     dance-double:
     Kekkle:
     Medium:
     11:
     :
00000000
00000000
00000000
00000000
,
00000000
00000000
00000000
00000000
,
00000000
00000000
00000000
00000000
,
00000000
00000000
00000000
00000000
,
20000000
30100000
00000000
01100000
,
02000000
03001000
00000000
00011000
,
00010000
00010000
00001000
00001000
,
00000010
00000001
00001000
00000000
00000010
00001000
00000001
00000000
,
00000010
00000000
00000100
00000000
00000010
00001000
00000000
00010000
,
00001000
00000000
00010000
00000000
00100000
01000000
00100000
00000000
,
01000000
00000000
00100000
00000000
00010000
00001000
00000000
00100000
,
00001000
00000000
00010000
00000100
00010000
00000100
00000010
00000000
,
00000001
00000000
00001000
00000000
00000010
00000100
00000000
00001000
,
00010000
00000000
00100000
00000000
01000000
00100000
01000000
00000000
,
00010000
00000000
10000000
00000000
01000000
00010000
00000000
00001000
,
00010000
00000000
00000100
00001000
00000100
00001000
00000001
00000000
,
00001000
00000010
00000100
00000000
00001000
00010000
00000000
00100000
,
00010000
00000000
00001000
00000000
01000000
00010000
10000000
00000000
,
00010000
00100000
01000000
00000000
00010000
00001000
00000000
00100000
,
00001000
00000000
00010000
00000100
00001000
00000100
00000010
00000000
,
00000001
00001000
00000100
00000000
00000010
00001000
00000000
00010000
,
00001000
00000000
00010000
00000000
01000000
00100000
00010000
00000000
,
10000000
00010000
01000000
00000000
00100000
00010000
00000000
00001000
,
00010000
00000000
00000100
00001000
00000001
00000100
00000010
00001000
,
00000020
00000000
00000000
00000130
00001000
00010000
00001000
00010000
,
02000000
00000000
03100000
00010000
10000000
00100000
00010000
00000000
,
00001000
00100000
00001000
00010000
,
00000100
00001000
00000001
00000000
00000100
00000010
00001000
00000000
,
00000002
00000000
00000000
00000013
00000100
00010000
00000010
00000100
,
00002000
00000000
00013000
00100000
10000000
00010000
00100000
00000000
,
00001000
00010000
00000010
00000000
00010000
00001000
00100000
00000000
,
00001000
00010000
00001000
00010000
00000100
00000010
00000001
00000000
,
00002001
00000000
00000000
00003010
,
00010000
00001000
00010000
00100000
,
20000000
00000000
00000000
00000000
00000000
00000000
30010000
00100000
,
00000000
00000000
00000000
01000000
00010000
00000000
00001000
00000000
,
00020000
00000000
00000000
00000000
00000000
00031000
00000100
00000000
,
00000002
00000000
00000000
00001003
00000100
00000000
00000010
00000000
,
00002000
00000000
00000000
00000000
,
00000000
00013000
00000000
00100000
00000000
10000000
00010000
00000000
,
10000000
01000000
00100000
00000000
01000000
00100000
00001000
00000000
,
00010000
00000010
00000100
00000000
00000010
00000100
00000001
00000000
,
00001000
00000100
00000001
00000100
,
00001000
00000010
00000200
00000000
,
00000310
00010000
00001000
00010000
00001000
00100000
00010000
00000000
,
00100000
00001000
00010000
00001000
00010000
00000010
00001000
00000000
,
00000100
00000010
00000001
00000000
00001000
00000010
00000100
00000000
,
00001000
00010000
00001000
00010000
00100000
01000000
00200000
00000000
,
10300000
00010000
00100000
01000000
00100000
10000000
00100000
00000000
,
00010000
00100000
00001000
00010000
00001000
00000100
00001000
00000000
,
00000100
00000001
00001000
00000100
00000010
00001000
00000010
00000000
,
00000100
00001000
00000010
00000000
00000100
00000001
00000010
00000000
,
00000001
00001000
00000010
00000100
00000010
00000001
00000010
00000000
,
00000100
00000010
00000100
00001000
00010000
00100000
00010000
00000000
,
00001000
00100000
00010000
00100000
01000000
00010000
01000000
00000000
,
00100000
00010000
01000000
00000000
00100000
10000000
01000000
00000000
,
10000000
01000000
00100000
10000000
00100000
00001000
00010000
00010000
,
00001000
00000100
00000010
00000001
00000010
00001000
00000001
00000001
,
00001000
00000100
00000010
00001000
00000010
00000100
00010000
00010000
,
00001000
01000000
00100000
00010000
00100000
10000000
00010000
00100000
,
00000000
01100000
00000000
01000000
00010000
00001000
00010000
00000010
,
00000000
00000110
00000000
00000100
00001000
00010000
00001000
00100000
,
01000000
10000000
00010000
01000000
,
00100000
00010000
00001000
00000100
00000010
00001000
00000001
00000000
,
00002002
00000000
00000000
00000000
,
00003003
00000000
00000000
00000000
;

//---------------dance-double - Kekkle-EDP----------------
#NOTES:
     dance-double:
     Kekkle:
     Hard:
     14:
     :
00000000
00000000
00000000
00000000
,
00000000
00000000
00000000
00000000
,
00000000
00000000
00000000
00000000
,
00000000
00000000
00000000
00000000
,
10000000
00000000
00000000
00000000
01000000
00000000
00000000
00010000
00000000
00000000
00000000
00000000
00011000
00000000
00000000
00000000
,
00000001
00000000
00000000
00000000
00000100
00000000
00000000
00001000
00000000
00000000
00000000
00000000
00011000
00000000
00000000
00000000
,
00010000
00100000
00010000
00000000
00001000
00000010
00001000
00000000
,
00010000
00001000
00010000
00000000
00001000
00000000
01000000
00000000
00100000
10000000
00100000
10000000
00200000
00000000
00000000
00000000
,
01300000
00000000
00000000
00010000
00000000
10000000
00000000
01000000
00010000
00000000
00002000
00000000
00000000
00000000
00103000
00000000
,
00001000
00000000
00000000
00010000
00000000
00001000
00000100
00000000
00000001
00000000
00000100
00000000
00001000
00000000
00010000
00000000
,
00000100
00000000
00000000
00001000
00000000
00000001
00000000
00000100
00001000
00000000
00020000
00000000
00000000
00000000
00031000
00000000
,
00010000
00000000
00000000
00001000
00000000
00100000
01000000
00000000
10000000
00000000
00010000
00000000
01000000
00100000
01000000
00000000
,
00100000
00000000
00000000
00010000
00000000
00001000
00000000
00100000
00001000
00000000
00000020
00000000
00000000
00000000
00000130
00000000
,
00001000
00000000
00000000
00000001
00000000
00000100
00000010
00000000
00000100
00000000
00001000
00000000
00010000
00000000
00001000
00000000
,
00000100
00000000
00000000
00001000
00000000
00010000
00000000
00000100
00010000
00000000
02000000
00000000
00000000
00000000
03100000
00000000
,
00010000
00000000
00000000
10000000
00000000
00100000
01000000
00000000
00100000
00000000
00010000
00001000
00010000
00000000
00001000
00000000
,
00000010
00000000
00000002
00000000
00000000
00000000
00000203
00000000
00000000
00000000
00020300
00000000
00000000
00000000
01030000
00100000
,
01000000
00000000
00020000
00000000
00000000
00000000
20030000
00000000
00000000
00000000
32000000
00000000
00000000
00000000
03001000
00000100
,
00001000
00000000
00000002
00000000
00000000
00000000
00000203
00000000
00000000
00000000
00020300
00000000
00000000
00000000
00031000
00000010
,
00001000
00000000
00000002
00000000
00000000
00000000
00000023
00000000
00000000
00000000
00002030
00000000
00000000
00000000
00103000
00010000
,
00100000
00000000
02000000
00000000
00000000
00000000
03002000
00000000
00000000
00000000
00003200
00000000
00000000
00000000
00010300
00001000
,
00010000
00000000
00000020
00000000
00000000
00000000
00000032
00000000
00000000
00000000
00002003
00000000
00000000
00000000
00013000
00000010
,
00010000
00000000
00200000
00000000
00000000
00000000
00320000
00000000
00000000
00000000
20030000
00000000
00000000
00000000
31000000
00010000
,
01000000
00000000
00002000
00000000
00000000
00000000
00023000
00000000
00000000
00000000
00031000
00000000
00100000
00000000
00001000
00010000
,
00002000
00000000
00000000
00000000
00000000
00003100
00000000
00000001
00000000
00001000
00000001
00001000
00000000
00000100
00000010
00000000
,
00002000
00000000
00013000
01000000
10000000
00100000
00010000
00001000
,
00200000
00000000
00001000
00301000
00010000
00001000
00000010
00000001
,
00000000
00000000
00001000
00000010
00001000
00000000
00000010
00000000
00000100
00001000
00010000
00000000
00001000
00000000
00001000
00000000
,
00020000
00000000
00000000
00000000
00000000
01030000
00000000
10000000
00000000
00010000
10000000
00010000
00000000
01000000
00100000
00000000
,
00020000
00000000
00031000
00000100
00000001
00000010
00001000
00010000
,
00001000
00100000
00001000
00000000
00010000
00000000
01000000
00000000
00010000
00001000
00010000
00000000
00001000
00000000
00000100
00000000
,
00000001
00000100
00000001
00000000
00000010
00001000
00000010
00000000
00001000
00010000
01000000
00000000
00100000
00010000
10000000
00000000
,
00200000
00000000
00000000
00000000
00000000
00000000
00000000
00000000
00000000
00000000
00000000
00000000
01300000
00000000
00010000
10000000
,
00010000
00000000
00000000
00010000
00000000
00000000
00010000
00000000
00000000
00000000
00100000
00000000
01000000
00000000
00010000
00000000
,
00002000
00000000
00000000
00000000
00000000
00000000
00000000
00000000
00000000
00000000
00003010
00000000
00000001
00000000
00001000
00000020
,
00000000
00000000
00000000
00000130
00001000
00010000
00100000
01000000
,
00002000
00000000
00000000
00000000
00000000
00013000
01000000
10000000
,
00020000
00000000
00000000
01030000
00100000
00001000
00000010
00000100
,
00000001
00001000
00000000
00002000
00000000
00000000
00000000
00000000
00000000
00000000
00000000
00000000
00000000
00000000
00000000
00000000
,
00000000
00000000
00003001
00000000
00000000
00000000
00001000
00000001
00000000
00000000
00000100
00000000
00000010
00000000
00000100
00000000
,
00001000
00010000
00100000
00001000
00010000
01000000
00010000
10000000
,
01000000
00010000
00001000
00100000
00010000
00001000
00000100
00000010
,
00000002
00000000
00001003
00000010
00000200
00000000
00001300
00010000
,
00100000
01000000
10000000
01000000
00020000
00000000
00000000
10030000
,
01000000
00010000
00001000
01000000
00010000
00001000
00000010
00000100
,
00010000
00001000
00000010
00010000
00001000
00000010
00000001
00001000
,
00000020
00000000
00000000
00010030
00000000
00001000
00000000
00001000
,
00100000
00010000
00100000
00000000
01000000
10000000
01000000
00000000
00010000
00001000
00100000
00000000
00001000
00000000
00001000
00000000
,
00010000
00100000
10000000
00100000
00010000
00001000
00000100
00000100
,
00000001
00000010
00001000
00010000
01000000
00010000
00001000
00001000
,
00010000
01000000
10000000
01000000
00010000
00001000
00000010
00000010
,
00000001
00000100
00000010
00000100
00010000
01000000
00100000
01000000
,
10000000
01000000
00010000
10000000
01000000
00010000
00001000
00001000
,
00000010
00000001
00001000
00000010
00000100
00010000
01000000
00100000
,
00010000
00100000
10000000
00010000
00100000
10000000
00010000
00010000
,
01000000
00100000
00001000
00010000
00000010
00000100
00001000
00010000
,
00100000
01000000
00100000
00000000
00010000
00000000
00001000
00000000
00000100
00000010
00000100
00000000
00000001
00000000
00000001
00000000
,
00000010
00000100
00000010
00000000
00001000
00000000
00010000
00000000
01000000
00100000
01000000
00000000
10000000
00000000
10000000
00000000
,
00010000
01000000
00100000
00000000
00010000
00001000
00010000
00000000
00001000
00000100
00000010
00000000
00001000
00000000
00001000
00000000
,
00000100
00000010
00001000
00000000
00010000
00001000
00010000
00000000
01000000
00000000
10000000
00000000
00100000
00000000
00010000
00000000
,
00000000
00000000
00011000
00000000
00000000
00000000
00001000
00000100
00000010
00000000
00001000
00000000
00000001
00000000
00000010
00000000
,
00000000
00000000
00011000
00000000
00000000
00000000
00010000
01000000
00100000
00000000
00010000
00000000
10000000
00000000
00100000
00000000
,
00020000
00000000
00031000
00000000
00000100
00000010
00001000
00000000
,
00000001
00000010
00000001
00000010
00001000
00000010
00001000
00000000
00010000
00001000
00010000
00100000
10000000
00100000
10000000
00000000
,
20020000
00000000
00000000
00000000
,
30030000
00000000
00000000
00000000
;

//---------------dance-double - Kekkle-CDP----------------
#NOTES:
     dance-double:
     Kekkle:
     Challenge:
     16:
     :
00000000
00000000
00000000
00000000
,
00000000
00000000
00000000
00000000
,
00000000
00000000
00000000
00000000
,
00000000
00000000
00000000
00000000
,
00021000
00000000
00000000
00000000
00001000
00000000
00000000
00130000
00000000
00000000
00010000
00000000
00011000
00000000
00000000
00000000
,
00002000
00000000
00000000
00000000
00010000
00000000
00000000
00003010
00000000
00000000
00001000
00000000
00011000
00000000
00000000
00000000
,
00010000
00100000
10000000
00010000
10000000
01000000
00010000
00001000
,
00000010
00000001
00001000
00000010
00000100
00000010
00010000
00001000
00100000
00010000
10000000
00100000
01000000
00100000
00010000
00001000
,
00000100
00000000
00000000
00000001
00000000
00001000
00000000
00000100
00000001
00000000
00000200
00000000
00000000
00000000
00010300
00000000
,
00001000
00000000
00000000
01000000
00000000
00010000
10000000
00010000
00100000
00000000
10000000
00000000
00100000
00000000
01000000
00010000
,
00001000
00000000
00000000
00010000
00000000
00000100
00000000
00000010
00001000
00000000
00000020
00000000
00000000
00000000
00000031
00000000
,
00001000
00000000
00000000
00000000
00000000
00000000
00000010
00000000
00000000
00000000
00000100
00000000
00000001
00000000
00001000
00000000
00000100
00000000
00000010
00000000
00001000
00000000
00010000
00000000
01000000
00100000
01000000
00000000
00100000
00000000
00000000
00000000
,
01000000
00000000
00000000
10000000
00000000
00010000
00000000
01000000
10000000
00000000
02000000
00000000
00000000
00000000
03001000
00000000
,
00010000
00000000
00000000
00000100
00000000
00001000
00000001
00001000
00000010
00000000
00000001
00000000
00000010
00000000
00000100
00001000
,
00010000
00000000
00000000
00001000
00000000
01000000
00000000
00100000
00010000
00000000
00200000
00000000
00000000
00000000
10300000
00000000
,
00010000
00000000
00000000
00100000
00000000
01000000
10000000
00010000
01000000
00100000
00010000
00001000
00000200
00000000
00000310
00000000
,
00001000
00000000
00001000
00000001
00000000
00000010
00000000
00001000
00010000
00000000
00002000
00000000
00000000
00000000
00003010
00000000
,
00001000
00000000
00001000
00010000
00000000
00100000
00010000
00100000
01000000
00000000
10000000
00000000
01000000
00000000
00010000
10000000
,
01000000
00100000
00010000
10000000
00100000
01000000
00001000
00010000
01000000
00000000
00020000
00000000
00000000
00000000
00031000
00000000
,
00000010
00000000
00000000
00000000
00000010
00000000
00000001
00000000
00000000
00000000
00001000
00000000
00000010
00000000
00000100
00000000
00000001
00000000
00001000
00000000
00000100
00000000
00000010
00000000
00001000
00010000
00001000
00000000
00100000
00000000
00000000
00000000
,
00010000
00000000
00010000
10000000
00000000
00100000
00000000
00010000
00001000
00000000
00020000
00000000
00000000
00000000
00130000
00000000
,
00010000
00000000
00010000
00001000
00000000
00000010
00001000
00000010
00000100
00000000
00000001
00000000
00000100
00000000
00001000
00000001
,
00000100
00000000
00000100
00001000
00000000
00010000
00000000
00100000
00010000
00000000
00002000
00000000
00000000
00000000
00013000
00000000
,
00100000
00000000
00000000
00000000
00100000
00000000
10000000
00000000
00000000
00000000
00010000
00000000
00100000
00000000
01000000
00000000
10000000
00000000
00010000
00000000
01000000
00000000
00100000
00000000
00010000
00002000
00000000
00000000
00003100
00000000
00000010
00000000
,
00010000
00000000
00000000
00010000
00000000
00001000
00020000
00100000
00000000
00031000
01000000
00010000
10000000
01000000
00100000
01000000
,
00020000
00000000
00000000
00000000
01030000
10000000
00010000
01000000
00100000
00100000
00010000
00000000
00100000
00000000
01000000
00000000
,
00002000
00000000
00000000
00000000
00000000
00000000
00013000
00000100
00010000
00000000
00000000
00000000
00010000
00000000
00000000
00000000
00001000
00000000
00000100
00000000
00000001
00000000
00001000
00000000
00000100
00000000
00000000
00000000
00000010
00000000
00000000
00000000
,
00001000
00000000
00010000
00001000
00100000
00000000
00010000
00000000
10000000
00100000
00010000
00100000
10000000
00000000
00010000
00000000
,
00100000
00000000
00000000
00100000
00000000
00001000
00020000
00000010
00000000
00031000
00000010
00000001
00001000
00000010
00000100
00000010
,
00000002
00000000
00000000
00000000
00000013
00001000
00000001
00000010
00000100
00000100
00000001
00000000
00000100
00000000
00001000
00000000
,
00000010
00000000
00010000
00001000
00100000
00010000
10000000
00100000
01000000
00010000
00100000
00010000
01000000
00100000
10000000
00010000
,
00100000
00000000
00000000
01000000
00000000
00000000
00100000
00000000
00000000
00001000
00000000
00000000
00010000
00000000
00000000
00000010
00000000
00000000
00001000
00000000
00000000
00000100
00000000
00000000
00000010
00000000
00000000
00000001
00000000
00000000
00001000
00000000
00000000
00000010
00000000
00000000
00010000
00000000
00001000
00000000
00010000
00000000
00001000
00000000
00010000
00000000
00001000
00000000
,
00020000
00000000
00000000
00000000
00000000
00000000
00000000
00000000
00000000
00000000
00000000
00000000
00031000
00000000
00001000
00010000
,
00100000
00000000
00000000
00100000
00000000
00000000
00100000
00000000
00000000
00000000
10000000
00000000
00010000
00000000
00100000
01000000
,
00020000
00000000
00000000
00000000
00000000
00000000
00000000
00000000
00000000
00000000
00031000
00000000
00100000
00000000
00001000
00020000
,
00000000
00000000
00000000
00000000
00000000
00000000
00031000
00000000
00000100
00001000
00000100
00000000
00000001
00000000
00001000
00000000
,
00000200
00000000
00000000
00000000
00000000
00000310
00001000
00000001
,
00000200
00000000
00000000
00000000
00000000
00000000
00010300
00001000
00100000
00000000
00100000
00000000
00100000
00000000
00010000
00000000
,
10000000
00100000
00000000
00200000
00000000
00000000
00000000
00000000
00000000
00000000
00000000
00000000
00000000
00000000
00000000
00000000
,
00000000
00000000
01300000
00000000
00000000
00000000
00010000
10000000
00000000
00000000
01000000
00000000
00100000
00000000
00001000
00000000
,
00010000
00000000
00100000
00000000
10000000
00000000
00010000
00100000
10000000
00000000
00100000
00000000
00001000
00000000
00010000
00000000
,
00001000
00000000
00000100
00000000
00000001
00000000
00001000
00000100
00000001
00000000
00000100
00000000
00010000
00000000
00001000
00000000
,
00020000
00000000
00130000
01000000
20000000
00000000
31000000
00010000
,
10000000
01000000
00010000
01000000
20000000
00000000
30010000
01000000
,
10000000
00000000
01000000
00000000
00010000
00000000
10000000
01000000
00010000
00000000
01000000
00000000
00100000
00001000
00010000
00000000
,
00001000
00000000
00000100
00000000
00000001
00000000
00001000
00000100
00000001
00000000
00000100
00000000
00000010
00000100
00010000
00001000
,
00010000
00100000
10000000
00010000
10000000
01000000
00010000
00001000
,
00100000
00001000
00010000
00000010
00001000
00000100
00000010
00000001
00001000
00000010
00010000
00001000
00200000
00000000
00010000
00000000
,
01300000
00000000
00000000
10000000
00000000
00000000
10010000
00000000
00000000
00010000
00000000
00000000
01000000
00000000
00100000
00010000
00000000
00000000
00001000
00000000
00000000
00000100
00000000
00000000
,
00000010
00000000
00000000
00001000
00000000
00000000
00001001
00000000
00000000
00000001
00000000
00000000
00000010
00000000
00000100
00001000
00000000
00000000
00000010
00000000
00000100
00000001
00000000
00000000
,
00000100
00000000
00000000
00000001
00000000
00000000
00001001
00000000
00000000
00001000
00000000
00000000
00000100
00000000
00000010
00001000
00000000
00000000
00010000
00000000
00000000
01000000
00000000
00000000
,
00100000
00000000
00000000
00010000
00000000
00000000
10010000
00000000
00000000
10000000
00000000
00000000
00100000
00000000
01000000
00010000
00000000
00000000
00100000
00000000
01000000
10000000
00000000
00000000
,
00010000
00000000
00000000
01000000
00000000
00000000
01100000
00000000
00000000
00100000
00000000
00000000
00010000
00000000
00001000
00000100
00000000
00000000
00001000
00000000
00000000
00010000
00000000
00000000
,
00000100
00000000
00000000
00000010
00000000
00000000
00001001
00000000
00000000
00000001
00000000
00000000
00000010
00000000
00000001
00000100
00000000
00000000
00000010
00000000
00001000
00000100
00000000
00000000
,
00001000
00000000
00000000
00000100
00000000
00000000
00000110
00000000
00000000
00000010
00000000
00000000
00001000
00000000
00010000
01000000
00000000
00000000
00010000
00000000
00000000
00001000
00000000
00000000
,
01000000
00000000
00000000
00100000
00000000
00000000
10010000
00000000
00000000
10000000
00000000
00000000
00100000
00000000
10000000
01000000
00000000
00000000
00100000
00000000
00010000
01000000
00000000
00000000
,
00100000
10000000
00010000
00100000
00001000
00010000
00000010
00000001
00000010
00000100
00000001
00001000
00000100
00000000
00000100
00000000
,
00000010
00000001
00001000
00000010
00010000
00001000
00100000
10000000
00100000
00010000
10000000
00100000
01000000
00000000
01000000
00000000
,
00100000
01000000
10000000
01000000
00100000
00010000
00001000
00000100
00001000
00010000
00000100
00000010
00000001
00000000
00000001
00000000
,
00000010
00000100
00000001
00000100
00000010
00001000
00010000
01000000
00010000
00000000
00001000
00000000
01000000
00000000
00100000
00000000
,
00020000
00000000
00001000
00000000
00000000
00000000
00031000
00000100
00000001
00000000
00001000
00000000
00000100
00000000
00000010
00000000
,
00002000
00000000
00010000
00000000
00000000
00000000
00013000
01000000
10000000
00000000
00010000
00000000
01000000
00000000
00100000
00000000
,
00010000
00001000
00011000
00010000
00000100
00000001
00000100
00000010
,
00000001
00001000
00000010
00000100
00001000
00010000
00100000
10000000
00010000
10000000
01000000
00010000
00001000
00000010
00000001
00001000
,
00002002
00000000
00000000
00000000
,
00003003
00000000
00000000
00000000
;
