#VERSION:0.83;
#TITLE:Tesseract;
#ARTIST:kyo;
#BANNER:Tesseract.png;
#BACKGROUND:Tesseract-bg.png;
#JACKET:Tesseract-jacket.png;
#MUSIC:Tesseract.ogg;
#OFFSET:-0.049;
#SAMPLESTART:33.630566;
#SAMPLELENGTH:15;
#BPMS:0=150;

//---------------dance-single - NewbStepper-bSP----------------
#NOTEDATA:;
#CHARTNAME:NewbStepper-bSP;
#STEPSTYPE:dance-single;
#DESCRIPTION:NewbStepper-bSP;
#DIFFICULTY:Beginner;
#METER:2;
#RADARVALUES:0.123084,0.215100,0.055331,0.071140,0,109,102,7,9,0,0,0,0,0,0.123084,0.215100,0.055331,0.071140,0,109,102,7,9,0,0,0,0,0;
#CREDIT:NewbStepper;
#NOTES:
0000
0000
0000
0000
,
0000
0000
0000
0000
,
0000
0000
0000
0000
,
0000
0000
0000
0000
,
0000
0000
0000
0000
,
1000
0000
0000
0000
,
0000
0000
0000
0000
,
0001
0000
0000
0000
,
0000
0000
0000
0000
,
1000
0000
0001
0001
,
0001
0000
0000
0000
,
1001
0000
1000
1000
,
1000
0000
0000
0000
,
0010
0000
0000
0000
,
0100
0100
0000
0000
,
0010
0010
0000
0000
,
1000
0000
0000
0000
,
0001
0001
0000
0000
,
1000
0000
0000
0000
,
0010
0010
0000
0000
,
0100
0000
0000
0000
,
0001
0000
0001
0000
,
0001
0000
0001
0000
,
0002
0000
0000
0003
,
0100
0000
0100
0000
,
1000
0000
1000
0000
,
1000
0000
1000
0000
,
2000
0000
3000
0000
,
0100
0000
0000
0000
,
0001
0000
1000
0000
,
0001
0000
0000
0000
,
1000
0000
0001
0000
,
1000
0000
0000
0000
,
0010
0000
0100
0000
,
0010
0000
0000
0000
,
0100
0000
0010
0000
,
0100
0000
0000
0000
,
2002
0000
0000
3003
,
0000
0000
0000
0000
,
0000
0000
0000
0000
,
0000
0000
0000
0000
,
0000
0000
0000
0000
,
0000
0000
0000
0000
,
0000
0000
0000
0000
,
0000
0000
0000
0000
,
1001
0000
0000
0000
,
0000
0000
0000
0000
,
1000
0000
0000
0000
,
0000
0000
0000
0000
,
1001
0000
0000
0000
,
1001
0000
0000
0000
,
0001
0000
1000
1000
,
1000
0000
0000
0000
,
0001
0000
0001
0000
,
0100
0000
0100
0000
,
1000
0000
1000
0000
,
0010
0000
0010
0000
,
0001
0000
0001
0000
,
1000
0000
1000
0000
,
0020
0000
0030
0000
,
0200
0000
0300
0000
,
0001
0001
0001
0000
,
0100
0100
0100
0000
,
1000
1000
1000
0000
,
0010
0010
0010
0000
,
0001
0001
0000
0000
,
0100
0100
0000
0000
,
0010
0010
0000
0000
,
2000
0000
3000
0000
,
0001
0000
1000
0000
,
0001
0000
0000
0000
,
1000
0000
0001
0000
,
1000
0000
0000
0000
,
0010
0000
0100
0000
,
0010
0000
0000
0000
,
1000
0000
0001
0000
,
1001
0000
0000
0000
,
2002
0000
0000
3003
;

//---------------dance-single - NewbStepper-ESP----------------
#NOTEDATA:;
#CHARTNAME:NewbStepper-ESP;
#STEPSTYPE:dance-single;
#DESCRIPTION:NewbStepper-ESP;
#DIFFICULTY:Hard;
#METER:15;
#RADARVALUES:0.693333,0.832339,0.165993,0.308274,0.936677,614,593,21,39,0,0,0,0,0,0.693333,0.832339,0.165993,0.308274,0.936677,614,593,21,39,0,0,0,0,0;
#CREDIT:NewbStepper;
#NOTES:
0000
0000
0000
0000
,
0000
0000
0000
0000
,
0000
0000
0000
0000
,
0000
0000
0000
0000
,
0000
0000
0000
0000
,
1000
0000
0010
0000
0000
0100
0000
0000
0001
0000
0100
0010
0000
0010
1000
0000
,
0001
0000
0010
0000
0000
0100
0000
1000
0001
0000
0001
0010
0000
0010
0001
0200
,
0000
0000
0000
0000
,
0300
0000
0000
0000
0000
0000
0010
1000
0001
0010
0100
1000
0001
0100
0010
0000
,
1010
0010
1000
0001
,
0011
0010
0001
1000
,
1001
0000
1000
0000
0001
0000
0010
0001
1000
0001
1000
0010
1000
0010
0100
0000
,
0220
0000
0000
0330
,
1001
0000
0000
0000
0100
0000
0010
1000
0000
1000
0100
0000
0010
0001
0010
0001
,
0200
0000
0000
0300
0010
1000
0010
1000
0100
0000
0010
0001
2000
0000
0000
0000
,
3002
0000
0000
0003
1000
0100
1000
0100
0010
0000
0001
1000
0010
1000
0001
0010
,
0100
0000
1000
0010
0100
0001
0010
0100
0010
0000
0000
0000
0110
0000
0000
0000
,
1001
0000
0000
0000
0100
0000
0010
0001
0000
0001
0100
0000
0010
1000
0010
1000
,
0200
0000
0000
0300
0010
0001
0010
0001
0100
0000
0010
1000
0002
0000
0000
0000
,
2003
0000
0000
3000
0010
0100
0010
0100
0001
0000
1000
0100
1000
0001
0100
0001
,
1000
0000
0010
1000
0010
1000
0001
0010
0001
0010
0100
0000
1001
0000
0000
0000
,
0010
0000
1000
0000
0000
0100
0000
0000
0001
0000
0100
1000
0000
1000
0100
0000
,
0010
0000
0001
0000
0000
1000
0000
1000
0001
0000
0100
0010
0000
0010
1000
0100
,
0010
0000
0001
0000
0000
0100
0000
0000
1000
0000
0100
0001
0000
0001
0100
0000
,
0010
0000
1000
0000
0000
0001
0000
1000
0001
1000
0100
0000
1000
0001
0100
0000
,
0100
0000
0001
0000
0000
0010
0000
0000
1000
0000
0010
0001
0000
0001
0010
0000
,
0100
0000
1000
0000
0000
0010
0000
1000
0001
0000
0010
0001
0000
0001
1000
0010
,
0200
0000
0000
0300
0001
0100
0001
0100
0010
0000
1010
0000
1010
0000
1000
0100
,
0010
0000
0110
0000
0001
0100
0010
1000
0010
0000
0110
0000
1001
0000
0000
0000
,
1010
0010
1000
0100
0010
0001
0100
0001
,
0101
0100
1000
0100
0010
1000
0001
0010
,
0011
0001
0100
1000
0100
0001
0100
0010
,
1000
0000
0001
0000
0010
0000
0001
0000
1000
0001
0100
0000
0001
1000
0100
0000
,
1000
0000
0010
0000
1000
0100
0000
0100
0010
0000
0010
0001
0000
0001
0100
0000
,
0101
0000
0001
0000
0010
0001
0000
0001
0100
0000
0100
0010
0000
0010
1000
0100
,
0010
0000
0001
0000
0000
0100
0000
0000
0010
0000
1000
0100
0000
0010
0001
0000
,
1000
0000
0002
0000
0000
0003
0100
0010
1000
0010
0100
0001
1000
0100
0010
0001
,
0200
0000
0000
0000
0000
0000
0000
0000
0310
0000
0000
1000
0000
0000
0100
0000
,
0002
0000
0000
0000
0003
0000
1000
0010
0002
0000
0000
0000
0103
0000
0010
0000
,
2000
0000
0000
0000
0000
0000
0000
0000
3010
0000
0000
1000
0000
0000
0001
0000
,
0020
0000
0000
0000
0030
0000
0001
1000
0200
0000
0000
0000
0310
0000
0001
0000
,
2000
0000
0000
0000
0000
0000
0000
0000
3010
0000
0000
1000
0000
0000
0001
0000
,
0020
0000
0000
0000
0000
0000
0000
0000
0000
0000
0000
0000
0030
0000
0001
0100
,
0001
1000
0100
1000
0001
0100
0001
1000
0100
0010
0001
1000
0010
0100
0001
0010
,
0100
0000
0000
1000
0000
0010
0000
0100
0000
0100
0000
0001
1000
0000
1000
0000
,
2020
0000
0000
3000
,
0200
0000
0000
0030
,
0002
0000
0000
0300
,
2000
0000
0000
3003
,
1001
0010
0010
0010
,
1001
0100
0100
0100
,
0001
1000
0000
1000
0001
1000
0000
1000
0001
1000
0001
0010
0001
0010
0100
0000
,
0220
0000
0000
0330
,
0001
1000
0000
1000
0000
0100
0000
0010
0000
0001
0100
0000
0010
0000
1000
0001
,
1000
0001
0000
0001
0000
0100
0000
0010
0000
1000
0100
0000
0010
0000
0001
0000
,
1000
0100
0000
0001
0000
0100
0020
0000
0000
0000
0031
0000
1000
0010
0100
0000
,
0001
0100
0000
1000
0000
0000
0200
0000
0000
0000
0310
0000
1000
0001
1000
0000
,
0010
0100
0000
0100
0000
0001
0000
1000
0000
0010
0100
0000
0001
0000
1000
0100
,
0010
0100
0000
0100
0000
1000
0000
0001
0000
0010
0100
1000
0001
0100
0000
0010
,
1000
0001
0000
0010
0000
0000
0200
0000
0000
0000
1300
0000
0001
0010
0100
0000
,
1000
0001
0000
0100
0000
0000
0020
0000
0000
0030
1000
0001
0100
0001
1000
0000
,
0001
1000
0000
0010
0000
1000
0000
0002
0000
0003
1000
0100
0010
0100
1000
0100
,
1000
0001
0000
0010
0000
0001
0000
2000
0000
3000
0001
0010
0100
1000
0000
0001
,
0100
1000
0000
0100
0000
0010
2000
0000
0000
0000
3001
0000
0100
0010
0100
0000
,
1000
0100
0000
0001
0000
0010
0002
0000
0000
0003
1000
0100
0010
0001
0100
0010
,
1000
0001
0000
0010
0000
0001
0000
2000
0000
3000
0001
0100
0010
0100
0001
0100
,
0001
1000
0000
0010
0000
1000
0000
0002
0000
0003
1000
0010
0100
0001
0000
1000
,
0100
0001
0000
0100
0000
0010
0002
0000
0000
0000
1003
0000
0100
0010
0100
0000
,
0001
0100
0000
1000
0000
0010
2000
0000
0000
3000
0001
0100
0010
1000
0001
0000
,
1000
0000
0100
0000
0000
0001
0000
0000
1000
0000
0010
0001
0000
0001
1000
0000
,
0001
0000
0010
0000
0000
1000
0000
0010
0100
0000
1000
0001
0000
0100
0010
1000
,
0001
0000
0100
0000
0000
1000
0000
0000
0001
0000
0010
1000
0000
1000
0001
0000
,
1000
0000
0010
0000
0000
0001
0000
0010
0100
0001
1000
0100
0010
0001
1000
0010
,
0100
0000
0001
0000
1000
0000
0001
0000
0100
0000
0010
1000
0000
0001
0010
0000
,
0100
0000
1000
0000
0001
0000
1000
0100
0010
0000
0001
0100
0000
0100
0010
1000
,
0001
0010
1000
0010
0001
0100
1000
0100
,
0001
1000
0100
1000
0001
0100
0001
1000
0010
0100
0001
0010
0100
1000
0001
0100
,
0020
0000
0000
0000
,
0030
0000
0000
0000
;

//---------------dance-single - NewbStepper-DSP----------------
#NOTEDATA:;
#CHARTNAME:NewbStepper-DSP;
#STEPSTYPE:dance-single;
#DESCRIPTION:NewbStepper-DSP;
#DIFFICULTY:Medium;
#METER:11;
#RADARVALUES:0.456200,0.524065,0.110662,0.205516,0.003952,404,390,14,26,0,0,0,0,0,0.456200,0.524065,0.110662,0.205516,0.003952,404,390,14,26,0,0,0,0,0;
#CREDIT:NewbStepper;
#NOTES:
0000
0000
0000
0000
,
0000
0000
0000
0000
,
0000
0000
0000
0000
,
0000
0000
0000
0000
,
0000
0000
0000
0000
,
0010
1000
0100
0100
,
0010
0001
0100
0100
,
0020
0000
0000
0000
,
0030
0000
0000
1000
0100
0010
0001
1000
,
0001
1000
0100
0000
1000
0001
0100
0000
,
1000
0100
0001
0000
0100
0010
1000
0001
,
0100
0100
0010
0010
,
0220
0000
0000
0330
,
1001
0000
0001
0100
0010
0100
0001
0000
,
1000
0000
0010
1000
0001
0100
0010
0000
,
2000
0000
3001
0100
0010
0100
1000
0100
,
0002
0000
1003
0100
0001
0100
1000
0000
,
1001
0000
1000
0100
0010
0100
1000
0000
,
0001
0000
0010
0001
1000
0100
0010
0000
,
0002
0000
0103
0010
1000
0100
0010
0001
,
0100
0000
0010
1000
0001
0010
0100
0000
,
1000
0010
0100
0000
0001
0000
1000
0001
,
0010
0001
1000
0000
0010
0000
0100
0000
,
0001
0010
0100
0000
1000
0000
0001
1000
,
0010
1000
0000
1000
0100
0001
0100
1000
,
0001
0010
0100
0000
1000
0000
0001
1000
,
0010
1000
0001
0000
0010
0000
0100
0000
,
1000
1100
0001
0101
,
0010
0010
0100
0100
0002
0000
1003
0000
,
0010
1000
0100
0000
0001
0100
1000
0010
,
0100
0001
1000
0000
0010
1000
0001
0000
,
0010
0001
0100
0000
1000
0100
0001
0010
,
0100
1000
0001
0000
0010
0001
1000
0010
,
0100
0001
0010
0000
1000
0010
0001
0100
,
0010
1000
0001
0000
0100
0001
1000
0000
,
0100
1000
0010
0000
0001
0010
1000
0100
,
0010
0001
1000
0000
0100
1000
0001
0100
,
0020
0000
2000
0030
,
3002
0000
0003
0100
0020
0000
1030
0001
,
0020
0000
0032
0000
,
2003
0000
3000
0100
0020
0000
0031
1000
,
0020
0000
0000
0000
0000
0000
0000
0000
0130
0000
0000
0001
0000
0000
1000
0000
,
0200
0000
0000
0000
0000
0000
0300
0010
,
0001
0100
1000
0010
,
0001
1000
0100
0010
,
2002
0000
3000
0000
,
0200
0000
0003
0000
,
2000
0000
0300
0000
,
0020
0000
3000
0000
,
0031
1000
0001
1000
,
0010
0100
0010
0100
,
0101
0001
0010
0000
1100
1000
0010
0000
,
0220
0000
0000
0330
,
1000
0100
0001
0000
0100
1000
0010
1000
,
0001
0100
1000
0000
0100
0001
0010
0001
,
1000
0010
0100
0001
1000
0000
1001
0000
,
0001
0010
0100
1000
0001
0000
1001
0000
,
0010
0001
1000
0010
0100
0010
1000
0000
,
0010
1000
0001
0010
0100
0010
0001
0000
,
0100
0001
0100
0010
0100
1000
0100
0000
,
0010
1000
0010
0100
0010
0001
0010
0000
,
1000
0100
0010
0001
1000
0010
0100
0000
,
0001
0100
0010
1000
0001
0010
0100
0000
,
1000
0001
0100
1000
0100
0001
1000
0000
,
0001
1000
0100
0001
0100
1000
0001
0000
,
1000
0100
0010
0001
1000
0010
1000
0001
,
1000
0010
0100
0001
1000
0100
0010
0001
,
0100
1000
0100
0001
0010
1000
0010
0001
,
1000
0100
0001
0100
1000
0010
0001
0010
,
1000
0010
0100
0000
0001
0000
1000
0001
,
0010
0001
1000
0000
0010
0000
0100
0000
,
0001
0010
0100
0000
1000
0000
0001
1000
,
0010
1000
0000
1000
0100
0001
0100
1000
,
0001
0010
0100
0000
1000
0000
0001
1000
,
0010
1000
0001
0000
0010
0000
0100
0000
,
1000
1100
0001
0101
,
0010
0010
0100
0100
0001
0100
1000
0100
,
0220
0000
0000
0000
,
0330
0000
0000
0000
;

//---------------dance-single - NewbStepper-BSP----------------
#NOTEDATA:;
#CHARTNAME:NewbStepper-BSP;
#STEPSTYPE:dance-single;
#DESCRIPTION:NewbStepper-BSP;
#DIFFICULTY:Easy;
#METER:6;
#RADARVALUES:0.243909,0.308274,0.134376,0.189707,0,216,199,17,24,0,0,0,0,0,0.243909,0.308274,0.134376,0.189707,0,216,199,17,24,0,0,0,0,0;
#CREDIT:NewbStepper;
#NOTES:
0000
0000
0000
0000
,
0000
0000
0000
0000
,
0000
0000
0000
0000
,
0000
0000
0000
0000
,
0000
0000
0000
0000
,
0010
0000
0010
0000
,
0100
0000
0100
0000
,
2002
0000
0000
0000
,
0000
0000
3003
0000
,
0001
0100
0010
0000
,
1000
0100
0010
0000
,
0110
0000
0001
1000
,
2002
0000
0000
3003
,
0100
0002
0000
0003
,
0100
2000
0000
3000
,
0100
0002
0000
0003
,
0220
0000
0000
0330
,
1001
2000
0000
3000
,
0010
0002
0000
0003
,
0010
2000
0000
3000
,
0220
0000
0000
0330
,
1000
0001
0100
0001
,
1000
0100
1000
0000
,
0001
1000
0100
1000
,
0001
0100
0001
0000
,
1000
0100
0010
0001
,
1000
0010
0100
0001
,
2002
0000
0000
3003
,
0001
0010
0100
1000
,
0001
0100
1000
0100
,
0001
0100
0010
0000
,
1000
0100
0001
0100
,
1000
0100
0010
0000
,
0001
0010
1000
0010
,
0001
0010
0100
0000
,
1000
0010
0001
0010
,
1000
0010
0100
0001
,
2002
0000
0000
0000
,
0000
0000
0000
0000
,
0000
0000
0000
0000
,
0000
0000
0000
3003
,
0000
0000
0000
0000
,
0220
0000
0000
0000
,
0000
0000
0000
0000
,
0000
0000
0000
0330
,
1000
1000
1000
1000
,
0001
0001
0001
0001
,
0100
0100
0100
0100
,
0010
0010
0010
0010
,
0110
0000
1000
0000
,
0110
0000
0001
0000
,
0110
0000
1000
0001
,
2002
0000
0000
3003
,
0010
1000
0010
1000
,
0001
0010
0001
0010
,
0100
1000
0100
1000
,
0001
0100
0001
0000
,
0010
0001
0010
0001
,
1000
0010
1000
0010
,
0100
0001
0100
0001
,
1000
0100
1000
0000
,
0001
0100
1000
0100
,
0001
0100
1000
0100
,
0001
1000
0100
0001
,
0100
1000
0001
0000
,
1000
0100
0001
0100
,
1000
0100
0001
0100
,
1000
0001
0100
1000
,
0100
0001
1000
0000
,
0001
1000
0100
1000
,
0001
0100
0001
0000
,
1000
0001
0100
0001
,
1000
0100
1000
0000
,
0001
0100
0010
1000
,
0001
0010
0100
1000
,
1001
0000
0110
0000
,
1001
0000
1000
0001
,
2002
0000
0000
0000
,
3003
0000
0000
0000
;

//---------------dance-double - NewbStepper-EDP----------------
#NOTEDATA:;
#CHARTNAME:NewbStepper-EDP;
#STEPSTYPE:dance-double;
#DESCRIPTION:NewbStepper-EDP;
#DIFFICULTY:Hard;
#METER:15;
#RADARVALUES:0.686558,0.832339,0.118567,0.308274,0.944582,608,593,15,39,0,0,0,0,0,0.686558,0.832339,0.118567,0.308274,0.944582,608,593,15,39,0,0,0,0,0;
#CREDIT:NewbStepper;
#NOTES:
// measure 0
00000000
00000000
00000000
00000000
,  // measure 1
00000000
00000000
00000000
00000000
,  // measure 2
00000000
00000000
00000000
00000000
,  // measure 3
00000000
00000000
00000000
00000000
,  // measure 4
00000000
00000000
00000000
00000000
,  // measure 5
00010000
00000000
00001000
00000000
00000000
00100000
00000000
00000000
01000000
00000000
10000000
00100000
00000000
00100000
01000000
00000000
,  // measure 6
00001000
00000000
00010000
00000000
00000000
00000010
00000000
00000100
00000001
00000000
00000001
00000010
00000000
00000010
00001000
00020000
,  // measure 7
00000000
00000000
00000000
00000000
,  // measure 8
00030000
00000000
00000000
00100000
10000000
01000000
00010000
00001000
,  // measure 9
00000110
00000001
00000100
00001000
,  // measure 10
01100000
10000000
01000000
00010000
,  // measure 11
00011000
00000000
00001000
00000000
00000010
00000000
00001000
00000000
00010000
00001000
00010000
00001000
00100000
00001000
00010000
00000000
,  // measure 12
00022000
00000000
00000000
00033000
,  // measure 13
00000010
00000000
00000000
00000000
00000001
00000000
00000100
00000010
00001000
00000000
00000100
00000010
00000001
00000000
00000100
00001000
,  // measure 14
00020000
00000000
00000000
00000000
00130000
10000000
00100000
10000000
01000000
00000000
00100000
00010000
20000000
00000000
00000000
00000000
,  // measure 15
32000000
00000000
00000000
00000000
03010000
00001000
00010000
00001000
00100000
00000000
00001000
00010000
00000010
00010000
00001000
00010000
,  // measure 16
00000100
00000000
00000010
00000001
00001000
00000001
00000010
00000000
00000110
00000000
00000000
00000000
00011000
00000000
00000000
00000000
,  // measure 17
01100000
00000000
00000000
00000000
10000000
00000000
01000000
00100000
00010000
00000000
01000000
00100000
10000000
01000000
00010000
00002000
,  // measure 18
00000000
00000000
00003000
00000000
00000010
00000001
00000010
00000001
00000100
00000000
00000010
00001000
00000002
00000000
00000000
00000000
,  // measure 19
00000203
00000000
00000000
00000000
00000310
00001000
00000010
00001000
00000100
00000000
00010000
00001000
00010000
00001000
00100000
00010000
,  // measure 20
10000000
00000000
00010000
01000000
00010000
01000000
00001000
00010000
00001000
00010000
00000100
00000000
00000110
00000000
00000000
00000000
,  // measure 21
00000001
00000000
00000100
00000000
00000000
00001000
00000000
00000000
00010000
00000000
00000000
00000010
00000000
00000000
00001000
00000000
,  // measure 22
00010000
00000000
00100000
00000000
00000000
01000000
00000000
00000000
10000000
00000000
01000000
00100000
00000000
00100000
01000000
00000000
,  // measure 23
10000000
00000000
01000000
00000000
00000000
00010000
00000000
00000000
00001000
00000000
00000000
00100000
00000000
00000000
00010000
00000000
,  // measure 24
00001000
00000000
00000010
00000000
00000000
00000100
00000000
00000001
00001000
00000001
00000010
00000100
00010000
00001000
01000000
00010000
,  // measure 25
10000000
00000000
01000000
00000000
00000000
00010000
00000000
00000000
00001000
00000000
00000000
00100000
00000000
00000000
00010000
00000000
,  // measure 26
00001000
00000000
00000010
00000000
00000000
00000100
00000000
00000001
00000010
00000000
00000010
00001000
00000000
00001000
00010000
00001000
,  // measure 27
00020000
00000000
00000000
00000000
00130000
00000000
10000000
00010000
10000000
00000000
00100000
00000000
00100000
00000000
00010000
00001000
,  // measure 28
00010000
00000000
00011000
00000000
00000010
00000100
00000010
00000100
00000001
00000000
00000101
00000000
00001001
00000000
00000000
00000000
,  // measure 29
00000010
00000000
00000001
00000000
00000100
00001000
00000000
00000000
00010000
00000000
00001000
00000010
00000000
00000010
00001000
00000000
,  // measure 30
00010000
00000000
00100000
00000000
00000000
10000000
00000000
00010000
00100000
00000000
01000000
10000000
00000000
00100000
01000000
00000000
,  // measure 31
00100000
00000000
10000000
00000000
01000000
00010000
00000000
00000000
00001000
00000000
00010000
00100000
00000000
00100000
00010000
00000000
,  // measure 32
00001000
00000000
00000010
00000000
00000000
00000001
00000000
00001000
00000010
00001000
00000001
00001000
00000100
00001000
00000001
00000100
,  // measure 33
00001000
00000000
00010000
00000000
00100000
10000000
00000000
10000000
01000000
00000000
01000000
00010000
00000000
00010000
00001000
00000000
,  // measure 34
00010000
00000000
00001000
00000000
00000010
00000001
00000000
00000001
00000100
00000000
00000100
00001000
00000000
00001000
00010000
00001000
,  // measure 35
00010000
00000000
00100000
00000000
00000000
10000000
00000000
00000000
00010000
00000000
01000000
00010000
00000000
10000000
01000000
00010000
,  // measure 36
00001000
00000000
00000010
00000000
00000000
00000001
00000100
00000001
00001000
00000100
00000010
00000100
00010000
00001000
00100000
00001000
,  // measure 37
00020000
00000000
00000000
00000000
00000000
00000000
00000000
00000000
00130000
00000000
00000000
10000000
00000000
00000000
01000000
00000000
,  // measure 38
00020000
00000000
00000000
00000000
00030000
00000000
00001000
00100000
00020000
00000000
00000000
00000000
00031000
00000000
00000100
00000000
,  // measure 39
00000020
00000000
00000000
00000000
00000000
00000000
00000000
00000000
00000130
00000000
00000000
00001000
00000000
00000000
00000001
00000000
,  // measure 40
00000200
00000000
00000000
00000000
00000300
00000000
00000001
00001000
00000200
00000000
00000000
00000000
00010300
00000000
00001000
00000000
,  // measure 41
02000000
00000000
00000000
00000000
00000000
00000000
00000000
00000000
03100000
00000000
00000000
10000000
00000000
00000000
00010000
00000000
,  // measure 42
00200000
00000000
00000000
00000000
00000000
00000000
00000000
00000000
00000000
00000000
00000000
00000000
00300000
00000000
00010000
01000000
,  // measure 43
00010000
10000000
01000000
10000000
00010000
01000000
00001000
00010000
00001000
00010000
00000010
00001000
00000001
00000010
00000001
00001000
,  // measure 44
00000010
00000000
00000010
00000100
00000000
00000100
00000000
00001000
00000000
00001000
00000000
00010000
00100000
00000000
01000000
00000000
,  // measure 45
01020000
01000000
10000000
00100000
,  // measure 46
00032000
00000100
00000001
00000010
,  // measure 47
00023000
01000000
10000000
00100000
,  // measure 48
00032000
00000100
00003001
00000000
,  // measure 49
00001001
00000001
00000100
00001000
,  // measure 50
00011000
00010000
01000000
10000000
,  // measure 51
00010000
01000000
00000000
01000000
00001000
00010000
00000000
00010000
00001000
00010000
00001000
00010000
00000010
00010000
00001000
00000000
,  // measure 52
00022000
00000000
00000000
00033000
,  // measure 53
00100000
10000000
00000000
10000000
00000000
01000000
00000000
00010000
00000000
00000000
00001000
00000000
00000100
00000000
00000001
00000000
,  // measure 54
00000010
00000001
00000000
00000001
00000000
00000100
00000000
00001000
00000000
00000000
00010000
00000000
01000000
00000000
10000000
00000000
,  // measure 55
01000000
00010000
00000000
00001000
00000000
00100000
00020000
00000000
00000000
00000000
00031000
00000000
00000010
00000100
00000001
00000000
,  // measure 56
00000100
00001000
00000000
00010000
00000000
00000010
00002000
00000000
00000000
00000000
00013000
01000000
00010000
01000000
00100000
00000000
,  // measure 57
10000000
00010000
00000000
00010000
00000000
01000000
00000000
00200000
00000000
00000000
00310000
00000000
00001000
00000100
00000010
00000100
,  // measure 58
00000001
00001000
00000000
00001000
00000000
00000100
00000000
00000020
00000000
00000000
00001030
00000000
00010000
01000000
00100000
01000000
,  // measure 59
10000000
00010000
00000000
00100000
00000000
00000000
02000000
00000000
00000000
00000000
13000000
00000000
01000000
00100000
00010000
00000000
,  // measure 60
00001000
00000100
00000000
00000010
00000000
00000000
00000002
00000000
00000000
00000003
00001000
00000001
00000100
00000001
00001000
00000000
,  // measure 61
00000001
00001000
00000000
00000010
00000000
00001000
00000000
00000002
00000000
00000003
00001000
00000100
00010000
00001000
00100000
00010000
,  // measure 62
10000000
00010000
00000000
01000000
00000000
00010000
00000000
20000000
00000000
30000000
00010000
01000000
00001000
00010000
00000000
00000100
,  // measure 63
00001000
00000001
00000000
00000100
00000000
00001000
00020000
00000000
00000000
00000000
00031000
00000000
00000010
00000100
00000010
00000000
,  // measure 64
00000001
00000100
00000000
00001000
00000000
00010000
00200000
00000000
00000000
00300000
10000000
01000000
00100000
00010000
01000000
00100000
,  // measure 65
10000000
00010000
00000000
00100000
00000000
00010000
00000000
20000000
00000000
30000000
00010000
01000000
00001000
00010000
00000010
00001000
,  // measure 66
00000001
00001000
00000000
00000100
00000000
00001000
00000000
00000002
00000000
00000003
00001000
00000100
00010000
00001000
00000000
01000000
,  // measure 67
00010000
10000000
00000000
01000000
00000000
00010000
00002000
00000000
00000000
00003000
00010000
00000000
01000000
00100000
01000000
00000000
,  // measure 68
10000000
01000000
00000000
00010000
00000000
00001000
00000020
00000000
00000000
00000030
00000001
00000100
00000010
00001000
00000100
00000010
,  // measure 69
00000001
00000000
00000100
00000000
00000000
00001000
00000000
00000000
00010000
00000000
00000000
00000010
00000000
00000000
00001000
00000000
,  // measure 70
00010000
00000000
00100000
00000000
00000000
01000000
00000000
00000000
10000000
00000000
01000000
00100000
00000000
00100000
01000000
00000000
,  // measure 71
10000000
00000000
01000000
00000000
00000000
00010000
00000000
00000000
00001000
00000000
00000000
00100000
00000000
00000000
00010000
00000000
,  // measure 72
00001000
00000000
00000010
00000000
00000000
00000100
00000000
00000001
00001000
00000001
00000010
00000100
00010000
00001000
01000000
00010000
,  // measure 73
10000000
00000000
01000000
00000000
00010000
00001000
00000000
00001000
00000010
00000000
00000010
00000001
00000000
00000001
00001000
00000000
,  // measure 74
00000001
00000000
00000100
00000000
00001000
00010000
00000000
00010000
00100000
00000000
00100000
10000000
00000000
10000000
01000000
00100000
,  // measure 75
00010000
10000000
01000000
00100000
00010000
00001000
00000100
00000010
,  // measure 76
00000001
00000100
00000001
00000100
00000010
00001000
00000010
00001000
00000100
00010000
00000100
00010000
00001000
00100000
00001000
00100000
,  // measure 77
00020000
00000000
00000000
00000000
,  // measure 78
00030000
00000000
00000000
00000000
;

//---------------dance-double - NewbStepper-DDP----------------
#NOTEDATA:;
#CHARTNAME:NewbStepper-DDP;
#STEPSTYPE:dance-double;
#DESCRIPTION:NewbStepper-DDP;
#DIFFICULTY:Medium;
#METER:11;
#RADARVALUES:0.448295,0.524065,0.102758,0.205516,0.003952,397,384,13,26,0,0,0,0,0,0.448295,0.524065,0.102758,0.205516,0.003952,397,384,13,26,0,0,0,0,0;
#CREDIT:NewbStepper;
#NOTES:
// measure 0
00000000
00000000
00000000
00000000
,  // measure 1
00000000
00000000
00000000
00000000
,  // measure 2
00000000
00000000
00000000
00000000
,  // measure 3
00000000
00000000
00000000
00000000
,  // measure 4
00000000
00000000
00000000
00000000
,  // measure 5
00020000
00000000
00000000
00000000
,  // measure 6
00002000
00000000
00000000
00000000
,  // measure 7
00033000
00000000
00000000
00000000
,  // measure 8
00000000
00000000
00000000
00010000
00001000
00000010
00000001
00001000
,  // measure 9
00000001
00001000
00000100
00000000
00001000
00000001
00000100
00000000
,  // measure 10
00001000
00010000
01000000
00000000
10000000
00010000
00100000
01000000
,  // measure 11
10000000
01000000
00010000
00001000
,  // measure 12
00022000
00000000
00000000
00033000
,  // measure 13
00001001
00000000
00000001
00000100
00000010
00000100
00000001
00000000
,  // measure 14
00000100
00000000
00001000
00010000
00000010
00010000
00001000
00000000
,  // measure 15
00200000
00000000
00310000
01000000
00100000
01000000
10000000
01000000
,  // measure 16
00020000
00000000
10030000
01000000
00010000
00001000
01000000
00000000
,  // measure 17
10010000
00000000
10000000
01000000
00100000
01000000
10000000
00000000
,  // measure 18
01000000
00000000
00010000
00001000
00100000
00001000
00010000
00000000
,  // measure 19
00000020
00000000
00001030
00000100
00000010
00000001
00000100
00000010
,  // measure 20
00001000
00000000
00000001
00000100
00001000
00010000
00100000
00000000
,  // measure 21
01000000
00000000
00100000
10000000
00010000
00100000
01000000
00000000
,  // measure 22
00010000
00000000
00001000
00000010
00001000
00010000
00100000
00000000
,  // measure 23
00010000
00000000
00001000
00000100
00000001
00000100
00000010
00000000
,  // measure 24
00001000
00000100
00000001
00000000
00000001
00000100
00001000
00000000
,  // measure 25
00000100
00000000
00000010
00000001
00001000
00000010
00000100
00000000
,  // measure 26
00001000
00000000
00010000
00100000
00010000
00001000
00000010
00000000
,  // measure 27
00001000
00100000
00001000
00000010
,  // measure 28
00000001
00000001
00001000
00001000
00000200
00000000
00000310
00000000
,  // measure 29
00000001
00000100
00001000
00000000
00010000
01000000
10000000
00100000
,  // measure 30
01000000
00010000
10000000
00000000
00100000
10000000
00010000
00000000
,  // measure 31
10000000
01000000
00010000
00000000
00001000
00000100
00000001
00000010
,  // measure 32
00000100
00001000
00000001
00000000
00000010
00000001
00001000
00000010
,  // measure 33
00010000
00001000
01000000
00000000
00100000
10000000
01000000
00100000
,  // measure 34
00010000
00001000
00000100
00000000
00000010
00000001
00000100
00000010
,  // measure 35
00001000
00010000
01000000
00000000
00100000
10000000
00010000
00000000
,  // measure 36
10000000
01000000
00100000
00010000
00001000
00000100
00000010
00000001
,  // measure 37
00000020
00000000
00000002
00000030
,  // measure 38
00002003
00000000
00003000
00000100
00020000
00000000
00031000
00100000
,  // measure 39
02000000
00000000
23000000
00000000
,  // measure 40
30020000
00000000
00030000
01000000
00200000
00000000
00310000
00001000
,  // measure 41
00000020
00000000
00000000
00000000
00000000
00000000
00000000
00000000
00000130
00000000
00000000
00001000
00000000
00000000
00000001
00000000
,  // measure 42
00000200
00000000
00000000
00000000
00000000
00000000
00000300
00000010
,  // measure 43
00001000
00010000
01000000
00100000
,  // measure 44
10000000
01000000
00100000
00010000
,  // measure 45
20000000
00000000
00000000
00000000
,  // measure 46
32000000
00000000
00000000
00000000
,  // measure 47
03020000
00000000
00000000
00000000
,  // measure 48
00032000
00000000
00000000
00000000
,  // measure 49
00003100
00000001
00000100
00000001
,  // measure 50
00001000
00000100
00001000
00000100
,  // measure 51
00010100
00001000
01001000
00010000
,  // measure 52
00022000
00000000
00000000
00033000
,  // measure 53
00010000
01000000
10000000
00000000
00100000
01000000
00010000
10000000
,  // measure 54
00100000
00010000
00001000
00000000
00000010
00000100
00001000
00000001
,  // measure 55
00000010
00001000
00010000
00100000
10000000
00000000
10010000
00000000
,  // measure 56
00010000
00100000
01000000
00010000
00001000
00000000
00011000
00000000
,  // measure 57
00001000
00000100
00000001
00000000
00000010
00000100
00001000
00000001
,  // measure 58
00000010
00001000
00010000
00000000
00100000
01000000
00010000
10000000
,  // measure 59
00100000
00010000
00001000
00000010
00000001
00000000
00001001
00000000
,  // measure 60
00001000
00000010
00000100
00001000
00010000
00000000
00011000
00000000
,  // measure 61
00100000
10000000
00100000
01000000
00100000
00010000
00001000
00010000
,  // measure 62
01000000
00010000
00001000
00010000
00000010
00010000
00001000
00000100
,  // measure 63
00000001
00000100
00000010
00000100
00001000
00010000
00001000
00000010
,  // measure 64
00001000
00010000
01000000
00010000
00001000
00000100
00000001
00000000
,  // measure 65
00000010
00000001
00000010
00000100
00000010
00001000
00010000
00001000
,  // measure 66
00000100
00001000
00010000
00001000
00100000
00001000
00010000
01000000
,  // measure 67
10000000
01000000
00100000
01000000
00010000
00001000
00010000
00000010
,  // measure 68
00010000
00001000
00000100
00001000
00010000
01000000
10000000
00010000
,  // measure 69
01000000
00000000
00100000
10000000
00010000
00100000
01000000
00000000
,  // measure 70
00010000
00000000
00001000
00000010
00001000
00010000
00100000
00000000
,  // measure 71
00010000
00000000
00001000
00000100
00000001
00000100
00000010
00000000
,  // measure 72
00001000
00000100
00000001
00000000
00000001
00000100
00001000
00000000
,  // measure 73
00000100
00000000
00000010
00000001
00001000
00000010
00000100
00000000
,  // measure 74
00001000
00000000
00010000
00100000
00010000
00001000
00000010
00000000
,  // measure 75
00000011
00000001
00001010
00001000
,  // measure 76
00000001
00000100
00001000
00010000
01000000
10000000
00010000
00000000
,  // measure 77
02200000
00000000
00000000
00000000
,  // measure 78
03300000
00000000
00000000
00000000
;

//---------------dance-double - NewbStepper-BDP----------------
#NOTEDATA:;
#CHARTNAME:NewbStepper-BDP;
#STEPSTYPE:dance-double;
#DESCRIPTION:NewbStepper-BDP;
#DIFFICULTY:Easy;
#METER:6;
#RADARVALUES:0.239392,0.308274,0.134376,0.189707,0,212,195,17,24,0,0,0,0,0,0.239392,0.308274,0.134376,0.189707,0,212,195,17,24,0,0,0,0,0;
#CREDIT:NewbStepper;
#NOTES:
// measure 0
00000000
00000000
00000000
00000000
,  // measure 1
00000000
00000000
00000000
00000000
,  // measure 2
00000000
00000000
00000000
00000000
,  // measure 3
00000000
00000000
00000000
00000000
,  // measure 4
00000000
00000000
00000000
00000000
,  // measure 5
00000010
00000000
00000010
00000000
,  // measure 6
00000100
00000000
00000100
00000000
,  // measure 7
00002002
00000000
00000000
00000000
,  // measure 8
00000000
00000000
00003003
00000000
,  // measure 9
00000001
00000100
00000010
00000000
,  // measure 10
00001000
00000100
00000010
00000000
,  // measure 11
00000110
00000000
00001000
00010000
,  // measure 12
00022000
00000000
00000000
00033000
,  // measure 13
01000000
20000000
00000000
30000000
,  // measure 14
01000000
00020000
00000000
00030000
,  // measure 15
00001000
00000200
00000000
00000300
,  // measure 16
00000001
00000200
00000000
00000300
,  // measure 17
00000220
00000000
00000000
00000330
,  // measure 18
00001001
00000002
00000000
00000003
,  // measure 19
00000100
00002000
00000000
00003000
,  // measure 20
00010000
00022000
00000000
00033000
,  // measure 21
00100000
10000000
00010000
10000000
,  // measure 22
00100000
00010000
00001000
00000000
,  // measure 23
00000010
00000001
00001000
00000001
,  // measure 24
00000010
00001000
00010000
00000000
,  // measure 25
00001000
00010000
00100000
00010000
,  // measure 26
00001000
00010000
00100000
00000000
,  // measure 27
02200000
00000000
00000000
00000000
,  // measure 28
00000000
00000000
00000000
03300000
,  // measure 29
10000000
01000000
00010000
01000000
,  // measure 30
10000000
01000000
00010000
00000000
,  // measure 31
00001000
00000100
00000001
00000100
,  // measure 32
00001000
00000100
00000001
00000000
,  // measure 33
00000001
00000010
00001000
00000010
,  // measure 34
00000001
00000010
00001000
00000000
,  // measure 35
00010000
00100000
10000000
00100000
,  // measure 36
00010000
00100000
10000000
00010000
,  // measure 37
20020000
00000000
00000000
00000000
,  // measure 38
00000000
00000000
00000000
00000000
,  // measure 39
00000000
00000000
00000000
00000000
,  // measure 40
00000000
00000000
00000000
30030000
,  // measure 41
00000000
00000000
00000000
00000000
,  // measure 42
00022000
00000000
00000000
00000000
,  // measure 43
00000000
00000000
00000000
00000000
,  // measure 44
00000000
00000000
00000000
00033000
,  // measure 45
00000001
00000001
00000001
00000001
,  // measure 46
00000100
00000100
00000100
00000100
,  // measure 47
00001000
00001000
00001000
00001000
,  // measure 48
00010000
00010000
00010000
00010000
,  // measure 49
00011000
00000000
00100000
00000000
,  // measure 50
00011000
00000000
00000010
00000000
,  // measure 51
00011000
00000000
00100000
01000000
,  // measure 52
02200000
00000000
00000000
03300000
,  // measure 53
10000000
00010000
10000000
00010000
,  // measure 54
01000000
00001000
01000000
00001000
,  // measure 55
00010000
00000100
00010000
00000100
,  // measure 56
00001000
00000010
00001000
00000000
,  // measure 57
00000001
00001000
00000001
00001000
,  // measure 58
00000100
00010000
00000100
00010000
,  // measure 59
00001000
01000000
00001000
01000000
,  // measure 60
00010000
00100000
00010000
00000000
,  // measure 61
10000000
01000000
00010000
01000000
,  // measure 62
10000000
01000000
00010000
00001000
,  // measure 63
00000100
00000001
00000100
00001000
,  // measure 64
00000100
00000001
00001000
00000000
,  // measure 65
00000001
00000100
00001000
00000100
,  // measure 66
00000001
00000100
00001000
00010000
,  // measure 67
01000000
10000000
01000000
00010000
,  // measure 68
01000000
10000000
00010000
00000000
,  // measure 69
10000000
01000000
00100000
01000000
,  // measure 70
00010000
00001000
00000010
00000000
,  // measure 71
00000001
00000100
00000010
00000100
,  // measure 72
00001000
00010000
00100000
00000000
,  // measure 73
10000000
01000000
00100000
00010000
,  // measure 74
00001000
00000100
00000010
00000001
,  // measure 75
00001001
00000000
00000110
00000000
,  // measure 76
00001001
00000000
00001000
00010000
,  // measure 77
00022000
00000000
00000000
00000000
,  // measure 78
00033000
00000000
00000000
00000000
;
