#VERSION:0.83;
#TITLE:天国と地獄;
#ARTIST:Mutsuhiko Izumi;
#TITLETRANSLIT:Tengoku to jigoku;
#BANNER:Tengoku to jigoku.png;
#BACKGROUND:Tengoku to jigoku-bg.png;
#JACKET:Tengoku to jigoku-jacket.png;
#MUSIC:Tengoku to jigoku.ogg;
#OFFSET:0.738769;
#SAMPLESTART:62.646;
#SAMPLELENGTH:15;
#BPMS:0=195;

//---------------dance-single - NewbStepper-ESP----------------
#NOTEDATA:;
#CHARTNAME:NewbStepper-ESP;
#STEPSTYPE:dance-single;
#DESCRIPTION:NewbStepper-ESP;
#DIFFICULTY:Hard;
#METER:16;
#RADARVALUES:0.899401,1.155116,0.743523,0.212435,0.424870,652,575,77,22,0,0,0,0,0,0.899401,1.155116,0.743523,0.212435,0.424870,652,575,77,22,0,0,0,0,0;
#CREDIT:NewbStepper;
#NOTES:
0000
0000
0000
0000
,
0000
0000
0000
0000
,
0000
0000
0000
0000
,
0000
0000
0000
0000
,
0000
0000
0000
0000
,
1100
1000
0010
0100
0001
0100
0100
0010
,
1000
0100
0001
0100
1000
0010
0010
0000
,
0101
0001
0010
0000
1100
1000
0010
0000
,
1000
0100
1000
0000
0001
0100
0001
0000
1000
0100
1000
0000
0001
0100
0001
0000
,
0101
0001
0010
0100
1000
0100
0100
0010
,
0001
0100
1000
0100
0001
0010
0010
0000
,
1100
1000
0010
0000
0101
0001
0010
0000
,
0001
0100
0001
0000
1000
0100
1000
0000
0001
0100
0001
0100
0010
0000
0000
0000
,
1010
0011
0101
1100
,
0001
0010
0100
1000
0100
0010
0001
0000
,
0101
1100
1010
0011
,
0001
0000
1000
0000
0100
0000
0010
0000
0001
1000
0001
1000
0100
0000
0000
0000
,
0011
1010
1100
0101
,
1000
0010
0100
0001
0100
0010
1000
0000
,
1100
0101
0011
1010
,
1000
0100
0010
0001
0101
0100
0010
1000
,
1100
0100
0010
0001
0011
0010
0100
1000
,
1010
0000
0010
0000
0100
0000
0001
0000
1001
0000
0000
1000
0100
0000
0000
0100
,
0010
0000
0000
0010
0001
0000
0000
0001
0100
0000
0000
0100
1000
0000
0000
1000
,
0100
0010
0100
0010
0100
0010
0100
0010
2000
0000
0000
0000
0100
0000
0000
0000
,
3010
1000
0100
0010
0011
0000
1001
0000
,
0010
0001
0100
0010
1010
0000
1001
0000
,
0001
0100
0010
0001
1000
0100
0001
1000
,
0010
0100
0001
0010
0002
0000
0100
0000
,
0013
0001
0100
0010
1010
0000
1001
0000
,
0010
1000
0100
0010
0011
0000
1001
0000
,
1000
0100
0010
0001
0100
1000
0100
0001
,
0010
0000
0000
0000
0110
0000
0000
0000
1000
0000
0010
1000
0010
0000
0100
0000
,
0001
0010
0001
0000
1000
0000
0010
0000
0110
0000
0000
0000
0110
0000
0000
0000
,
0001
0100
0001
0000
1000
0000
0010
0000
0110
0000
0000
0000
0110
0000
0000
0000
,
1000
0001
1000
0000
0100
0000
0010
0000
0001
0000
1000
0000
0100
0000
0001
0000
,
1000
0000
0010
0000
0001
0000
0100
0000
0001
0000
0010
0001
0010
0000
0100
0000
,
1000
0010
1000
0000
0001
0000
0010
0000
0110
0000
0000
0000
0110
0000
0000
0000
,
1000
0100
1000
0000
0001
0000
0010
0000
0110
0000
0000
0000
0110
0000
0000
0000
,
0001
1000
0001
0000
0100
0000
0010
0000
1000
0000
0100
0000
0001
0000
0100
0000
,
1000
0000
1001
0000
0010
1000
0001
0100
,
0010
1000
0010
1000
0010
0000
0100
0000
0001
0000
0100
0000
1000
0000
0100
0000
,
0001
1000
0010
1000
0001
0000
0000
0000
0010
0001
0010
0000
0100
0000
1000
0000
,
0010
1000
0010
0000
0100
0000
0001
0000
1000
0100
1000
0000
0001
0100
0001
0000
,
1000
0100
1000
0000
0001
0100
0001
0000
0010
0000
0001
0000
1000
0000
0100
0000
,
0010
0001
0010
0001
0010
0000
0100
0000
1000
0000
0100
0000
0001
0000
0100
0000
,
1000
0001
0010
0001
1000
0000
0000
0000
0010
0000
1010
0000
0000
0000
1100
0000
,
0000
0101
0000
0011
0000
0110
0000
0110
,
0000
1001
0000
1001
0001
0001
0100
0100
,
0010
0000
0010
0000
1000
0000
1000
0000
0001
0010
0001
0000
1000
0010
1000
0000
,
0001
0010
0001
0000
1000
0010
1000
0000
0001
1000
0001
1000
0001
1000
0001
1000
,
0100
0010
0100
0010
0100
0010
0100
0010
0002
0000
0000
0000
0100
0000
0000
0000
,
0013
0001
0100
0010
1010
0000
1001
0000
,
0010
1000
0100
0010
0011
0000
1001
0000
,
1000
0100
0010
1000
0001
0100
1000
0001
,
0010
0100
1000
0010
2000
0000
0100
0000
,
3010
1000
0100
0010
0011
0000
1001
0000
,
0010
0001
0100
0010
1010
0000
1001
0000
,
0001
0100
0010
1000
0100
0001
0100
1000
,
0010
0000
0000
0000
0110
0000
0000
0000
0001
0000
0010
0001
0010
0000
0100
0000
,
1000
0010
1000
0000
0001
0000
0010
0000
0110
0000
0000
0000
0110
0000
0000
0000
,
1000
0100
1000
0000
0001
0000
0010
0000
0110
0000
0000
0000
0110
0000
0000
0000
,
0001
1000
0001
0000
0100
0000
0010
0000
1000
0000
0001
0000
0100
0000
1000
0000
,
0001
0000
0010
0000
1000
0000
0100
0000
1000
0000
0010
1000
0010
0000
0100
0000
,
0001
0010
0001
0000
1000
0000
0010
0000
0110
0000
0000
0000
0110
0000
0000
0000
,
0001
0100
0001
0000
1000
0000
0010
0000
0110
0000
0000
0000
0110
0000
0000
0000
,
0001
1000
0001
0000
1000
0000
0010
0000
0110
0000
0000
0000
2000
0000
0000
0000
,
3200
0000
0320
0000
0031
0100
1000
0001
,
0010
1000
0100
0010
0110
0000
0002
0000
,
0203
0000
0320
0000
1030
0100
0001
1000
,
0010
0000
0001
0000
0100
0000
0010
0000
1000
0000
0001
0100
0001
0000
1000
0100
,
1000
0000
0001
0100
0010
0000
1000
0000
0001
0100
0010
0100
0001
0100
0010
0100
,
0001
0100
0010
0100
0001
0100
0010
0100
0001
0000
1000
0100
1000
0000
0001
0100
,
0001
0000
1000
0100
0010
0000
0001
0000
1000
0100
0010
0100
1000
0100
0010
0100
,
1000
0100
0010
0100
1000
0100
0010
0100
2000
0000
0000
0000
3200
0000
0000
0000
,
0320
0032
0203
0320
,
2030
3002
0203
0010
,
1000
0001
0320
1000
,
0001
0000
0000
0000
0100
0000
0000
0000
1030
0000
0000
1000
0100
0000
0000
0100
,
0001
0000
0000
0001
0010
0000
0000
0010
1000
0000
0000
0000
0000
0000
0000
0000
,
1001
0000
0101
0000
,
1100
0000
0220
0000
,
0000
0330
1001
0000
;

//---------------dance-single - NewbStepper-DSP----------------
#NOTEDATA:;
#CHARTNAME:NewbStepper-DSP;
#STEPSTYPE:dance-single;
#DESCRIPTION:NewbStepper-DSP;
#DIFFICULTY:Medium;
#METER:13;
#RADARVALUES:0.693863,0.716969,0.424870,0.212435,0.057937,503,459,44,22,0,0,0,0,0,0.693863,0.716969,0.424870,0.212435,0.057937,503,459,44,22,0,0,0,0,0;
#CREDIT:NewbStepper;
#NOTES:
0000
0000
0000
0000
,
0000
0000
0000
0000
,
0000
0000
0000
0000
,
0000
0000
0000
0000
,
0000
0000
0000
0000
,
0001
0100
0010
0100
0001
0010
0100
0000
,
1000
0100
0010
0100
1000
0010
0100
0000
,
1000
0100
0001
0000
1000
0100
0001
0000
,
0100
0010
0001
0100
0010
1000
0001
0001
,
1000
0100
0010
0100
1000
0010
0100
0000
,
0001
0100
0010
0100
0001
0010
0100
0000
,
0001
0100
1000
0000
0001
0100
1000
0000
,
0100
0010
1000
0100
0010
0001
1001
0000
,
0101
0010
1100
0010
,
0001
0100
0010
0100
1000
0100
0001
0000
,
0011
0100
1010
0100
,
0001
1000
0010
0100
0001
0010
0010
0000
,
1100
0010
0101
0010
,
1000
0100
0010
0100
0001
0100
1000
0000
,
1010
0100
0011
0100
,
1000
0001
0010
0100
1100
0000
0010
0000
,
0101
0010
1001
0100
,
1001
0000
0000
0000
0010
0000
0000
0000
0001
0000
0000
0001
0100
0000
0000
0100
,
0010
0000
0000
0010
1000
0000
0000
1000
0100
0000
0000
0100
0010
0000
0000
0010
,
0001
0000
0000
0001
0100
0000
0000
0100
0020
0000
0000
0000
0000
0000
0000
0000
,
1030
0100
0010
0001
0100
0000
0100
0000
,
0010
1000
0001
0100
0010
0000
0010
0000
,
1000
0100
0010
0001
1000
0001
0010
0100
,
1000
0010
0100
0001
0020
0000
0000
0000
,
0031
0100
0010
1000
0100
0000
0100
0000
,
0010
0001
1000
0100
0010
0000
0010
0000
,
0001
0100
0010
1000
0001
1000
0100
0010
,
0001
0000
1001
0000
0100
0000
0010
0100
,
0001
1000
0100
0010
0100
0000
0110
0000
,
0001
0100
1000
0010
0001
0000
0110
0000
,
1000
0100
0001
0010
1000
0001
0100
1000
,
0010
0100
0001
1000
0100
0000
0010
0100
,
1000
0001
0100
0010
0100
0000
0110
0000
,
1000
0100
0001
0010
1000
0000
0110
0000
,
0001
0100
1000
0010
0001
1000
0100
0001
,
0010
0000
1001
0000
1000
0100
0010
0100
,
1000
0010
0100
0000
0001
0100
0010
0100
,
0001
0010
0100
0000
0001
0100
1000
0000
,
0001
0100
1000
0000
0100
0010
1000
0100
,
0010
0001
1000
1000
0001
0100
0010
0100
,
0001
0010
0100
0000
1000
0100
0010
0100
,
1000
0010
0100
0000
0001
1000
0000
1000
,
0000
0100
0000
0100
0000
0010
0000
0010
,
0000
0001
0000
0001
1000
0100
1000
0100
,
0010
0001
0010
0001
1000
0010
1000
0010
,
0100
0001
0100
0001
0010
0100
0010
0100
,
0010
0100
0010
0100
0020
0000
0000
0000
,
0031
0100
0010
1000
0100
0000
0100
0000
,
0010
0001
1000
0100
0010
0000
0010
0000
,
0001
0100
0010
1000
0001
1000
0010
0100
,
0001
0010
0100
1000
0020
0000
0000
0000
,
1030
0100
0010
0001
0100
0000
0100
0000
,
0010
1000
0001
0100
0010
0000
0010
0000
,
1000
0100
0010
0001
1000
0001
0100
0010
,
1000
0000
1001
0000
0100
0000
0010
0100
,
1000
0001
0100
0010
0100
0000
0110
0000
,
1000
0100
0001
0010
1000
0000
0110
0000
,
0001
0100
1000
0010
0001
1000
0100
0001
,
0010
0100
1000
0001
0100
0000
0010
0100
,
0001
1000
0100
0010
0100
0000
0110
0000
,
0001
0100
1000
0010
0001
0000
0110
0000
,
1000
0100
0001
0010
0100
0000
1000
0000
,
0100
0000
0010
0000
0001
0100
0001
0100
,
1000
0100
0001
0010
0100
0000
1000
0000
,
0100
0000
0010
0000
0001
0100
0001
0100
,
1000
0100
0001
0010
0100
0000
1100
0000
,
1010
0101
1001
1010
,
0101
0110
1001
0101
,
1010
1001
0101
1010
,
0101
0110
0020
2030
,
3200
0320
0032
0203
,
0320
2030
3002
0203
,
0320
2030
3002
0023
,
0230
0000
0000
0000
2300
0000
0000
0000
3001
0000
0000
0001
0100
0000
0000
0100
,
0010
0000
0000
0010
1000
0000
0000
1000
0001
0000
0000
0000
0000
0000
0000
0000
,
0101
0000
1100
0000
,
0101
0000
0220
0000
,
0000
0330
1001
0000
;

//---------------dance-single - NewbStepper-BSP----------------
#NOTEDATA:;
#CHARTNAME:NewbStepper-BSP;
#STEPSTYPE:dance-single;
#DESCRIPTION:NewbStepper-BSP;
#DIFFICULTY:Easy;
#METER:10;
#RADARVALUES:0.543503,0.637306,0.560056,0.164154,0,394,336,58,17,0,0,0,0,0,0.543503,0.637306,0.560056,0.164154,0,394,336,58,17,0,0,0,0,0;
#CREDIT:NewbStepper;
#NOTES:
0000
0000
0000
0000
,
0000
0000
0000
0000
,
0000
0000
0000
0000
,
0000
0000
0000
0000
,
0000
0000
0000
0000
,
1000
0000
0001
0000
0100
0010
0100
0000
,
0001
0000
1000
0000
0100
0010
0001
0000
,
1000
1100
0001
0101
,
1000
0001
0100
0100
,
0001
0000
1000
0000
0100
0010
0100
0000
,
1000
0000
0001
0000
0100
0010
1000
0000
,
0001
0101
1000
1100
,
0001
0000
1000
0000
0100
0010
0100
0000
,
1000
0100
0010
0001
,
0100
0001
0100
0001
0100
0010
1000
0000
,
0001
0100
0010
1000
,
0100
1000
0100
1000
0100
0010
0001
0000
,
1000
0010
0100
0001
,
0010
0001
0010
0001
0010
0100
1000
0000
,
0001
0010
0100
1000
,
0010
1000
0010
1000
0010
0100
0001
0000
,
0101
0000
1100
0000
,
0110
0000
1001
1000
,
1100
0100
0110
0010
,
0011
0001
2000
0000
,
3001
0100
0101
0101
,
0001
0010
0100
0000
1100
0000
1100
0000
,
1000
0010
0100
0000
0101
0000
1100
0000
,
1010
0011
0002
0000
,
1003
0100
1100
1100
,
1000
0010
0100
0000
0101
0000
0101
0000
,
0001
0010
0100
0000
1100
0000
0101
0000
,
0110
0000
0002
0000
,
0013
0100
0010
0100
1000
0000
1000
0000
,
0001
0100
0001
0100
0010
0000
0010
0000
,
1000
0001
0010
0100
1000
0000
0100
0000
,
0001
0010
2000
0000
,
3010
0100
0010
0100
0001
0000
0001
0000
,
1000
0100
1000
0100
0010
0000
0010
0000
,
0001
1000
0010
0100
0001
0000
1100
0000
,
0101
0000
0001
1000
,
0100
0010
0100
0000
1000
0000
0001
0000
,
0100
0010
1000
0000
0001
0000
0101
0000
,
1000
1100
0001
1000
,
0100
0100
1000
0001
,
0100
0010
0100
0000
0001
0000
1000
0000
,
0100
0010
0001
0000
1000
0000
1000
0000
,
0100
0100
0010
0010
,
0001
0001
1000
2000
,
0100
3200
0010
0320
,
0001
0032
0203
0000
,
0000
0300
0002
0000
,
1003
0100
1100
1100
,
1000
0010
0100
0000
0101
0000
0101
0000
,
0001
0010
0100
0000
1100
0000
0101
0000
,
0011
1010
2000
0000
,
3001
0100
0101
0101
,
0001
0010
0100
0000
1100
0000
1100
0000
,
1000
0010
0100
0000
0101
0000
1100
0000
,
0110
0000
2000
0000
,
3010
0100
0010
0100
0001
0000
0001
0000
,
1000
0100
1000
0100
0010
0000
0010
0000
,
0001
1000
0010
0100
0001
0000
0100
0000
,
1000
0010
0002
0000
,
0013
0100
0010
0100
1000
0000
1000
0000
,
0001
0100
0001
0100
0010
0000
0010
0000
,
1000
0001
0010
0100
1000
0000
0100
0000
,
0010
0001
0101
0000
,
1100
0000
0001
0100
,
0010
1000
1100
0000
,
0101
0000
0010
1000
,
0010
1000
0001
0010
,
0001
0010
0100
1000
,
0100
1000
0001
0100
,
0001
0100
0120
1000
,
0100
0001
0100
1000
,
0100
0001
0230
1000
,
0010
0001
0010
1000
,
0010
0301
0101
1100
,
1010
0011
0110
0000
,
1001
0000
0001
0000
,
1000
0000
2002
0000
,
3003
0000
1001
0000
;

//---------------dance-single - NewbStepper-bSP----------------
#NOTEDATA:;
#CHARTNAME:NewbStepper-bSP;
#STEPSTYPE:dance-single;
#DESCRIPTION:NewbStepper-bSP;
#DIFFICULTY:Beginner;
#METER:5;
#RADARVALUES:0.235886,0.358484,0.125530,0.144842,0,171,158,13,15,0,0,0,0,0,0.235886,0.358484,0.125530,0.144842,0,171,158,13,15,0,0,0,0,0;
#CREDIT:NewbStepper;
#NOTES:
0000
0000
0000
0000
,
0000
0000
0000
0000
,
0000
0000
0000
0000
,
0000
0000
0000
0000
,
0000
0000
0000
0000
,
1000
0000
1000
0000
,
0001
0000
0000
0000
,
0100
0000
0100
0000
,
0010
0000
0000
0000
,
0001
0000
0001
0000
,
1000
0000
0000
0000
,
0010
0000
0010
0000
,
0100
0000
0000
0000
,
1001
0000
0000
0000
,
0000
0000
0000
0000
,
1001
0000
0000
0000
,
0000
0000
0000
0000
,
1001
0000
0000
0000
,
0000
0000
0000
0000
,
1001
0000
0000
0000
,
0000
0000
0001
0000
,
1000
0000
0001
0000
,
1000
0000
0100
0000
,
0010
0000
0100
0000
,
0010
0000
0002
0000
,
0003
0000
1000
1000
,
0100
0000
0001
0001
,
0100
0000
0010
0001
,
0010
0001
2000
0000
,
3000
0000
0001
0001
,
0100
0000
1000
1000
,
0100
0000
0001
1000
,
0001
0000
2000
0000
,
3000
0000
0001
0001
,
0100
0000
1000
1000
,
0100
0000
0010
1000
,
0010
1000
0002
0000
,
0003
0000
1000
1000
,
0100
0000
0001
0001
,
0100
0000
1000
0001
,
1000
0000
0000
0010
,
0010
0000
0000
0001
,
0001
0000
0000
0100
,
0100
0000
0000
1000
,
1000
0000
0000
0001
,
0001
0000
0000
1000
,
1000
0000
0000
0100
,
0000
0100
0000
0100
,
0000
0100
0000
0010
,
0000
0010
0000
0010
,
0000
0010
0002
0000
,
0003
0000
2000
0000
,
3000
0000
0001
0001
,
0100
0000
1000
1000
,
0100
0000
0010
1000
,
0010
1000
0002
0000
,
0003
0000
1000
1000
,
0100
0000
0001
0001
,
0100
0000
1000
0001
,
1000
0000
0002
0000
,
0003
0000
1000
1000
,
0100
0000
0001
0001
,
0100
0000
0010
0001
,
0010
0001
2000
0000
,
3000
0000
0001
0001
,
0100
0000
1000
1000
,
0100
0000
0001
1000
,
0001
1000
0100
0000
,
0110
0000
1000
0001
,
1000
0001
0100
0000
,
0110
0000
0001
0000
,
0001
0000
0001
0000
,
0001
0000
1000
0000
,
1000
0000
1000
0000
,
1000
0000
2002
0000
,
0000
0000
0000
0000
,
3003
0000
0220
0000
,
0000
0000
0000
0000
,
0330
0000
1000
0001
,
1000
0001
1000
0000
,
1001
0000
0110
0000
,
1001
0000
0220
0000
,
0330
0000
1001
0000
;

//---------------dance-double - NewbStepper-EDP----------------
#NOTEDATA:;
#CHARTNAME:NewbStepper-EDP;
#STEPSTYPE:dance-double;
#DESCRIPTION:NewbStepper-EDP;
#DIFFICULTY:Hard;
#METER:16;
#RADARVALUES:0.870432,1.155116,0.579369,0.154498,0.366933,631,571,60,16,0,0,0,0,0,0.870432,1.155116,0.579369,0.154498,0.366933,631,571,60,16,0,0,0,0,0;
#CREDIT:NewbStepper;
#NOTES:
// measure 0
00000000
00000000
00000000
00000000
,  // measure 1
00000000
00000000
00000000
00000000
,  // measure 2
00000000
00000000
00000000
00000000
,  // measure 3
00000000
00000000
00000000
00000000
,  // measure 4
00000000
00000000
00000000
00000000
,  // measure 5
00011000
00010000
01000000
10000000
01000000
00100000
00100000
00001000
,  // measure 6
00010000
00000100
00000001
00000100
00001000
00000010
00000110
00000000
,  // measure 7
00000001
00000100
00001000
00000000
00010000
01000000
10000000
00000000
,  // measure 8
00100000
10000000
01000000
00010000
00001000
00000010
00001000
00010000
,  // measure 9
00011000
00001000
00000100
00000001
00000100
00000010
00000010
00010000
,  // measure 10
00001000
01000000
10000000
01000000
00010000
00100000
01100000
00000000
,  // measure 11
10000000
01000000
00010000
00000000
00001000
00000100
00000001
00000000
,  // measure 12
00000010
00000001
00000010
00000000
00000100
00001000
00000100
00000000
00010000
00001000
00010000
00000000
00001000
00000000
00000000
00000000
,  // measure 13
00011000
01010000
11000000
10100000
,  // measure 14
00010000
00001000
00000100
00000001
00000100
00001000
00010000
00000000
,  // measure 15
00011000
00001010
00000011
00000101
,  // measure 16
00000001
00000000
00000100
00000000
00000010
00000000
00001000
00000000
00000100
00000010
00000100
00000000
00010000
00000000
00000000
00000000
,  // measure 17
00011000
00001100
00000101
00000011
,  // measure 18
00001000
00010000
01000000
10000000
01000000
00010000
00001000
00000000
,  // measure 19
00011000
00110000
10100000
11000000
,  // measure 20
10000000
01000000
00100000
01000000
01100000
00000000
00001000
00000000
,  // measure 21
00000110
00010000
01100000
00001000
,  // measure 22
00000110
00000000
00000000
00000000
00010000
00000000
00000000
00000000
00100000
00000000
00000000
00100000
10000000
00000000
00000000
10000000
,  // measure 23
01000000
00000000
00000000
01000000
00010000
00000000
00000000
00010000
00001000
00000000
00000000
00001000
00000100
00000000
00000000
00000100
,  // measure 24
00000001
00001000
00000001
00001000
00000001
00001000
00000001
00001000
00000002
00000000
00000000
00000000
00000010
00000000
00000000
00000000
,  // measure 25
00001003
00000100
00000010
00001000
00011000
00000000
00010010
00000000
,  // measure 26
00001000
00000100
00010000
00001000
01001000
00000000
01100000
00000000
,  // measure 27
10000000
01000000
00010000
00001000
00000100
00000001
00000010
00000100
,  // measure 28
00001000
00010000
00100000
01000000
20000000
00000000
00100000
00000000
,  // measure 29
30010000
01000000
00100000
00010000
00011000
00000000
00101000
00000000
,  // measure 30
00010000
01000000
00001000
00010000
00010100
00000000
00000110
00000000
,  // measure 31
00001000
00000001
00000100
00001000
00010000
10000000
01000000
00010000
,  // measure 32
00001000
00000000
00001001
00000000
00000001
00000010
00000001
00000100
,  // measure 33
00001000
00010000
00001000
00000000
00000010
00000000
00000100
00000000
00010000
00000000
00000010
00000000
00000100
00000000
00001000
00000000
,  // measure 34
00010000
00001000
00010000
00000000
00100000
00000000
01000000
00000000
00001000
00000000
00100000
00000000
01000000
00000000
00010000
00000000
,  // measure 35
00001000
00010000
00001000
00000000
00000010
00000000
00000001
00000000
00001000
00000000
00000001
00000000
00000010
00000000
00000100
00000000
,  // measure 36
00001000
00010000
00100000
01000000
10000000
00100000
10000000
01000000
,  // measure 37
00010000
00001000
00010000
00000000
00100000
00000000
01000000
00000000
00001000
00000000
00100000
00000000
01000000
00000000
00010000
00000000
,  // measure 38
00001000
00010000
00001000
00000000
00000010
00000000
00000100
00000000
00010000
00000000
00000010
00000000
00000100
00000000
00001000
00000000
,  // measure 39
00010000
00001000
00010000
00000000
00100000
00000000
10000000
00000000
01000000
00000000
00010000
00000000
01000000
00000000
00100000
00000000
,  // measure 40
00001000
00000000
00011000
00000000
00011000
00001000
00000010
00000001
,  // measure 41
00000100
00000001
00000100
00000001
00000100
00000000
00000010
00000000
00010000
00000000
00001000
00000000
00100000
00000000
00001000
00000000
,  // measure 42
01000000
00010000
01000000
00000000
00100000
00000000
00000000
00000000
01000000
00010000
01000000
00000000
00010000
00000000
10000000
00000000
,  // measure 43
01000000
10000000
01000000
00000000
00100000
00000000
00001000
00000000
00010000
00000010
00010000
00000000
00001000
00010000
00001000
00000000
,  // measure 44
00010000
00000010
00010000
00000000
00001000
00010000
00001000
00000000
00011000
00000000
00010000
00000000
00100000
00000000
10000000
00000000
,  // measure 45
01000000
10000000
01000000
10000000
01000000
00000000
00100000
00000000
00001000
00000000
00010000
00000000
00000010
00000000
00010000
00000000
,  // measure 46
00000100
00001000
00000100
00000000
00000010
00000000
00000000
00000000
00000001
00000000
00000101
00000000
00000000
00000000
00001001
00000000
,  // measure 47
00000000
00011000
00000000
10010000
00000000
00011000
00000000
00001001
,  // measure 48
00000000
00011000
00000000
00011000
00010000
00010000
00000100
00000100
,  // measure 49
00001000
00000000
00001000
00000000
00000001
00000000
00000001
00000000
00001000
00000100
00001000
00000000
00000100
00010000
00000100
00000000
,  // measure 50
00010000
00001000
00010000
00000000
00001000
01000000
00001000
00000000
00100000
00010000
00100000
00010000
00100000
00010000
00100000
00010000
,  // measure 51
10000000
00100000
10000000
00100000
10000000
00100000
10000000
00100000
20000000
00000000
00000000
00000000
00100000
00000000
00000000
00000000
,  // measure 52
30010000
01000000
00100000
00010000
00011000
00000000
00101000
00000000
,  // measure 53
00010000
01000000
00001000
00010000
00010100
00000000
00000110
00000000
,  // measure 54
00000001
00000100
00001000
00010000
01000000
10000000
00100000
01000000
,  // measure 55
00010000
00001000
00000010
00000100
00000002
00000000
00000010
00000000
,  // measure 56
00001003
00000100
00000010
00001000
00011000
00000000
00010010
00000000
,  // measure 57
00001000
00000100
00010000
00001000
01001000
00000000
01100000
00000000
,  // measure 58
00010000
10000000
01000000
00010000
00001000
00000001
00000100
00001000
,  // measure 59
00010000
00000000
10010000
00000000
10000000
00100000
10000000
01000000
,  // measure 60
00010000
00001000
00010000
00000000
00100000
00000000
01000000
00000000
00001000
00000000
00100000
00000000
01000000
00000000
00010000
00000000
,  // measure 61
00001000
00010000
00001000
00000000
00000010
00000000
00000100
00000000
00010000
00000000
00000010
00000000
00000100
00000000
00001000
00000000
,  // measure 62
00010000
00001000
00010000
00000000
00100000
00000000
10000000
00000000
00010000
00000000
10000000
00000000
00100000
00000000
01000000
00000000
,  // measure 63
00010000
00001000
00000010
00000100
00000001
00000010
00000001
00000100
,  // measure 64
00001000
00010000
00001000
00000000
00000010
00000000
00000100
00000000
00010000
00000000
00000010
00000000
00000100
00000000
00001000
00000000
,  // measure 65
00010000
00001000
00010000
00000000
00100000
00000000
01000000
00000000
00001000
00000000
00100000
00000000
01000000
00000000
00010000
00000000
,  // measure 66
00001000
00010000
00001000
00000000
00000010
00000000
00000001
00000000
00001001
00000000
00000000
00000000
00002000
00000000
00000000
00000000
,  // measure 67
00003200
00000000
00000320
00000000
00000031
00000100
00001000
00010000
,  // measure 68
01000000
10000000
00100000
10000000
10010000
00000000
00020000
00000000
,  // measure 69
02030000
00000000
03200000
00000000
10300000
01000000
00010000
00001000
,  // measure 70
00000100
00000000
00000001
00000000
00000010
00000000
00000001
00000000
00001000
00000000
00000001
00000100
00000001
00000000
00001000
00000100
,  // measure 71
00001000
00000000
00000010
00010000
00000010
00000000
00010000
00001000
00010000
00000000
00001000
01000000
00010000
01000000
00001000
01000000
,  // measure 72
00010000
01000000
00001000
01000000
00010000
01000000
00001000
01000000
00010000
00000000
10000000
01000000
10000000
00000000
00010000
01000000
,  // measure 73
00010000
00000000
00100000
00001000
00100000
00000000
00001000
00010000
00001000
00000000
00010000
00000100
00001000
00000100
00010000
00000100
,  // measure 74
00001000
00000100
00010000
00000100
00001000
00000100
00010000
00000100
00002000
00000000
00000000
00000000
00000100
00000000
00000000
00000000
,  // measure 75
00000001
00000010
00023000
01000000
,  // measure 76
10000000
00100000
00032000
00000010
,  // measure 77
00000001
00000100
00023000
00100000
,  // measure 78
10000000
00000000
00000000
00000000
01000000
00000000
00000000
00000000
00031000
00000000
00000000
00001000
00000100
00000000
00000000
00000100
,  // measure 79
00000010
00000000
00000000
00000010
00000001
00000000
00000000
00000001
00000100
00000000
00000000
00000000
00000000
00000000
00000000
00000000
,  // measure 80
00000110
00000000
00011000
00000000
,  // measure 81
01100000
00000000
00022000
00000000
,  // measure 82
00000000
00033000
00011000
00000000
;

//---------------dance-double - NewbStepper-DDP----------------
#NOTEDATA:;
#CHARTNAME:NewbStepper-DDP;
#STEPSTYPE:dance-double;
#DESCRIPTION:NewbStepper-DDP;
#DIFFICULTY:Medium;
#METER:14;
#RADARVALUES:0.688345,0.716969,0.386246,0.222091,0.053109,499,459,40,23,0,0,0,0,0,0.688345,0.716969,0.386246,0.222091,0.053109,499,459,40,23,0,0,0,0,0;
#CREDIT:NewbStepper;
#NOTES:
// measure 0
00000000
00000000
00000000
00000000
,  // measure 1
00000000
00000000
00000000
00000000
,  // measure 2
00000000
00000000
00000000
00000000
,  // measure 3
00000000
00000000
00000000
00000000
,  // measure 4
00000000
00000000
00000000
00000000
,  // measure 5
10000000
01000000
10000000
00100000
00010000
00001000
00000010
00000000
,  // measure 6
00000001
00000100
00000001
00000010
00001000
00010000
00100000
00000000
,  // measure 7
00010000
00001000
00000100
00000000
00001000
00010000
01000000
00000000
,  // measure 8
10000000
00100000
10000000
00100000
00010000
00001000
00000010
00000000
,  // measure 9
00000001
00000100
00000001
00000010
00001000
00010000
00100000
00000000
,  // measure 10
10000000
01000000
10000000
00100000
00010000
00001000
00000010
00000000
,  // measure 11
00001000
00010000
01000000
00000000
00010000
00001000
00000100
00000000
,  // measure 12
00000001
00000010
00000001
00000010
00001000
00010000
00100000
00000000
,  // measure 13
10100000
01000000
00110000
01000000
,  // measure 14
10000000
01000000
00100000
01000000
00010000
00001000
00000010
00000000
,  // measure 15
00000011
00000100
00001010
00000100
,  // measure 16
00000001
00000100
00000010
00000100
00001000
00010000
01000000
00000000
,  // measure 17
11000000
00100000
01010000
00100000
,  // measure 18
10000000
01000000
00010000
00001000
00000100
00000001
00000100
00000000
,  // measure 19
00000101
00000010
00001100
00000010
,  // measure 20
00000001
00000100
00001000
00010000
00011000
00000000
00100000
00000000
,  // measure 21
00011000
00000010
00011000
01000000
,  // measure 22
00011000
00000000
00000000
00000000
00000100
00000000
00000000
00000000
00011000
00000000
00000000
00001000
00010000
00000000
00000000
00010000
,  // measure 23
01000000
00000000
00000000
01000000
10000000
00000000
00000000
10000000
00100000
00000000
00000000
00100000
00010000
00000000
00000000
00010000
,  // measure 24
00001000
00000000
00000000
00001000
00000200
00000000
00000000
00000000
00000320
00000000
00000000
00000000
00000000
00000000
00000000
00000000
,  // measure 25
00001030
00000100
00000010
00001000
00010000
00000000
00010000
00000000
,  // measure 26
00100000
00010000
00001000
00100000
00010000
00000000
00010000
00000000
,  // measure 27
10000000
01000000
00010000
00001000
00010000
00000010
00001000
00010000
,  // measure 28
01000000
10000000
01000000
00010000
00200000
00000000
00000000
00000000
,  // measure 29
00310000
01000000
00100000
00010000
00001000
00000000
00001000
00000000
,  // measure 30
00000010
00001000
00010000
00000010
00001000
00000000
00001000
00000000
,  // measure 31
00000001
00000100
00001000
00010000
00000010
00000100
00000010
00010000
,  // measure 32
00001000
00000000
00011000
00000000
00010000
00000000
00000010
00001000
,  // measure 33
00000001
00001000
00000010
00000100
00001000
00000000
00011000
00000000
,  // measure 34
00010000
01000000
10000000
00100000
00010000
00000000
00011000
00000000
,  // measure 35
00001000
00000100
00000001
00000010
00001000
00000001
00000100
00001000
,  // measure 36
00010000
00100000
01000000
10000000
00010000
00000000
00100000
00010000
,  // measure 37
10000000
00010000
00100000
01000000
00010000
00000000
00011000
00000000
,  // measure 38
00001000
00000100
00000001
00000010
00001000
00000000
00011000
00000000
,  // measure 39
00010000
01000000
10000000
00100000
00010000
00001000
00000010
00000001
,  // measure 40
00001000
00000000
00001001
00000000
00000001
00000100
00000001
00000010
,  // measure 41
00001000
00010000
00100000
00000000
10000000
01000000
10000000
00100000
,  // measure 42
00010000
00001000
00000010
00000000
00001000
00010000
01000000
00000000
,  // measure 43
00010000
00001000
00000100
00000000
00000001
00000010
00000001
00000010
,  // measure 44
00001000
00010000
00100000
00000000
10000000
01000000
10000000
00100000
,  // measure 45
00010000
00001000
00000010
00000000
00000001
00000100
00000001
00000010
,  // measure 46
00001000
00010000
00100000
00000000
00000000
10000000
00000000
10000000
,  // measure 47
00000000
01000000
00000000
01000000
00000000
00100000
00000000
00100000
,  // measure 48
00000000
00010000
00000000
00010000
10000000
01000000
10000000
01000000
,  // measure 49
00100000
00010000
00100000
00010000
00001000
00000100
00001000
00000100
,  // measure 50
00000010
00000001
00000010
00000001
00001000
00000001
00000100
00001000
,  // measure 51
00010000
00100000
10000000
00010000
00200000
00000000
00000000
00000000
,  // measure 52
00310000
01000000
00100000
00010000
00001000
00000000
00001000
00000000
,  // measure 53
00000010
00001000
00010000
00000010
00001000
00000000
00001000
00000000
,  // measure 54
00000001
00000100
00001000
00010000
00001000
00100000
00010000
00001000
,  // measure 55
00000100
00000001
00000100
00001000
00000020
00000000
00000000
00000000
,  // measure 56
00001030
00000100
00000010
00001000
00010000
00000000
00010000
00000000
,  // measure 57
00100000
00010000
00001000
00100000
00010000
00000000
00010000
00000000
,  // measure 58
10000000
01000000
00010000
00001000
00100000
01000000
00100000
00001000
,  // measure 59
00010000
00000000
00011000
00000000
00001000
00000000
00100000
00010000
,  // measure 60
10000000
00010000
00100000
01000000
00010000
00000000
00011000
00000000
,  // measure 61
00001000
00000100
00000001
00000010
00001000
00000000
00011000
00000000
,  // measure 62
00010000
01000000
10000000
00100000
00010000
10000000
01000000
00010000
,  // measure 63
00001000
00000010
00000100
00000001
00001000
00000000
00000010
00001000
,  // measure 64
00000001
00001000
00000010
00000100
00001000
00000000
00011000
00000000
,  // measure 65
00010000
01000000
10000000
00100000
00010000
00000000
00011000
00000000
,  // measure 66
00001000
00000100
00000001
00000010
00001000
00000000
00010000
00000000
,  // measure 67
00001000
00000000
00000100
00000000
00000001
00000010
00000100
00001000
,  // measure 68
00010000
00001000
00000100
00000010
00001000
00000000
00001000
00000000
,  // measure 69
00010000
00000000
01000000
00000000
10000000
00100000
01000000
00010000
,  // measure 70
00001000
00010000
01000000
00100000
00010000
00000000
00011000
00000000
,  // measure 71
00001100
00011000
01010000
00011000
,  // measure 72
00001010
00011000
00110000
00011000
,  // measure 73
00001001
00000000
00011000
00000000
00010000
01000000
10000000
01000000
,  // measure 74
00010000
00001000
00000100
00000001
00002000
00000000
00003200
00000000
,  // measure 75
00000320
00002030
00023000
00230000
,  // measure 76
20300000
30020000
00230000
00302000
,  // measure 77
00003020
00000032
00000203
00020300
,  // measure 78
02030000
00000000
00000000
00000000
03200000
00000000
00000000
00000000
10300000
00000000
00000000
10000000
01000000
00000000
00000000
01000000
,  // measure 79
00010000
00000000
00000000
00010000
00001000
00000000
00000000
00001000
00010000
00000000
00000000
00000000
00000000
00000000
00000000
00000000
,  // measure 80
00010100
00000000
00011000
00000000
,  // measure 81
01001000
00000000
00022000
00000000
,  // measure 82
00000000
00033000
00011000
00000000
;

//---------------dance-double - NewbStepper-BDP----------------
#NOTEDATA:;
#CHARTNAME:NewbStepper-BDP;
#STEPSTYPE:dance-double;
#DESCRIPTION:NewbStepper-BDP;
#DIFFICULTY:Easy;
#METER:11;
#RADARVALUES:0.522811,0.597474,0.395902,0.164154,0,379,338,41,17,0,0,0,0,0,0.522811,0.597474,0.395902,0.164154,0,379,338,41,17,0,0,0,0,0;
#CREDIT:NewbStepper;
#NOTES:
// measure 0
00000000
00000000
00000000
00000000
,  // measure 1
00000000
00000000
00000000
00000000
,  // measure 2
00000000
00000000
00000000
00000000
,  // measure 3
00000000
00000000
00000000
00000000
,  // measure 4
00000000
00000000
00000000
00000000
,  // measure 5
00000001
00000000
00001000
00000000
00000100
00000010
00000100
00000000
,  // measure 6
00001000
00000000
00000001
00000000
00000100
00001000
00010000
00000000
,  // measure 7
00000100
00001100
00010000
00011000
,  // measure 8
00100000
01000000
10000000
00100000
,  // measure 9
01000000
00000000
00010000
00000000
01000000
00100000
01000000
00000000
,  // measure 10
00010000
00000000
10000000
00000000
01000000
00010000
00001000
00000000
,  // measure 11
01000000
01010000
00001000
00011000
,  // measure 12
00000010
00000000
00000100
00000000
00001000
00000001
00001000
00000000
,  // measure 13
00000001
00001000
00010000
10000000
,  // measure 14
00010000
00100000
01000000
10000000
01000000
00100000
00010000
00000000
,  // measure 15
10000000
00010000
00001000
00000001
,  // measure 16
00001000
00000010
00000100
00000001
00000100
00000010
00001000
00000000
,  // measure 17
00000001
00001000
00010000
10000000
,  // measure 18
00010000
01000000
00100000
10000000
00100000
01000000
00010000
00000000
,  // measure 19
10000000
00010000
00001000
00000001
,  // measure 20
00000010
00000001
00000100
00000010
00001000
00000000
00000000
00000000
,  // measure 21
00001100
00000000
00011000
00000000
,  // measure 22
01010000
00000000
00011000
00001000
,  // measure 23
01001000
01000000
01100000
00100000
,  // measure 24
10100000
10000000
00020000
00000000
,  // measure 25
10030000
01000000
00010000
00000000
00011000
00000000
00011000
00000000
,  // measure 26
00001000
01000000
00001000
00000000
00000010
00000000
00000010
00000000
,  // measure 27
00000001
00001000
00000001
00000000
00001000
00000000
00000100
00000000
,  // measure 28
00000010
00000001
00002000
00000000
,  // measure 29
00003001
00000100
00001000
00000000
00011000
00000000
00011000
00000000
,  // measure 30
00010000
00000100
00010000
00000000
00100000
00000000
00100000
00000000
,  // measure 31
10000000
00010000
10000000
00000000
11000000
00000000
01010000
00000000
,  // measure 32
01100000
00000000
00002000
00000000
,  // measure 33
00103000
00010000
00100000
00010000
10000000
00000000
10000000
00000000
,  // measure 34
01000000
00010000
01000000
00010000
00001000
00000000
00001000
00000000
,  // measure 35
00010000
00001000
00000100
00000001
00000010
00000000
00000001
00000000
,  // measure 36
00000100
00001000
00020000
00000000
,  // measure 37
00030010
00001000
00000010
00001000
00000001
00000000
00000001
00000000
,  // measure 38
00000100
00001000
00000100
00001000
00010000
00000000
00010000
00000000
,  // measure 39
00001000
00010000
01000000
10000000
00100000
00000000
11000000
00000000
,  // measure 40
01010000
00000000
10000000
00010000
,  // measure 41
01000000
00100000
01000000
00000000
00010000
00000000
10000000
00000000
,  // measure 42
01000000
00010000
00001000
00000000
01000000
00000000
01010000
00000000
,  // measure 43
00001000
00011000
00000010
00000100
,  // measure 44
00000001
00000010
00000100
00001000
,  // measure 45
00000100
00000010
00000100
00000000
00001000
00000000
00000001
00000000
,  // measure 46
00000100
00001000
00010000
00000000
00100000
00000000
00100000
00000000
,  // measure 47
10000000
10000000
01000000
01000000
,  // measure 48
00010000
00010000
00001000
00002000
,  // measure 49
00010000
00023000
00000100
00030200
,  // measure 50
00001000
00002300
00000002
00003000
,  // measure 51
00000000
00000003
00002000
00000000
,  // measure 52
00003001
00000100
00001000
00000000
00011000
00000000
00011000
00000000
,  // measure 53
00010000
00000100
00010000
00000000
00100000
00000000
00100000
00000000
,  // measure 54
10000000
00010000
10000000
00000000
00010000
00000000
01000000
00000000
,  // measure 55
00100000
10000000
00020000
00000000
,  // measure 56
10030000
01000000
00010000
00000000
00011000
00000000
00011000
00000000
,  // measure 57
00001000
01000000
00001000
00000000
00000010
00000000
00000010
00000000
,  // measure 58
00000001
00001000
00000001
00000000
00000101
00000000
00001100
00000000
,  // measure 59
00000110
00000000
00020000
00000000
,  // measure 60
00030010
00001000
00000010
00001000
00000001
00000000
00000001
00000000
,  // measure 61
00000100
00001000
00000100
00001000
00010000
00000000
00010000
00000000
,  // measure 62
00001000
00010000
01000000
10000000
00100000
00000000
10000000
00000000
,  // measure 63
01000000
00010000
00002000
00000000
,  // measure 64
00103000
00010000
00100000
00010000
10000000
00000000
10000000
00000000
,  // measure 65
01000000
00010000
01000000
00010000
00001000
00000000
00001000
00000000
,  // measure 66
00010000
00001000
00000100
00000001
00000010
00000000
00000001
00000000
,  // measure 67
00000100
00000010
00001010
00000000
,  // measure 68
00110000
00000000
10000000
01000000
,  // measure 69
00100000
00010000
00110000
00000000
,  // measure 70
00001010
00000000
00000001
00000100
,  // measure 71
00000001
00000100
00000010
00001000
,  // measure 72
00000010
00001000
00010000
01000000
,  // measure 73
00010000
01000000
00100000
10000000
,  // measure 74
00100000
10000000
00020000
01000000
,  // measure 75
10000000
00100000
00001000
00100000
,  // measure 76
10000000
01000000
00032000
00000100
,  // measure 77
00000001
00000010
00010000
00000010
,  // measure 78
00000001
00003100
00001100
00001010
,  // measure 79
00000011
00000101
00000110
00000000
,  // measure 80
00001001
00000000
00001000
00000000
,  // measure 81
00010000
00000000
00022000
00000000
,  // measure 82
00033000
00000000
00011000
00000000
;
