#VERSION:0.83;
#TITLE:Take Me Away (2015 Mix);
#ARTIST:4 Strings;
#BANNER:Take Me Away (2015 Mix).png;
#BACKGROUND:Take Me Away (2015 Mix)-bg.png;
#JACKET:Take Me Away (2015 Mix)-jacket.png;
#MUSIC:Take Me Away (2015 Mix).ogg;
#OFFSET:1.84;
#SAMPLESTART:97.535;
#SAMPLELENGTH:15;
#BPMS:0=128;
#BGCHANGES:3.75=Take Me Away (2015 Mix).avi=1=0=0=0=StretchNoLoop====,99999=-nosongbg-=1=0=0=0 // don't automatically add -songbackground-;

//---------------dance-single - Talkion-bSP----------------
#NOTEDATA:;
#CHARTNAME:Talkion-bSP;
#STEPSTYPE:dance-single;
#DESCRIPTION:Talkion-bSP;
#DIFFICULTY:Beginner;
#METER:2;
#RADARVALUES:0.112693,0.154049,0.007442,0.066978,0,106,105,1,9,0,0,0,0,0,0.112693,0.154049,0.007442,0.066978,0,106,105,1,9,0,0,0,0,0;
#CREDIT:Talkion;
#NOTES:
0000
0000
0000
0000
,
0000
0000
0000
0000
,
0000
0000
0000
0000
,
0000
0000
0000
0000
,
0000
0000
0000
0000
,
0001
0000
0000
0000
,
0001
0000
0001
0000
,
1000
0000
0000
0000
,
1000
0000
1000
0000
,
0001
0000
0000
0000
,
0001
0000
0001
0000
,
1000
0000
0000
0000
,
0000
0000
0000
0000
,
0001
0000
0001
0000
,
0010
0000
0000
0000
,
1000
0000
1000
0000
,
0010
0000
0000
0000
,
0001
0000
0001
0000
,
0100
0000
0000
0000
,
1000
0000
1000
0000
,
0100
0000
0000
0000
,
0002
0000
0000
0000
,
0000
0000
0003
0000
,
2000
0000
0000
0000
,
0000
0000
3000
0000
,
0020
0000
0000
0000
,
0000
0000
0030
0000
,
0200
0000
0000
0000
,
0000
0000
0300
0000
,
0002
0000
0000
0000
,
0003
0000
0001
0000
,
0200
0000
0000
0000
,
0300
0000
0100
0000
,
0020
0000
0000
0000
,
0030
0000
0010
0000
,
2000
0000
0000
0000
,
3000
0000
1000
0000
,
0001
0000
0001
0000
,
0001
0000
0010
0000
,
0100
0000
0100
0000
,
0100
0000
1000
0000
,
0001
0000
0001
0000
,
0001
0000
0100
0000
,
0010
0000
0010
0000
,
0010
0000
1000
0000
,
0001
0000
0010
0000
,
0010
0000
0010
0000
,
0100
0000
1000
0000
,
1000
0000
1000
0000
,
0001
0000
0100
0000
,
0100
0000
0100
0000
,
0010
0000
1000
0000
,
1000
0000
1000
0000
,
0001
0000
0001
0000
,
1000
1000
1000
0000
,
1000
0000
1000
0000
,
0001
0001
0001
0000
,
0010
0000
0010
0000
,
0100
0100
0100
0000
,
0100
0000
0100
0000
,
0010
0010
0010
0000
,
0001
0000
0100
0000
,
0001
0001
0100
0000
,
1000
0000
0100
0000
,
1000
1000
0100
0000
,
0001
0000
0010
0000
,
0001
0001
0010
0000
,
1000
0000
0010
0000
,
2000
0000
3000
0000
,
1001
0000
0000
0000
;

//---------------dance-single - Talkion-BSP----------------
#NOTEDATA:;
#CHARTNAME:Talkion-BSP;
#STEPSTYPE:dance-single;
#DESCRIPTION:Talkion-BSP;
#DIFFICULTY:Easy;
#METER:6;
#RADARVALUES:0.233891,0.282423,0.156281,0.156281,0,220,199,21,21,0,0,0,0,0,0.233891,0.282423,0.156281,0.156281,0,220,199,21,21,0,0,0,0,0;
#CREDIT:Talkion;
#NOTES:
0000
0000
0000
0000
,
0000
0000
0000
0000
,
0000
0000
0000
0000
,
0000
0000
0000
0000
,
0000
0000
0000
0000
,
0001
0020
0000
0000
0000
0000
0030
0000
,
0100
0100
0100
0100
,
1000
0020
0000
0000
0000
0000
0030
0000
,
0100
0100
0100
0100
,
0001
2000
0000
0000
0000
0000
3000
0000
,
0010
0010
0010
0010
,
1000
0002
0000
0000
0000
0000
0003
0000
,
0010
0010
0010
0010
,
1001
0000
0001
0001
,
0100
0100
0010
1000
,
1001
0000
1000
1000
,
0100
0100
0010
0001
,
1001
0000
0001
0001
,
0100
0010
1000
0100
,
1001
0000
1000
1000
,
0010
0100
0001
0010
,
0200
0000
0000
0000
,
0000
0000
1300
0000
,
2000
0000
0000
0000
,
0000
0000
3001
0000
,
0002
0000
0000
0000
,
0000
0000
0103
0000
,
0200
0000
0000
0000
,
0000
0000
0310
0000
,
0020
0000
0000
1030
0000
0000
2000
0000
,
0000
3100
0000
0000
0020
0000
0030
0000
,
0002
0000
0000
0103
0000
0000
0200
0000
,
0000
0310
0000
0000
0020
0000
0030
0000
,
2000
0000
0000
3001
0000
0000
0002
0000
,
0000
0013
0000
0000
0020
0000
0030
0000
,
0002
0000
0000
1003
0000
0000
2000
0000
,
0000
3010
0000
0000
0020
0000
0030
0000
,
1000
0000
1100
1000
,
0001
0000
0101
0001
,
1000
0000
1010
1000
,
0001
0000
0011
0001
,
1000
0000
1010
0010
,
0100
0000
0101
0001
,
0010
0000
0110
0100
,
1000
0000
1001
0001
,
1000
0000
1010
1000
,
0100
0000
0011
0001
,
0100
0000
1100
1000
,
0010
0000
0101
0001
,
0010
0000
0110
0100
,
1000
0000
0110
0100
,
0001
0000
1001
0001
,
0010
0000
1001
1000
,
0010
0100
0010
0100
,
0001
1000
0001
0000
0010
0000
0010
0000
,
0100
1000
0100
1000
,
0001
0100
0001
0000
1000
0000
1000
0000
,
0100
0010
0100
0010
,
0001
1000
0001
0000
0100
0000
0100
0000
,
0010
0100
0001
0100
,
0001
0100
0001
0000
1000
0000
1000
0000
,
0001
0010
0100
1000
,
0001
0100
0001
0000
0100
0000
0010
0000
,
1000
0100
0010
0001
,
1000
0010
1000
0000
0010
0000
0100
0000
,
0001
0010
0100
0010
,
0001
1000
0001
0000
0100
0000
0010
0000
,
1000
0100
0010
0100
,
2000
0000
0001
3001
,
1001
0000
0000
0000
;

//---------------dance-single - Talkion-DSP----------------
#NOTEDATA:;
#CHARTNAME:Talkion-DSP;
#STEPSTYPE:dance-single;
#DESCRIPTION:Talkion-DSP;
#DIFFICULTY:Medium;
#METER:9;
#RADARVALUES:0.358278,0.410797,0.342331,0.238143,0,337,291,46,32,0,0,0,0,0,0.358278,0.410797,0.342331,0.238143,0,337,291,46,32,0,0,0,0,0;
#CREDIT:Talkion;
#NOTES:
0000
0000
0000
0000
,
0000
0000
0000
0000
,
0000
0000
0000
0000
,
0000
0000
0000
0000
,
0000
0000
0000
0000
,
0001
0010
0001
0000
0010
0100
0010
0000
,
0100
1000
0100
0000
1000
0001
1000
0000
,
0010
1000
0010
0000
0100
0010
0100
0000
,
0001
0100
0001
0000
1000
0001
1000
0000
,
0100
0010
0001
0000
0001
0010
0100
0000
,
1000
0010
0100
0000
0100
0010
1000
0000
,
0001
0010
0100
0000
0100
1000
0001
0000
,
0200
0000
0000
0300
,
0010
0000
0010
0000
0010
1000
0100
1000
,
0001
0001
0001
0001
,
0100
0000
0100
0000
0100
0001
0010
0001
,
1000
1000
1000
1000
,
0010
0000
0010
0000
0010
0100
0001
1000
,
0100
0100
0100
0100
,
0010
0000
0010
0000
0100
1000
0001
0100
,
0020
0100
0100
0130
,
0002
0000
0000
0000
,
0000
0000
0010
0000
,
0203
0000
0000
0000
,
0000
0000
1000
0000
,
0320
0000
0000
0000
,
0000
0000
0001
0000
,
0230
0000
0000
0000
,
0000
0000
0010
0000
,
0302
0000
0000
0023
0000
0000
0230
0000
,
0000
2300
0000
0000
3002
0000
0203
0000
,
0320
0000
0000
2030
0000
0000
3200
0000
,
0000
0320
0000
0000
0032
0000
2003
0000
,
3020
0000
0000
0230
0000
0000
0302
0000
,
0000
0023
0000
0000
0230
0000
2300
0000
,
3002
0000
0000
0203
0000
0000
0320
0000
,
0000
2030
0000
0000
3200
0000
0320
0000
,
0031
0000
0001
0010
0100
0000
1100
0000
,
1000
0010
0100
0000
0101
0000
1001
0000
,
1100
0000
0100
0010
0001
0000
0101
0000
,
0100
0010
1000
0000
1010
0000
1001
0000
,
0011
0000
0001
0100
0010
0000
1010
0000
,
1000
0100
0010
0000
0011
0000
1001
0000
,
1010
0000
0010
0100
0001
0000
0011
0000
,
0010
0100
1000
0000
1010
0000
1001
0000
,
0101
0000
0100
0001
0010
0000
0110
0000
,
0100
1000
0010
0000
0110
0000
1001
0000
,
1100
0000
0100
1000
0010
0000
0110
0000
,
0100
0001
0010
0000
0110
0000
1001
0000
,
1010
0000
0010
1000
0100
0000
0110
0000
,
0010
0001
0100
0000
0110
0000
1001
0000
,
0011
0000
0010
0001
0100
0000
0110
0000
,
0010
1000
0200
0000
0010
0000
0310
0000
,
1001
0000
0001
0100
0010
1000
0001
0000
,
0001
1000
0010
0100
0001
0000
0101
0000
,
1001
0000
1000
0100
0010
0001
1000
0000
,
1000
0001
0010
0100
1000
0000
1100
0000
,
1001
0000
0001
0100
0010
0100
0001
0000
,
0001
0010
0100
1000
0001
0000
0011
0000
,
1001
0000
1000
0010
0100
0010
1000
0000
,
1000
0100
0010
0001
1000
0000
1100
0000
,
1001
0000
0001
0100
0001
0100
1000
0000
,
0100
0010
0100
0001
1000
0000
1010
0000
,
1001
0000
1000
0100
1000
0100
0001
0000
,
0100
0010
0100
1000
0001
0000
0011
0000
,
1001
0000
1000
0010
1000
0010
0001
0000
,
0010
0100
0010
1000
0001
0000
0101
0000
,
1001
0000
0001
0010
0001
0010
1000
0000
,
0010
0002
0000
0103
0010
0000
0110
0000
,
1001
0000
0000
0000
;

//---------------dance-single - Talkion-ESP----------------
#NOTEDATA:;
#CHARTNAME:Talkion-ESP;
#STEPSTYPE:dance-single;
#DESCRIPTION:Talkion-ESP;
#DIFFICULTY:Hard;
#METER:12;
#RADARVALUES:0.479476,0.539171,0.453960,0.230701,0.186049,451,390,61,31,0,0,0,0,0,0.479476,0.539171,0.453960,0.230701,0.186049,451,390,61,31,0,0,0,0,0;
#CREDIT:Talkion;
#NOTES:
0000
0000
0000
0000
,
0000
0000
0000
0000
,
0000
0000
0000
0000
,
0000
0000
0000
0000
,
0000
0000
0000
0000
,
1000
0000
0010
0000
1000
0000
0010
0000
0100
0000
0001
0100
0001
0000
0100
0001
,
0100
0000
0010
0000
0100
0000
0010
0000
1000
0000
0100
1000
0100
0000
1000
0100
,
1000
0000
0100
0000
0010
0000
0100
0000
0010
0000
0001
0010
0001
0000
0010
0001
,
0010
0000
0001
0000
0100
0000
0001
0000
0100
0000
0010
0100
0010
0000
0100
0010
,
0100
0000
0010
0000
1000
0000
0010
0000
1000
0000
0001
1000
0001
0000
1000
0001
,
1000
0000
0100
0000
1000
0000
0100
0000
0010
0000
0001
0010
0001
0000
0010
0001
,
0010
0000
0100
0000
1000
0000
0100
0000
1000
0000
0100
1000
0100
0000
1000
0100
,
2000
0001
0001
3001
,
0010
0000
0001
1000
0000
0000
0001
1000
0000
0000
0001
1000
0000
0000
0010
1000
,
0000
0000
1000
0010
0000
0000
1000
0010
0000
0000
1000
0010
0000
0000
0100
0001
,
0000
0000
0001
0100
0000
0000
0001
0100
0000
0000
0001
0100
0000
0000
0001
1000
,
0000
0000
1000
0001
0000
0000
1000
0001
0000
0000
1000
0001
0000
0000
1000
0100
,
0000
0000
0100
0010
0000
0000
0100
0010
0000
0000
0100
0010
0000
0000
0100
1000
,
0000
0000
1000
0001
0000
0000
1000
0001
0000
0000
1000
0001
0000
0000
0100
0001
,
0000
0000
0001
0100
0000
0000
0001
0100
0000
0000
0001
0100
0000
0000
0010
2000
,
0000
0100
0000
0100
0000
3100
0010
0001
,
0200
0000
0000
0000
,
0000
0000
1000
0000
,
0302
0000
0000
0000
,
0000
0000
0010
0000
,
2003
0000
0000
0000
,
0000
0000
0010
0000
,
3200
0000
0000
0000
,
0000
0000
0001
0000
,
2300
0000
0000
3020
0000
0000
0230
0000
,
0000
0302
0000
0000
0023
0000
2030
0000
,
3020
0000
0000
0032
0000
0000
0203
0000
,
0000
2300
0000
0000
3200
0000
0320
0000
,
2030
0000
0000
3020
0000
0000
0032
0000
,
0000
0023
0000
0000
2030
0000
3200
0000
,
0302
0000
0000
0203
0000
0000
2300
0000
,
0000
3020
0000
0000
0230
0000
0302
0000
,
1003
0000
1000
0100
0011
0001
0100
0000
,
0100
0010
1001
1000
0100
0000
0110
0000
,
0011
0000
0001
0100
1010
1000
0100
0000
,
0100
0010
1001
0001
0100
0000
0110
0000
,
1010
0000
1000
0100
0110
0001
1000
0000
,
1000
0001
0110
0010
1000
0000
1001
0000
,
0011
0000
0001
0100
0110
1000
0001
0000
,
0001
1000
0110
0010
0001
0000
1001
0000
,
1100
0000
0100
0010
0011
0100
1001
0000
,
1000
0010
1010
0100
1001
0000
0110
0000
,
0101
0000
0100
0010
1010
0100
1001
0000
,
0001
0010
0011
0100
1001
0000
0110
0000
,
1100
0000
0100
0010
1001
0001
0101
0000
,
0100
0010
1001
1000
1100
0000
1001
0000
,
0101
0000
0100
0010
1001
1000
1100
0000
,
0100
0010
0001
0010
0100
0000
1001
0000
,
0001
0000
0100
0000
0110
0000
1000
0000
0100
0000
0010
0100
0010
0000
0001
0000
,
1000
0010
0001
0010
0110
0100
1001
0000
,
1000
0000
0010
0000
0110
0000
0001
0000
0010
0000
0100
0010
0100
0000
1000
0000
,
0001
0100
1000
0100
0110
0010
1001
0000
,
0001
0000
1000
0000
1010
0000
1000
0000
0001
0000
0010
0001
0010
0000
0001
0000
,
1000
0010
0100
0001
0101
0100
1001
0000
,
1000
0000
0001
0000
0101
0000
0001
0000
1000
0000
0100
1000
0100
0000
1000
0000
,
0001
0100
0010
1000
1010
0010
1001
0000
,
0001
0000
0010
0000
0011
0000
1000
0000
0010
0000
1000
0010
1000
0000
0001
0000
,
0010
1000
0010
0100
1001
1000
1010
0000
,
1000
0000
0100
0000
1100
0000
0001
0000
0100
0000
0001
0100
0001
0000
1000
0000
,
0100
0001
0100
0010
1001
0001
0101
0000
,
0001
0000
0100
0000
1010
0000
1000
0000
0100
0000
0010
0001
0010
0000
0001
0000
,
1000
0010
0100
0001
1001
1000
1001
0000
,
1000
0000
0010
0000
0101
0000
0001
0000
0010
0000
0100
1000
0100
0000
2000
0000
,
0000
0001
0000
3001
0100
0000
0110
0000
,
1001
0000
0000
0000
;

//---------------dance-double - Talkion-BDP----------------
#NOTEDATA:;
#CHARTNAME:Talkion-BDP;
#STEPSTYPE:dance-double;
#DESCRIPTION:Talkion-BDP;
#DIFFICULTY:Easy;
#METER:6;
#RADARVALUES:0.232827,0.282423,0.133955,0.171165,0,219,201,18,23,0,0,0,0,0,0.232827,0.282423,0.133955,0.171165,0,219,201,18,23,0,0,0,0,0;
#CREDIT:Talkion;
#NOTES:
00000000
00000000
00000000
00000000
,
00000000
00000000
00000000
00000000
,
00000000
00000000
00000000
00000000
,
00000000
00000000
00000000
00000000
,
00000000
00000000
00000000
00000000
,
10000000
02000000
00000000
00000000
00000000
00000000
03000000
00000000
,
00100000
00100000
00100000
00100000
,
00001000
00020000
00000000
00000000
00000000
00000000
00030000
00000000
,
00000010
00000010
00000010
00000010
,
00000100
00000002
00000000
00000000
00000000
00000000
00000003
00000000
,
00001000
00001000
00001000
00001000
,
00000100
00020000
00000000
00000000
00000000
00000000
00030000
00000000
,
00001000
00001000
00001000
00001000
,
00110000
00000000
10000000
10000000
,
00100000
00100000
01000000
00001000
,
00011000
00000000
00010000
00010000
,
00000100
00000100
00001000
00000001
,
00001001
00000000
00001000
00001000
,
00000010
00000010
00010000
00001000
,
00011000
00000000
00010000
00010000
,
01000000
00100000
00010000
10000000
,
00200000
00000000
00000000
00000000
,
00000000
00000000
01300000
00000000
,
00002000
00000000
00000000
00000000
,
00000000
00000000
00013000
00000000
,
00000020
00000000
00000000
00000000
,
00000000
00000000
00000130
00000000
,
00000002
00000000
00000000
00000000
,
00000000
00000000
00001003
00000000
,
00000200
00000000
00000000
00010300
00000000
00000000
00020000
00000000
,
00000000
00031000
00000000
00000000
00200000
00000000
00300000
00000000
,
00020000
00000000
00000000
10030000
00000000
00000000
20000000
00000000
,
00000000
30100000
00000000
00000000
02000000
00000000
03000000
00000000
,
00020000
00000000
00000000
00130000
00000000
00000000
00200000
00000000
,
00000000
00301000
00000000
00000000
00020000
00000000
00030000
00000000
,
00000200
00000000
00000000
00001300
00000000
00000000
00002000
00000000
,
00000000
00003001
00000000
00000000
00000200
00000000
00000300
00000000
,
00000001
00000000
00000011
00000010
,
00000100
00000000
00001100
00010000
,
00001000
00000000
00011000
00100000
,
00010000
00000000
10010000
10000000
,
00100000
00000000
01100000
01000000
,
00001000
00000000
00011000
00010000
,
00000010
00000000
00000110
00000100
,
00000001
00000000
00001001
00000000
,
00000110
00000000
00001001
00000001
,
00000100
00001000
00010000
00001000
,
00011000
00000000
00010000
01000000
,
10000000
00010000
10000000
00100000
,
01100000
00000000
01000000
00001000
,
00010000
00000010
00001000
00000001
,
00001001
00000000
00000001
00000010
,
00001000
00020000
00002000
00033000
,
00100000
00010000
00100000
00010000
,
10000000
00010000
10000000
00000000
00100000
00000000
00010000
00000000
,
00001000
00010000
00001000
00010000
,
00000100
00001000
00000100
00000000
00001000
00000000
00000001
00000000
,
00000100
00001000
00000100
00001000
,
00010000
00001000
00010000
00000000
01000000
00000000
00100000
00000000
,
00010000
10000000
00010000
10000000
,
00100000
00010000
00100000
00000000
00001000
00000000
00010000
00000000
,
00000100
00001000
00000100
00001000
,
00000001
00000100
00000001
00000000
00000100
00000000
00001000
00000000
,
00010000
00001000
00010000
00001000
,
00100000
00010000
00100000
00000000
00010000
00000000
10000000
00000000
,
00100000
00010000
00100000
00010000
,
00001000
00010000
00001000
00000000
00000010
00000000
00000100
00000000
,
00001000
00000001
00001000
00000001
,
00000200
00000000
00000010
00000310
,
00001001
00000000
00000000
00000000
;

//---------------dance-double - Talkion-DDP----------------
#NOTEDATA:;
#CHARTNAME:Talkion-DDP;
#STEPSTYPE:dance-double;
#DESCRIPTION:Talkion-DDP;
#DIFFICULTY:Medium;
#METER:9;
#RADARVALUES:0.331699,0.385122,0.074420,0.260469,0,312,302,10,35,0,0,0,0,0,0.331699,0.385122,0.074420,0.260469,0,312,302,10,35,0,0,0,0,0;
#CREDIT:Talkion;
#NOTES:
00000000
00000000
00000000
00000000
,
00000000
00000000
00000000
00000000
,
00000000
00000000
00000000
00000000
,
00000000
00000000
00000000
00000000
,
00000000
00000000
00000000
00000000
,
00000001
00000100
00000001
00000000
00000100
00001000
00000100
00000000
,
00001000
00010000
00001000
00000000
00010000
00100000
00010000
00000000
,
00100000
10000000
00100000
00000000
10000000
00010000
10000000
00000000
,
01000000
10000000
01000000
00000000
00010000
01000000
00010000
00000000
,
00001000
00010000
00001000
00000000
00100000
00010000
00100000
00000000
,
00001000
00010000
00001000
00000000
00000100
00001000
00000100
00000000
,
00000001
00000100
00000001
00000000
00001000
00000100
00001000
00000000
,
00000020
00000000
00000000
00000030
,
00000100
00000000
00000100
00000000
00000100
00000001
00001000
00000100
,
00010000
00010000
00010000
00010000
,
00001000
00000000
00001000
00000000
00001000
00100000
00010000
01000000
,
00100000
00100000
00100000
00100000
,
10000000
00000000
10000000
00000000
10000000
01000000
00100000
00010000
,
01000000
01000000
01000000
01000000
,
00010000
00000000
00010000
00000000
00010000
00100000
00001000
00010000
,
00000200
00001000
00001000
00001300
,
00000002
00000000
00000000
00000000
,
00000000
00000000
00000203
00000000
,
00002300
00000000
00000000
00000000
,
00000000
00000000
00023000
00000000
,
00230000
00000000
00000000
00000000
,
00000000
00000000
20300000
00000000
,
30020000
00000000
00000000
00000000
,
00000000
00000000
00230000
00000000
,
00302000
00000000
00000000
00023000
00000000
00000000
00030200
00000000
,
00000000
00002300
00000000
00000000
00003002
00000000
00000203
00000000
,
00000320
00000000
00000000
00020030
00000000
00000000
00032000
00000000
,
00000000
00203000
00000000
00000000
00320000
00000000
02030000
00000000
,
03200000
00000000
00000000
20300000
00000000
00000000
32000000
00000000
,
00000000
03200000
00000000
00000000
00302000
00000000
00023000
00000000
,
00030200
00000000
00000000
00002300
00000000
00000000
00003020
00000000
,
00000000
00000230
00000000
00000000
00000302
00000000
00002003
00000000
,
00003001
00000000
00000010
00000100
00000010
00000000
00000100
00000000
,
00010000
00001000
00010000
00000000
00001000
00000000
00011000
00000000
,
00100000
00000000
00010000
10000000
00010000
00000000
01000000
00000000
,
00100000
01000000
00100000
00000000
10000000
00000000
10010000
00000000
,
00100000
00000000
00001000
00010000
00001000
00000000
00010000
00000000
,
00000100
00001000
00000100
00000000
00001000
00000000
00001001
00000000
,
00000100
00000000
00000001
00000100
00000001
00000000
00001000
00000000
,
00000100
00001000
00000100
00000000
00010000
00000000
00011000
00000000
,
00100000
00000000
00010000
10000000
00010000
10000000
00100000
00000000
,
01000000
00010000
01000000
00000000
00001000
00000000
00011000
00000000
,
00000100
00000000
00001000
00000001
00001000
00000001
00000100
00000000
,
00000010
00001000
00000010
00000000
00010000
00000000
00011000
00000000
,
00100000
00000000
00010000
10000000
00010000
10000000
01000000
00000000
,
00010000
00001000
00010000
00000000
00001000
00000000
00011000
00000000
,
00000010
00000000
00001000
00000001
00001000
00000001
00000100
00000000
,
00001000
00010000
00001000
00000000
00010000
00000000
00011000
00000000
,
00100000
00000000
00010000
10000000
00100000
00010000
00001000
00000000
,
00010000
00001000
00010000
00000100
00001000
00000001
00000100
00000000
,
00000010
00000000
00001000
00000001
00000010
00001000
00010000
00000000
,
00001000
00010000
00001000
01000000
00010000
10000000
01000000
00000000
,
00100000
00000000
01000000
00010000
00001000
00010000
01000000
00000000
,
00010000
00001000
00000100
00000010
00001000
00000001
00001000
00000000
,
00000010
00000000
00000100
00001000
00010000
00001000
00000100
00000000
,
00001000
00010000
01000000
00100000
00010000
10000000
00010000
00000000
,
10000000
00000000
01000000
00010000
00001000
00010000
00001000
00000000
,
00000010
00000001
00000100
00000001
00000010
00000100
00001000
00000000
,
00000001
00000000
00000100
00001000
00010000
00001000
00010000
00000000
,
00100000
10000000
01000000
10000000
00100000
01000000
00010000
00000000
,
10000000
00000000
01000000
00010000
00001000
00010000
00100000
00000000
,
00010000
00001000
00000100
00000001
00001000
00000001
00000010
00000000
,
00000100
00000000
00010000
00001000
00100000
00010000
01000000
00000000
,
00100000
20000000
00000000
31000000
00100000
00000000
00101000
00000000
,
00011000
00000000
00000000
00000000
;

//---------------dance-double - Talkion-EDP----------------
#NOTEDATA:;
#CHARTNAME:Talkion-EDP;
#STEPSTYPE:dance-double;
#DESCRIPTION:Talkion-EDP;
#DIFFICULTY:Hard;
#METER:12;
#RADARVALUES:0.440139,0.487821,0.320005,0.230701,0.133955,414,371,43,31,0,0,0,0,0,0.440139,0.487821,0.320005,0.230701,0.133955,414,371,43,31,0,0,0,0,0;
#CREDIT:Talkion;
#NOTES:
// measure 0
00000000
00000000
00000000
00000000
,  // measure 1
00000000
00000000
00000000
00000000
,  // measure 2
00000000
00000000
00000000
00000000
,  // measure 3
00000000
00000000
00000000
00000000
,  // measure 4
00000000
00000000
00000000
00000000
,  // measure 5
10000000
01000000
00010000
00001000
00010000
00100000
10000000
00100000
,  // measure 6
00010000
00001000
00000010
00000001
00000100
00001000
00010000
00001000
,  // measure 7
00000010
00000001
00000100
00001000
00010000
00100000
10000000
00010000
,  // measure 8
00100000
01000000
00010000
00001000
00000100
00000001
00001000
00000001
,  // measure 9
00000010
00001000
00010000
00100000
01000000
00010000
10000000
00100000
,  // measure 10
00010000
00001000
00000100
00000010
00001000
00000001
00000010
00001000
,  // measure 11
00010000
00001000
00000100
00001000
00010000
01000000
00010000
00001000
,  // measure 12
02000000
00100000
00100000
03100000
,  // measure 13
10000000
00000000
00010000
00100000
00000000
00000000
00010000
00100000
00000000
00000000
01000000
10000000
00000000
00000000
01000000
10000000
,  // measure 14
00000000
00000000
00010000
01000000
00000000
00000000
00010000
01000000
00000000
00000000
00001000
00010000
00000000
00000000
00001000
00010000
,  // measure 15
00000000
00000000
00000100
00001000
00000000
00000000
00000100
00001000
00000000
00000000
00000001
00000100
00000000
00000000
00000001
00000100
,  // measure 16
00000000
00000000
00001000
00010000
00000000
00000000
00001000
00010000
00000000
00000000
00100000
10000000
00000000
00000000
00100000
10000000
,  // measure 17
00000000
00000000
00010000
00100000
00000000
00000000
00010000
00100000
00000000
00000000
00001000
00010000
00000000
00000000
00001000
00010000
,  // measure 18
00000000
00000000
00000010
00001000
00000000
00000000
00000010
00001000
00000000
00000000
00000001
00000010
00000000
00000000
00000001
00000010
,  // measure 19
00000000
00000000
00001000
00010000
00000000
00000000
00001000
00010000
00000000
00000000
00100000
10000000
00000000
00000000
00100000
10000000
,  // measure 20
00000000
00010000
00000000
00001000
00000000
00000001
00000000
00001000
,  // measure 21
00000002
00000000
00000000
00000000
,  // measure 22
00000000
00000000
00002003
00000000
,  // measure 23
00023000
00000000
00000000
00000000
,  // measure 24
00000000
00000000
02030000
00000000
,  // measure 25
23000000
00000000
00000000
00000000
,  // measure 26
00000000
00000000
30020000
00000000
,  // measure 27
00032000
00000000
00000000
00000000
,  // measure 28
00000000
00000000
00003200
00000000
,  // measure 29
00000302
00000000
00000000
00000023
00000000
00000000
00002030
00000000
,  // measure 30
00000000
00203000
00000000
00000000
02300000
00000000
13000000
00000000
,  // measure 31
20000000
00000000
00000000
30200000
00000000
00000000
00320000
00000000
,  // measure 32
00000000
00030020
00000000
00000000
00000230
00000000
00000301
00000000
,  // measure 33
00000002
00000000
00000000
00000023
00000000
00000000
00002030
00000000
,  // measure 34
00000000
00203000
00000000
00000000
00320000
00000000
01030000
00000000
,  // measure 35
02000000
00000000
00000000
23000000
00000000
00000000
30020000
00000000
,  // measure 36
00000000
00032000
00000000
00000000
00003020
00000000
00000130
00000000
,  // measure 37
00000110
00000000
00000001
00000100
00001100
00000000
00011000
00000000
,  // measure 38
00010000
00100000
10100000
00000000
10010000
00000000
11000000
00000000
,  // measure 39
10010000
00000000
10000000
00100000
00110000
00000000
00011000
00000000
,  // measure 40
00001000
00000100
00000101
00000000
00001001
00000000
00000011
00000000
,  // measure 41
00001001
00000000
00000001
00000100
00001100
00000000
00011000
00000000
,  // measure 42
00010000
01000000
11000000
00000000
10010000
00000000
10100000
00000000
,  // measure 43
10010000
00000000
10000000
01000000
01010000
00000000
00011000
00000000
,  // measure 44
00001000
00000100
00000010
00000100
00001000
00000000
00001100
00000000
,  // measure 45
00011000
00000000
00010000
01000000
00100000
00010000
11000000
00000000
,  // measure 46
10000000
00100000
00010000
00001000
00100000
00010000
00101000
00000000
,  // measure 47
00011000
00000000
00001000
00000100
00000010
00001000
00000101
00000000
,  // measure 48
00000001
00000010
00001000
00010000
00000010
00001000
00010010
00000000
,  // measure 49
00011000
00000000
00010000
01000000
10000000
00100000
10010000
00000000
,  // measure 50
00010000
00001000
00000100
00000010
00000100
00001000
00010100
00000000
,  // measure 51
00011000
00000000
00001000
00000100
00000001
00000010
00001001
00000000
,  // measure 52
00002000
00000100
00000000
00000100
00003100
00000000
00010100
00000000
,  // measure 53
00010000
00000000
00001000
00000000
00010000
00000000
01000000
00000000
10000000
00000000
00010000
01000000
00010000
00000000
10000000
00000000
,  // measure 54
01000000
00010000
00000100
00000010
00000100
00010000
00011000
00000000
,  // measure 55
00001000
00000000
00010000
00000000
00001000
00000000
00000100
00000000
00000001
00000000
00001000
00000100
00001000
00000000
00000001
00000000
,  // measure 56
00000100
00001000
01000000
00100000
01000000
00001000
00011000
00000000
,  // measure 57
00010000
00000000
01000000
00000000
10000000
00000000
00010000
00000000
01000000
00000000
00100000
00010000
00100000
00000000
00010000
00000000
,  // measure 58
00001000
00000100
00000001
00001000
00000100
00010000
00011000
00000000
,  // measure 59
00001000
00000000
00000100
00000000
00000001
00000000
00001000
00000000
00000100
00000000
00000010
00001000
00000010
00000000
00001000
00000000
,  // measure 60
00010000
01000000
10000000
00010000
01000000
00001000
00011000
00000000
,  // measure 61
00000010
00000000
00001000
00000000
00000001
00000000
00000010
00000000
00001000
00000000
00010000
00001000
00010000
00000000
00100000
00000000
,  // measure 62
10000000
01000000
00010000
00001000
00010000
01000000
11000000
00000000
,  // measure 63
00100000
00000000
00010000
00000000
10000000
00000000
00100000
00000000
00010000
00000000
00001000
00010000
00001000
00000000
00000010
00000000
,  // measure 64
00000001
00000100
00001000
00010000
00001000
00000100
00000101
00000000
,  // measure 65
00000001
00000000
00000010
00000000
00001000
00000000
00100000
00000000
00001000
00000000
00010000
00001000
00010000
00000000
01000000
00000000
,  // measure 66
10000000
00010000
01000000
10000000
01000000
00010000
00110000
00000000
,  // measure 67
10000000
00000000
00100000
00000000
00010000
00000000
00000010
00000000
00010000
00000000
00001000
00010000
00001000
00000000
00000100
00000000
,  // measure 68
00000002
00001000
00000000
00001000
00001003
00000000
00010100
00000000
,  // measure 69
00011000
00000000
00000000
00000000
;
