#VERSION:0.83;
#TITLE:TRIP MACHINE Rezonance;
#ARTIST:TSUKASA;
#BANNER:TRIP MACHINE Rezonance.png;
#BACKGROUND:TRIP MACHINE Rezonance-bg.png;
#JACKET:TRIP MACHINE Rezonance-jacket.png;
#MUSIC:TRIP MACHINE Rezonance.ogg;
#OFFSET:1.46;
#SAMPLESTART:72.04;
#SAMPLELENGTH:15;
#BPMS:0=160,132=80,148=160;
#STOPS:243.5=0.375;
#TIMESIGNATURES:0=4=4,244=3=4,247=4=4;

//---------------dance-single - Marten-ESP----------------
#NOTEDATA:;
#CHARTNAME:Marten-ESP;
#STEPSTYPE:dance-single;
#DESCRIPTION:Marten-ESP;
#DIFFICULTY:Hard;
#METER:13;
#RADARVALUES:0.614465,0.784347,0.768416,0.318612,0.224902,459,377,82,34,0,0,0,0,0,0.614465,0.784347,0.768416,0.318612,0.224902,459,377,82,34,0,0,0,0,0;
#CREDIT:Marten;
#NOTES:
// measure 0
0000
0000
0000
0000
,  // measure 1
0000
0000
0000
0000
,  // measure 2
0000
0000
0000
0000
,  // measure 3
0000
0000
0000
0000
,  // measure 4
0000
0000
0000
0000
,  // measure 5
0101
0000
0010
1100
0000
0000
1000
0000
,  // measure 6
0100
0000
1000
0000
0010
1000
0001
1000
,  // measure 7
1100
0000
0010
0101
0000
0000
0010
0000
,  // measure 8
1000
0010
0001
1000
0100
0001
1000
0100
,  // measure 9
0110
0010
0001
1001
0000
0000
0101
0000
,  // measure 10
0001
0000
0100
0010
1000
0010
0001
0010
,  // measure 11
1010
1000
0100
1100
0000
0000
0011
0000
,  // measure 12
0010
0000
0001
0000
1000
0100
0001
0100
,  // measure 13
1100
1000
0001
0101
0000
0000
0110
0000
,  // measure 14
0010
1000
0001
0010
1000
0001
0100
1000
,  // measure 15
1001
0001
0100
0110
0000
0000
1001
0000
,  // measure 16
0100
0000
0101
0000
0000
0000
0001
0010
0001
0000
1000
0010
1000
0000
0000
0000
,  // measure 17
1020
0000
0000
0100
0000
0000
0031
0000
0000
0000
0010
0000
1000
0000
0100
0000
,  // measure 18
1000
0001
0010
0100
0001
1000
0010
0001
,  // measure 19
0201
0000
0000
2300
0000
0000
3001
0000
,  // measure 20
0010
1000
0100
0001
1000
0010
0100
1000
,  // measure 21
0021
0000
0000
0100
0000
0000
1030
0000
0000
0000
0010
0000
0001
0000
0100
0000
,  // measure 22
0001
1000
0010
0100
1000
0001
0010
1000
,  // measure 23
1100
0000
0010
0101
0000
0000
0000
1010
,  // measure 24
0100
0000
0001
1000
0110
0000
0110
0000
,  // measure 25
1200
0000
0000
2300
0000
0000
3020
0000
0000
0000
0130
0000
0001
0000
0100
0000
,  // measure 26
0010
1000
0100
0001
0100
0010
0001
1000
,  // measure 27
1020
0000
0000
0230
0000
0000
0301
0000
,  // measure 28
0010
0001
0100
0010
1000
0100
0010
0001
,  // measure 29
0201
0000
0000
0302
0000
0000
0023
0000
0000
0000
0130
0000
1000
0000
0100
0000
,  // measure 30
0010
0001
0100
1000
0100
0010
1000
0001
,  // measure 31
0101
0000
0100
0101
0000
0000
0000
0011
,  // measure 32
0000
0100
1000
0001
1001
0001
1001
0001
,  // measure 33
1000
0010
2000
0000
0000
3020
0000
0032
0000
0203
0000
1300
0001
0001
0100
0100
,  // measure 34
0001
0010
0002
0000
0000
0023
0000
2030
0000
3100
0001
0001
1000
1000
0010
0010
,  // measure 35
1010
0000
0102
0000
0000
0203
0000
2300
0000
3020
0000
0031
1000
1000
0001
0001
,  // measure 36
0100
1000
0200
0000
0000
0302
0000
0013
0000
1010
0000
0011
0000
1100
0000
0101
,  // measure 37
2001
0000
3002
0000
0103
0101
0000
1010
,  // measure 38
0000
0011
0000
0100
1000
1000
0100
0100
,  // measure 39
0010
0001
0200
0000
0310
1010
0000
0011
,  // measure 40
0000
1000
0100
0010
0001
0001
1000
1000
,  // measure 41
1100
0000
0102
0000
0013
0110
0000
1100
,  // measure 42
0000
1001
0000
0001
0100
0100
1000
0100
,  // measure 43
0001
0010
0200
0000
0301
0101
0000
1100
,  // measure 44
0000
1001
0001
1001
1000
1001
0001
1001
,  // measure 45
1010
1000
0100
0001
0000
1000
0010
0001
,  // measure 46
0000
0000
1000
0000
0100
0000
0001
0000
0100
0000
1000
0010
0000
0001
1000
0000
,  // measure 47
1200
0000
0301
0011
0000
0110
0000
1200
,  // measure 48
0000
0301
0100
0100
1000
0010
1000
0001
,  // measure 49
0011
0000
1000
1010
0000
0010
0110
0000
,  // measure 50
0001
0000
0011
0000
0000
1001
0000
0000
1010
0000
0000
0110
0000
0000
0101
0000
,  // measure 51
1100
1000
0001
0101
0000
0110
0000
1010
,  // measure 52
1000
1001
0001
1001
1000
1001
0001
1001
,  // measure 53
0011
0001
0100
1000
0000
0001
0010
1000
,  // measure 54
0000
0000
0001
0000
0100
0000
1000
0000
0100
0000
0001
0010
0000
1000
0001
0000
,  // measure 55
0100
0000
1000
0000
0001
0010
0000
0010
1000
0000
1000
0100
0000
0100
0001
0000
,  // measure 56
0100
0001
0010
0100
0001
0001
0100
1000
,  // measure 57
0010
1000
0100
0010
1000
0001
0100
0010
,  // measure 58
0001
0000
0100
0001
0000
0010
0001
0000
1000
0000
0100
1000
0000
0010
1000
0000
,  // measure 59
1001
0000
0001
0100
0110
0000
1000
1001
,  // measure 60
0000
0000
0001
0000
1000
0000
0100
0010
0100
0000
1000
0000
0001
0000
0001
0000
,  // measure 61
2002
0000
0000
0000
,  // measure 62
3003
0000
0000
0000
;

//---------------dance-single - Marten-DSP----------------
#NOTEDATA:;
#CHARTNAME:Marten-DSP;
#STEPSTYPE:dance-single;
#DESCRIPTION:Marten-DSP;
#DIFFICULTY:Medium;
#METER:10;
#RADARVALUES:0.402950,0.639097,0.290499,0.206160,0.149935,301,270,31,22,0,0,0,0,0,0.402950,0.639097,0.290499,0.206160,0.149935,301,270,31,22,0,0,0,0,0;
#CREDIT:Marten;
#NOTES:
// measure 0
0000
0000
0000
0000
,  // measure 1
0000
0000
0000
0000
,  // measure 2
0000
0000
0000
0000
,  // measure 3
0000
0000
0000
0000
,  // measure 4
0000
0000
0000
0000
,  // measure 5
0011
0000
0000
0011
0000
0000
0001
0000
,  // measure 6
1000
0010
0001
0000
0010
0000
1000
0000
,  // measure 7
1100
0000
0000
1100
0000
0000
0010
0000
,  // measure 8
0001
0100
0001
0100
0001
0000
1000
0000
,  // measure 9
1010
0000
0000
1010
0000
0000
1000
0000
,  // measure 10
0001
0100
1000
0000
0100
0000
0001
0010
,  // measure 11
0001
0000
0000
0011
0000
0000
0110
0000
,  // measure 12
0001
0010
1000
0100
,  // measure 13
0101
0000
0000
0101
0000
0000
1000
0000
,  // measure 14
0100
1000
0010
0000
0001
0000
0010
0000
,  // measure 15
1010
0000
0000
0101
0000
0000
1001
0000
,  // measure 16
0000
0001
0000
0010
0100
0000
0100
0000
,  // measure 17
1000
0000
0000
1000
0000
0000
2000
0000
0000
0000
0000
0000
0010
0000
0000
0000
,  // measure 18
0000
0000
0010
0000
0000
0000
3100
0010
,  // measure 19
0002
0000
0000
0100
0000
0000
1000
0000
,  // measure 20
1003
0010
0001
0010
1000
0000
0001
0000
,  // measure 21
0010
0000
0000
0010
0000
0000
0020
0000
0000
0000
0000
0000
0100
0000
0000
0000
,  // measure 22
0000
0000
0100
0000
0000
0000
0130
1000
,  // measure 23
0001
0000
0000
0010
0000
0000
0100
0000
0000
0000
0000
0000
1000
0000
0000
0000
,  // measure 24
0001
0010
0100
0000
1100
0000
1100
0000
,  // measure 25
1000
0000
0000
0010
0000
0000
0001
0000
0000
0000
0000
0000
0010
0000
0000
0000
,  // measure 26
1000
0000
0100
0000
0010
1000
0010
0000
,  // measure 27
0002
0000
0000
0203
0000
0000
0310
0000
,  // measure 28
0100
1000
0100
0001
,  // measure 29
0001
0000
0000
0010
0000
0000
1000
0000
0000
0000
0000
0000
0010
0000
0000
0000
,  // measure 30
0001
0000
0100
0000
0010
0001
0010
0000
,  // measure 31
1000
0000
0000
0100
0000
0000
0200
0000
0000
0000
0000
0000
0310
0000
0000
0000
,  // measure 32
0100
1000
1001
1001
,  // measure 33
0001
0000
0002
0000
0000
0100
0000
0100
0000
1000
0000
1003
0001
0100
0001
0000
,  // measure 34
1000
0100
2000
0000
0000
0001
0000
0001
0000
0010
0000
3010
1000
0001
1000
0001
,  // measure 35
0100
0000
0100
0000
0000
0001
0000
0010
0000
1000
0000
0010
0001
0000
1000
0000
,  // measure 36
0001
0100
0001
0000
0000
1000
0000
0100
0000
0011
0000
1100
0000
0110
0000
1001
,  // measure 37
0001
0000
0010
0000
0100
0010
0000
0001
,  // measure 38
0000
0100
0000
1000
0100
0000
0001
0000
,  // measure 39
1000
0100
1000
0000
0001
0010
0000
1000
,  // measure 40
0000
0010
0000
0001
1000
0000
0010
0000
,  // measure 41
0101
0000
0100
0000
0010
1000
0000
0100
,  // measure 42
0000
0001
0000
0100
1000
0000
0001
0000
,  // measure 43
0010
0100
0010
0000
0001
1000
0000
0010
,  // measure 44
0000
1010
0000
0101
0000
0110
0000
1001
,  // measure 45
0001
0010
0100
0010
0000
0100
0001
0100
,  // measure 46
0000
0100
1000
0000
0010
0000
0001
0000
,  // measure 47
0010
0000
1000
0002
0000
0023
0000
0230
,  // measure 48
0000
0300
1000
0000
0001
0000
0100
0010
,  // measure 49
0200
0000
0000
0302
0000
0000
0023
0000
,  // measure 50
0000
0230
0000
0000
1300
0100
0010
0001
,  // measure 51
2000
0000
3010
0200
0000
2300
0000
3200
,  // measure 52
0000
0001
0000
0301
0000
0110
0000
1001
,  // measure 53
1000
0010
0100
0010
0000
0100
1000
0100
,  // measure 54
0000
0000
0001
0000
1000
0000
0000
0000
0100
0000
0000
0100
0000
0000
0020
0000
,  // measure 55
0000
0000
0031
0000
0000
0010
0000
0000
0100
0000
0000
1000
0000
0000
1001
0000
,  // measure 56
0000
0001
0100
0000
1000
0100
0001
0000
,  // measure 57
0010
0000
0001
0100
0000
1000
0100
0000
,  // measure 58
0001
0010
0000
1000
0010
0000
0001
1000
,  // measure 59
0010
0000
0100
0000
0110
0000
0001
1000
,  // measure 60
0000
0100
1000
0000
0010
0001
0010
1000
,  // measure 61
2002
0000
0000
0000
,  // measure 62
3003
0000
0000
0000
;

//---------------dance-single - Marten-BSP----------------
#NOTEDATA:;
#CHARTNAME:Marten-BSP;
#STEPSTYPE:dance-single;
#DESCRIPTION:Marten-BSP;
#DIFFICULTY:Easy;
#METER:8;
#RADARVALUES:0.333337,0.610048,0.262386,0.028113,0.103080,249,221,28,3,0,0,0,0,0,0.333337,0.610048,0.262386,0.028113,0.103080,249,221,28,3,0,0,0,0,0;
#CREDIT:Marten;
#NOTES:
// measure 0
0000
0000
0000
0000
,  // measure 1
0000
0000
0000
0000
,  // measure 2
0000
0000
0000
0000
,  // measure 3
0000
0000
0000
0000
,  // measure 4
0000
0000
0000
0000
,  // measure 5
1100
0000
0000
1100
0000
0000
1000
0000
,  // measure 6
0001
0100
1000
0100
,  // measure 7
0101
0000
0000
0101
0000
0000
0001
0000
,  // measure 8
0010
0010
0100
0010
,  // measure 9
0011
0000
0000
0011
0000
0000
0001
0000
,  // measure 10
1000
0010
0100
0010
,  // measure 11
1010
0000
0000
1010
0000
0000
1000
0000
,  // measure 12
0001
0010
0100
0010
,  // measure 13
0011
0000
0000
1001
0000
0000
0100
0000
,  // measure 14
1000
0010
0001
0010
,  // measure 15
1010
0000
0000
1001
0000
0000
0100
0000
,  // measure 16
0000
0001
0000
0000
1000
0000
1000
0000
,  // measure 17
0100
0000
0000
0100
0000
0000
0010
0000
,  // measure 18
0001
0100
1000
0100
,  // measure 19
0001
0000
0000
0001
0000
0000
1000
0000
,  // measure 20
0001
0010
0100
1000
,  // measure 21
0010
0000
0000
0010
0000
0000
1000
0000
,  // measure 22
0010
0001
0010
1000
,  // measure 23
0001
0000
0000
1000
0000
0000
0100
0000
,  // measure 24
0000
0010
0000
0000
0110
0000
0110
0000
,  // measure 25
1000
0000
0000
0001
0000
0000
0100
0000
,  // measure 26
0001
0010
1000
0010
,  // measure 27
0001
0000
0000
1000
0000
0000
0010
0000
,  // measure 28
1000
0100
0001
0100
,  // measure 29
1000
0000
0000
0001
0000
0000
0100
0000
,  // measure 30
0001
0010
1000
0100
,  // measure 31
0001
0000
0000
1000
0000
0000
0100
0000
,  // measure 32
0000
0010
0000
0000
0110
0000
0110
0000
,  // measure 33
1000
0000
1000
0000
0000
0001
0000
0100
0000
0001
0000
1000
0000
0100
0000
0010
,  // measure 34
0001
0000
0001
0000
0000
1000
0000
0100
0000
1000
0000
0001
0100
0000
0010
0000
,  // measure 35
0100
0000
0100
0000
0000
0001
0000
0010
0000
1000
0000
0010
0000
0001
0000
1000
,  // measure 36
0100
0000
0100
0000
0000
1000
0000
0010
0000
0110
0000
0110
0000
1001
0000
1001
,  // measure 37
0001
0100
0001
0010
,  // measure 38
1000
0010
0001
0100
,  // measure 39
1000
0010
0001
1000
,  // measure 40
0001
0100
0010
0010
,  // measure 41
1000
0100
1000
0010
,  // measure 42
0001
0010
1000
0100
,  // measure 43
0001
0010
1000
0001
,  // measure 44
1000
0100
0000
0110
0000
0110
0000
1001
,  // measure 45
0001
0000
0100
0100
0000
0000
0010
0010
,  // measure 46
0000
1000
0010
0100
,  // measure 47
0001
0010
1000
0100
,  // measure 48
0001
1000
0000
1000
,  // measure 49
0100
0000
0000
0100
0000
0000
0010
0000
,  // measure 50
0000
0010
0000
0000
0001
0000
0010
0000
,  // measure 51
0100
1000
0010
0001
,  // measure 52
0010
0110
0000
0110
0000
1001
0000
1001
,  // measure 53
1000
0000
0100
0100
0000
0000
0010
0010
,  // measure 54
0000
0001
0010
0100
,  // measure 55
1000
0010
0001
0100
,  // measure 56
1000
0001
0000
1000
,  // measure 57
0001
0010
1000
0001
,  // measure 58
0100
1000
0001
1000
,  // measure 59
0020
0000
0130
0001
,  // measure 60
1000
0010
0001
0100
,  // measure 61
2002
0000
0000
0000
,  // measure 62
3003
0000
0000
0000
;

//---------------dance-single - Marten-bSP----------------
#NOTEDATA:;
#CHARTNAME:Marten-bSP;
#STEPSTYPE:dance-single;
#DESCRIPTION:Marten-bSP;
#DIFFICULTY:Beginner;
#METER:3;
#RADARVALUES:0.127177,0.174299,0.009371,0.112451,0,95,94,1,12,0,0,0,0,0,0.127177,0.174299,0.009371,0.112451,0,95,94,1,12,0,0,0,0,0;
#CREDIT:Marten;
#NOTES:
// measure 0
0000
0000
0000
0000
,  // measure 1
0000
0000
0000
0000
,  // measure 2
0000
0000
0000
0000
,  // measure 3
0000
0000
0000
0000
,  // measure 4
0000
0000
0000
0000
,  // measure 5
1000
0000
0000
1000
,  // measure 6
0000
1000
0000
0001
,  // measure 7
0001
0000
0000
0001
,  // measure 8
0000
0100
0100
0100
,  // measure 9
0010
0000
0000
0010
,  // measure 10
0000
0100
0000
0001
,  // measure 11
0001
0000
0000
1000
,  // measure 12
0000
1000
0000
0001
,  // measure 13
0001
0000
0000
0010
,  // measure 14
0000
0100
0000
0100
,  // measure 15
0100
0000
0000
1000
,  // measure 16
0000
0000
0001
0001
,  // measure 17
2000
0000
3000
0000
,  // measure 18
0001
0000
0000
0000
,  // measure 19
0100
0000
0000
0000
,  // measure 20
0010
0000
0000
0000
,  // measure 21
0200
0000
0300
0000
,  // measure 22
0001
0000
0000
0000
,  // measure 23
1000
0000
0000
0000
,  // measure 24
0100
0000
0100
0100
,  // measure 25
0020
0000
0030
0000
,  // measure 26
0100
0000
0000
0000
,  // measure 27
1000
0000
0000
0000
,  // measure 28
0001
0000
0000
0000
,  // measure 29
0200
0000
0300
0000
,  // measure 30
0001
0000
0000
0000
,  // measure 31
1000
0000
0000
0000
,  // measure 32
0100
0000
0010
0010
,  // measure 33
0200
0000
0000
0300
,  // measure 34
2000
0000
0000
3000
,  // measure 35
0002
0000
0000
0003
,  // measure 36
0020
0000
0000
0030
,  // measure 37
0001
0000
0001
0000
,  // measure 38
0010
0000
0010
0000
,  // measure 39
1000
0000
1000
0000
,  // measure 40
0100
0000
0100
0000
,  // measure 41
0001
0000
0010
0000
,  // measure 42
1000
0000
0010
0000
,  // measure 43
0001
0000
0100
0000
,  // measure 44
1000
0000
0100
0000
,  // measure 45
0001
0000
0000
0000
,  // measure 46
0001
0000
1000
0000
,  // measure 47
1000
0000
0100
0000
,  // measure 48
0020
0000
0030
0000
,  // measure 49
0001
0000
0001
0000
,  // measure 50
0100
0000
0100
0000
,  // measure 51
1000
0000
1000
0000
,  // measure 52
0010
0000
0010
0000
,  // measure 53
0001
0000
0000
0000
,  // measure 54
1000
0000
1000
0000
,  // measure 55
0010
0000
0100
0000
,  // measure 56
0020
0000
0030
0000
,  // measure 57
1000
0000
0010
0000
,  // measure 58
0001
0000
0100
0000
,  // measure 59
1000
0000
0001
0000
,  // measure 60
0100
0000
0010
0000
,  // measure 61
2002
0000
0000
0000
,  // measure 62
3003
0000
0000
0000
;

//---------------dance-double - NewbStepper-EDP----------------
#NOTEDATA:;
#CHARTNAME:NewbStepper-EDP;
#STEPSTYPE:dance-double;
#DESCRIPTION:NewbStepper-EDP;
#DIFFICULTY:Hard;
#METER:13;
#RADARVALUES:0.599739,0.826516,0.599739,0.271757,0.210846,448,384,64,29,0,0,0,0,0,0.599739,0.826516,0.599739,0.271757,0.210846,448,384,64,29,0,0,0,0,0;
#CREDIT:NewbStepper;
#NOTES:
00000000
00000000
00000000
00000000
,
00000000
00000000
00000000
00000000
,
00000000
00000000
00000000
00000000
,
00000000
00000000
00000000
00000000
,
00000000
00000000
00000000
00000000
,
00000101
00000000
00000010
00001100
00000000
00001000
00000001
00000000
,
00000100
00000000
00001000
00010000
00100000
10000000
00010000
00000000
,
11000000
00000000
00100000
01010000
00000000
00010000
10000000
00000000
,
01000000
00010000
00001000
00100000
00001000
00000100
00000001
00000000
,
00000110
00000100
00000001
00001001
00000000
00000100
00000010
00000000
,
00001000
00000000
00010000
00100000
10000000
01000000
00100000
00000000
,
10010000
10000000
01000000
01010000
00000000
00001000
00010000
00000000
,
00001000
00000010
00000000
00000000
00000001
00000010
00000000
00000000
00000100
00000000
00000000
00000000
00001001
00000000
00000000
00000000
,
00000010
00000000
00000001
00000101
00000000
00001000
00011000
00000000
,
00100000
10000000
00010000
00100000
00001000
00010000
01000000
00010000
,
00011000
00001000
00000100
00000101
00000000
00000000
00001001
00000000
,
00000001
00000000
00000100
00000000
00001000
00000000
00010000
00000000
01000000
00000000
10000000
00100000
10000000
00000000
00000000
00000000
,
10100000
10000000
01000000
00010000
00000000
00001000
00100000
00010000
,
01000000
00010000
00001000
00000010
00000100
00001000
00010000
00100000
,
20100000
00000000
00000000
30020000
00000000
00000000
00031000
00000000
,
00000010
00010000
00001000
00000100
00000001
00000010
00001000
00000010
,
00000011
00000001
00000100
00001000
00000000
00010000
00000010
00001000
,
00000100
00001000
00010000
00100000
01000000
00010000
00001000
00000010
,
00000012
00000000
00000000
00002003
00000000
00000000
00013000
00000000
,
00100000
00001000
00000000
00000000
00000010
00001000
00000000
00000000
00011000
00000000
00000000
00000000
00011000
00000000
00000000
00000000
,
00010000
01000000
10000000
00200000
00000000
01300000
00010000
01000000
,
00100000
00010000
00001000
00000010
00001000
00010000
00000010
00000100
,
00001000
00000100
00000001
00000020
00000000
00000130
00001000
00000100
,
00000010
00001000
00010000
00100000
00010000
00001000
00100000
01000000
,
21000000
00000000
00000000
30020000
00000000
00000000
00230000
00000000
00000000
00000000
01300000
00000000
00010000
00000000
00001000
00000000
,
00000010
00000001
00000100
00000001
00000010
00001000
00010000
00100000
,
10000000
00000000
00010000
00100000
00010000
00000000
00000000
00000000
10000000
00000000
01000000
00000000
00010000
00000000
00000000
00000000
,
00000000
00011000
00001000
00000100
00000101
00000001
00001001
00001000
,
00001020
00000000
00000001
00000000
00000130
00002000
00000000
00023000
00000000
02030000
00000000
13000000
00010000
00010000
10000000
10000000
,
00200000
10000000
10300000
00000000
01000000
00020000
00000000
00032000
00000000
00003020
00000000
00000031
00001000
00001000
00000001
00000001
,
00000011
00000000
00001100
00000000
00000001
00000100
00000000
00001000
00000000
00100000
00000000
00010000
01000000
01000000
00100000
00100000
,
10000000
01000000
20000000
00000000
00000000
32000000
00000000
03010000
00000000
00011000
00000000
00001100
00000000
00000110
00000000
00001010
,
00001002
00000000
00002003
00000000
00003100
00000010
00001000
00010000
,
00000000
00100000
10000000
00010000
00100000
00100000
01000000
01000000
,
20000000
00000000
30020000
00000000
01030000
00100000
00010000
00001000
,
00000000
00000010
00000001
00001000
00000010
00000010
00000100
00000100
,
00000101
00000000
00002100
00000000
00013000
00011000
00000000
01001000
,
00000000
01100000
00000000
00010000
10000000
10000000
00100000
00010000
,
00001000
00000010
00002000
00000000
00013000
00011000
00000000
00001100
,
00000000
00000101
00000001
00001000
00001000
00000100
00000100
00010000
,
00010000
00001000
00010000
00100000
00000000
00001000
00010000
01000000
,
00000000
00000000
00001000
00000000
00010000
00000000
00100000
00000000
10000000
00000000
00000000
01000000
00000000
00000000
00010000
00000000
,
00012000
00000000
00103000
00110000
00000000
00011000
00000000
00002100
,
00000000
00003001
00000100
00000010
00010000
00001000
00000100
00000001
,
00000011
00000000
00001000
00001100
00000000
00000100
00000110
00000000
,
00001000
00000000
00001001
00000000
00000000
00000011
00000000
00000000
00000110
00000000
00000000
00001100
00000000
00000000
00011000
00000000
,
00010000
00000000
00001000
00010000
00001000
00000000
01000000
00000000
00010000
00100000
00010000
00000000
10000000
00000000
00010000
00000000
,
00000000
11000000
10000000
00010000
00010000
01000000
01000000
00001000
,
00001000
00010000
00001000
00000010
00000000
00010000
00001000
00000100
,
00000000
00000000
00010000
00000000
00001000
00000000
00000010
00000000
00000001
00000000
00000000
00000100
00000000
00000000
00001000
00000000
,
00010000
00000000
00110000
00000000
00000000
10100000
00000000
00000000
11000000
00000000
00000000
01010000
00000000
00000000
00011000
00000000
,
00000000
00001000
00000100
00000001
00000010
00000010
00000001
00000100
,
00001000
00000100
00000010
00001000
00010000
00100000
00001000
00100000
,
00010000
00000000
01000000
00010000
00000000
00100000
00010000
00000000
10000000
00000000
01000000
10000000
00000000
00100000
10000000
00000000
,
10010000
00000000
00100000
01100000
00000000
01010000
00000000
00011000
,
00000000
00001100
00000100
00000001
00000010
00001000
00010000
00001000
,
00022000
00000000
00000000
00000000
,
00000000
00000000
00000000
00000000
,
00033000
00000000
00000000
00000000
;

//---------------dance-double - NewbStepper-DDP----------------
#NOTEDATA:;
#CHARTNAME:NewbStepper-DDP;
#STEPSTYPE:dance-double;
#DESCRIPTION:NewbStepper-DDP;
#DIFFICULTY:Medium;
#METER:10;
#RADARVALUES:0.393579,0.619887,0.234273,0.168677,0.145249,294,269,25,18,0,0,0,0,0,0.393579,0.619887,0.234273,0.168677,0.145249,294,269,25,18,0,0,0,0,0;
#CREDIT:NewbStepper;
#NOTES:
00000000
00000000
00000000
00000000
,
00000000
00000000
00000000
00000000
,
00000000
00000000
00000000
00000000
,
00000000
00000000
00000000
00000000
,
00000000
00000000
00000000
00000000
,
00000011
00000000
00000000
00000011
00000000
00000000
00001000
00000000
,
00000001
00000010
00001000
00000000
00010000
00000000
00100000
00000000
,
10100000
00000000
00000000
10100000
00000000
00000000
10000000
00000000
,
01000000
00100000
01000000
00100000
01000000
00000000
00010000
00000000
,
00011000
00000000
00000000
00011000
00000000
00000000
00001000
00000000
,
00010000
00001000
00000010
00000000
00000001
00000000
00000100
00000010
,
00000100
00000000
00000000
00001100
00000000
00000000
00011000
00000000
,
00010000
00100000
10000000
01000000
,
01010000
00000000
00000000
01010000
00000000
00000000
00001000
00000000
,
00010000
00000100
00001000
00000000
00000001
00000000
00000010
00000000
,
00001010
00000000
00000000
00010100
00000000
00000000
00011000
00000000
,
00000000
00000100
00000000
00000010
00001000
00000000
00010000
00000000
,
00001000
00000000
00000000
00001000
00000000
00000000
00002000
00000000
00000000
00000000
00000000
00000000
00100000
00000000
00000000
00000000
,
00000000
00000000
00100000
00000000
00000000
00000000
01003000
00100000
,
00020000
00000000
00000000
00000100
00000000
00000000
00001000
00000000
,
00031000
00000010
00000001
00000010
00001000
00000000
00011000
00000000
,
00010000
00000000
00000000
00010000
00000000
00000000
00020000
00000000
00000000
00000000
00000000
00000000
00000010
00000000
00000000
00000000
,
00000000
00000000
00000010
00000000
00000000
00000000
00030100
00000010
,
00001000
00010000
00100000
10000000
,
00010000
00100000
01000000
00100000
00010000
00000000
10010000
00000000
,
10000000
00000000
00000000
00100000
00000000
00000000
00010000
00000000
00000000
00000000
00000000
00000000
00001000
00000000
00000000
00000000
,
00000010
00000000
00000001
00000000
00000100
00001000
00000100
00000000
,
00000002
00000000
00000000
00000023
00000000
00000000
00001030
00000000
,
00010000
00001000
00000100
00000001
,
00000001
00000000
00000000
00000010
00000000
00000000
00001000
00000000
00000000
00000000
00000000
00000000
00010000
00000000
00000000
00000000
,
00100000
00000000
10000000
00000000
01000000
00010000
01000000
00000000
,
20000000
00000000
30020000
00000000
,
00130000
00001000
00011000
00011000
,
00010000
00000000
00020000
00000000
00000000
00000100
00000000
00000100
00000000
00001000
00000000
00031000
00010000
00000010
00010000
00000000
,
00001000
00100000
00002000
00000000
00000000
01000000
00000000
01000000
00000000
00010000
00000000
00013000
00001000
00100000
00001000
00100000
,
00010000
00000000
00010000
00000000
00000000
10000000
00000000
01000000
00000000
00010000
00000000
00001000
00000010
00000000
00000001
00000000
,
00001000
00000100
00001000
00000000
00000000
00000001
00000000
00000100
00000000
00001000
00000000
00010000
00000000
00100000
00000000
10000000
,
10010000
00000000
00100000
00000000
01000000
00100000
00000000
10000000
,
00000000
01000000
00000000
00010000
00001000
00000000
00000100
00000000
,
00000001
00001000
00000001
00000000
00001000
00000010
00000000
00010000
,
00000000
00001000
00000000
01000000
00001000
00000000
00000100
00000000
,
00001001
00000000
00000010
00000000
00000100
00000010
00000000
00000001
,
00000000
00000100
00000000
00001000
00010000
00000000
01000000
00000000
,
10000000
00010000
10000000
00000000
00010000
00100000
00000000
00001000
,
00000000
00101000
00000000
00010100
00000000
00000110
00000000
00001001
,
00001000
00000010
00000100
00000010
00000000
00000100
00001000
00000100
,
00000000
00001000
00010000
00000000
00100000
00000000
10000000
00000000
,
00100000
00000000
00010000
00002000
00000000
00003200
00000000
00000302
,
00000000
00000003
00001000
00000000
00000001
00000000
00000100
00000010
,
00000200
00000000
00000000
00002300
00000000
00000000
00023000
00000000
,
00000000
00230000
00000000
00000000
10300000
01000000
00100000
00010000
,
10000000
00000000
00100000
00010000
00000000
00001000
00000000
00000010
,
00000000
00001000
00000000
00010000
00000000
01000000
00000000
10010000
,
00010000
00100000
01000000
00100000
00000000
01000000
00010000
01000000
,
00000000
00010000
00001000
00000000
00000010
00000000
00000001
00000000
,
00000010
00000000
00000100
00000000
00000000
00000010
00000000
00000000
00001000
00000000
00000000
00010000
00000000
00000000
00100000
00000000
,
00000000
10000000
01000000
00000000
00010000
01000000
10000000
00000000
,
00100000
00000000
10000000
01000000
00000000
00010000
00001000
00000000
,
00000010
00000000
00000000
00000001
00000000
00000000
00000100
00000000
00000010
00000000
00000000
00001000
00000000
00000000
00000100
00000000
,
00010000
00000000
00001000
00000000
00000010
00000000
00001000
00010000
,
00000000
00001000
01000000
00000000
00100000
00010000
00100000
10000000
,
20020000
00000000
00000000
00000000
,
00000000
00000000
00000000
00000000
,
30030000
00000000
00000000
00000000
;

//---------------dance-double - NewbStepper-BDP----------------
#NOTEDATA:;
#CHARTNAME:NewbStepper-BDP;
#STEPSTYPE:dance-double;
#DESCRIPTION:NewbStepper-BDP;
#DIFFICULTY:Easy;
#METER:7;
#RADARVALUES:0.333337,0.619887,0.262386,0.028113,0.103080,249,221,28,3,0,0,0,0,0,0.333337,0.619887,0.262386,0.028113,0.103080,249,221,28,3,0,0,0,0,0;
#CREDIT:NewbStepper;
#NOTES:
00000000
00000000
00000000
00000000
,
00000000
00000000
00000000
00000000
,
00000000
00000000
00000000
00000000
,
00000000
00000000
00000000
00000000
,
00000000
00000000
00000000
00000000
,
11000000
00000000
00000000
11000000
00000000
00000000
00010000
00000000
,
10000000
01000000
00010000
00001000
,
00011000
00000000
00000000
00011000
00000000
00000000
00010000
00000000
,
00001000
00000010
00000001
00000100
,
00000101
00000000
00000000
00000101
00000000
00000000
00001000
00000000
,
00000001
00000100
00001000
00010000
,
00011000
00000000
00000000
00011000
00000000
00000000
00001000
00000000
,
00010000
00100000
10000000
01000000
,
11000000
00000000
00000000
10010000
00000000
00000000
01000000
00000000
,
10000000
00100000
00010000
00001000
,
00001010
00000000
00000000
00000011
00000000
00000000
00000001
00000000
,
00000000
00000100
00000000
00000000
00001000
00000000
00001000
00000000
,
00010000
00000000
00000000
00010000
00000000
00000000
00001000
00000000
,
00000010
00001000
00010000
00100000
,
10000000
00000000
00000000
10000000
00000000
00000000
00010000
00000000
,
10000000
00100000
01000000
00010000
,
00100000
00000000
00000000
00100000
00000000
00000000
00001000
00000000
,
00010000
00001000
00000010
00000001
,
00000100
00000000
00000000
00000010
00000000
00000000
00001000
00000000
,
00000000
00000100
00000000
00000000
00000110
00000000
00000110
00000000
,
00001000
00000000
00000000
00000001
00000000
00000000
00000100
00000000
,
00000001
00000010
00000100
00001000
,
00010000
00000000
00000000
10000000
00000000
00000000
01000000
00000000
,
10000000
00100000
01000000
00010000
,
00001000
00000000
00000000
00000001
00000000
00000000
00000010
00000000
,
00000001
00000100
00001000
01000000
,
00010000
00000000
00000000
10000000
00000000
00000000
01000000
00000000
,
00000000
00100000
00000000
00000000
01100000
00000000
01100000
00000000
,
10000000
00000000
10000000
00000000
00000000
00010000
00000000
01000000
00000000
00001000
00000000
00010000
00000000
00000100
00000000
00001000
,
00000001
00000000
00000001
00000000
00000000
00001000
00000000
00000100
00000000
00010000
00000000
00001000
01000000
00000000
00100000
00000000
,
01000000
00000000
01000000
00000000
00000000
00010000
00000000
00100000
00000000
00001000
00000000
00010000
00000000
00000010
00000000
00001000
,
00000100
00000000
00000100
00000000
00000000
00001000
00000000
00000010
00000000
00000110
00000000
00000110
00000000
00001001
00000000
00001001
,
00000001
00000100
00000001
00000010
,
00001000
00010000
00100000
10000000
,
01000000
00010000
00001000
00010000
,
01000000
00100000
00001000
00010000
,
00000010
00000100
00001000
00010000
,
00000100
00000010
00001000
00010000
,
00000100
00000010
00000001
00000100
,
00001000
00010000
00000000
00011000
00000000
00011000
00000000
00011000
,
00001000
00000000
01000000
01000000
00000000
00000000
00100000
00100000
,
00000000
10000000
00100000
01000000
,
00001000
00010000
01000000
00100000
,
00001000
00010000
00000000
00010000
,
00000100
00000000
00000000
00000100
00000000
00000000
00000010
00000000
,
00000000
00000010
00000000
00000000
00000001
00000000
00000010
00000000
,
00000100
00001000
00010000
01000000
,
00100000
01100000
00000000
01100000
00000000
10010000
00000000
10010000
,
10000000
00000000
01000000
01000000
00000000
00000000
00100000
00100000
,
00000000
00001000
00010000
01000000
,
00100000
00001000
00010000
00000100
,
00001000
00000001
00000000
00001000
,
00000001
00000010
00001000
00010000
,
01000000
10000000
00010000
10000000
,
00200000
00000000
01300000
00010000
,
10000000
00100000
00010000
00001000
,
00022000
00000000
00000000
00000000
,
00000000
00000000
00000000
00000000
,
00033000
00000000
00000000
00000000
;
