#TITLE:TRICKERY (Hyper Mystic Mix);
#ARTIST:Dynamite Grizzly;
#BANNER:TRICKERY (Hyper Mystic Mix).png;
#BACKGROUND:TRICKERY (Hyper Mystic Mix)-bg.png;
#MUSIC:TRICKERY (Hyper Mystic Mix).ogg;
#SAMPLESTART:50.4;
#SAMPLELENGTH:15;
#BPMS:0=200;

//---------------dance-single - Marten-bSP----------------
#NOTES:
     dance-single:
     Marten:
     Beginner:
     3:
     :
0000
0000
0000
0000
,
0000
0000
0000
0000
,
0000
0000
0000
0000
,
0000
0000
0000
0000
,
0000
0000
0000
0000
,
0000
0000
0000
0000
,
1000
0000
0000
0000
,
0000
0000
0000
0000
,
1000
0000
0000
0000
,
0000
0000
0000
0000
,
0001
0000
0000
0000
,
0000
0000
0000
0000
,
0001
0000
0000
0000
,
0000
0000
0000
0000
,
0100
0000
0000
0000
,
0100
0000
0000
0000
,
0010
0000
0010
0000
,
0010
0000
0010
0000
,
2002
0000
0000
0000
,
0000
0000
0000
0000
,
0000
0000
0000
0000
,
0000
0000
0000
3003
,
0000
0000
0000
0000
,
0000
0000
0000
0000
,
0000
0000
0000
0000
,
0000
0000
0000
0000
,
0001
0000
0000
0000
,
0000
0000
0000
0000
,
0002
0000
0000
0000
,
0003
0000
0000
0000
,
1000
0000
0000
0000
,
0000
0000
0000
0000
,
2000
0000
0000
0000
,
3000
0000
0000
0000
,
0001
0000
0001
0000
,
0001
0000
0000
0000
,
1000
0000
1000
0000
,
1000
0000
0000
0000
,
0100
0000
0100
0000
,
0100
0000
0000
0000
,
0010
0000
0010
0000
,
0010
0000
0000
0000
,
1000
0000
1000
0000
,
0001
0000
0001
0000
,
0100
0000
0100
0000
,
0020
0000
0030
0000
,
0001
0000
0001
0000
,
1000
0000
1000
0000
,
0100
0000
0100
0000
,
0020
0000
0030
0000
,
0001
0000
0000
0000
,
1000
0000
0000
0000
,
0001
0000
0000
0000
,
0200
0000
0300
0000
,
0001
0000
0000
0000
,
0001
0000
0000
0000
,
1000
0000
0000
0000
,
2002
0000
3003
0000
,
1000
0000
0001
0000
,
1000
0000
0000
0000
,
0100
0000
0010
0000
,
0100
0000
0000
0000
,
0001
0000
1000
0000
,
0001
0000
0000
0000
,
0010
0000
0100
0000
,
0010
0000
0000
0000
,
1000
0000
0000
0000
,
0001
0000
0000
0000
,
1000
0000
0000
0000
,
0100
0000
0000
0000
,
0001
0000
0000
0000
,
0010
0000
0000
0000
,
1000
0000
0100
0000
,
0010
0000
0001
0000
,
1001
0000
0000
0000
;

//---------------dance-single - Marten-BSP----------------
#NOTES:
     dance-single:
     Marten:
     Easy:
     10:
     :
0000
0000
0000
0000
,
0000
0000
0000
0000
,
0000
0000
0000
0000
,
0000
0000
0000
0000
,
0000
0000
0000
0000
,
0000
0000
0000
0000
,
0001
0001
0001
0000
,
1000
1000
1000
0000
,
0010
0100
0010
0100
,
0001
1000
0001
0000
,
1000
0000
0000
0100
0000
0010
0000
0000
,
0001
0100
1000
0100
,
0002
0000
0000
0003
,
0100
0100
0100
0100
,
0001
0010
0011
0101
,
1000
0010
1010
1100
,
0010
0101
0010
1100
,
0001
0100
0001
0100
0010
0100
0010
0000
,
2000
0000
0000
3001
,
0010
0001
0000
1000
0000
0001
0100
0000
,
0002
0000
0000
1003
,
0010
1000
0000
0001
0000
1000
0100
0000
,
2000
0000
0000
3001
,
0000
0001
0000
0000
0100
0000
0010
1000
,
0200
0000
0000
1300
,
0000
1000
0000
0000
0100
0000
0010
0001
,
0100
0000
0000
0100
0000
0000
0010
0000
,
1000
0000
0000
1000
0000
0000
0001
0000
,
0010
0000
0000
1000
0000
0000
0010
0002
,
0000
2000
0000
3003
,
0100
0000
0000
0100
0000
0000
0010
0000
,
0001
0000
0000
0001
0000
0000
1000
0000
,
0010
0000
0000
0001
0000
0000
0010
2000
,
0000
0000
0000
3000
,
0001
0010
1000
0010
,
0001
0100
1000
0100
,
0001
0001
0000
1000
1000
0000
0100
0020
,
0000
0000
0001
0031
,
1000
0010
0001
0010
,
1000
0100
0001
0100
,
1000
1000
0000
0001
0001
0000
0100
0020
,
0200
0000
0000
0330
,
0001
0000
0100
0001
0000
0100
0001
0000
,
0100
1000
0000
0100
1000
0000
0100
0010
,
0100
0010
0000
0010
1000
0000
1000
0002
,
0000
0000
0000
0003
,
1000
0000
0100
1000
0000
0100
1000
0000
,
0100
0001
0000
0100
0001
0000
0100
0010
,
0100
0010
0000
0010
0001
0000
0001
2000
,
0000
0000
0000
3000
,
0020
0000
2030
0000
,
0000
3000
0001
0100
,
0002
0023
0230
2300
,
3020
0000
0000
0030
,
1010
0000
0100
0001
,
0011
0000
0100
1000
,
1010
0110
0011
0110
,
1000
0100
1000
0100
0010
0100
0010
0000
,
0001
0000
0001
0100
0001
0000
0100
0000
,
1000
0000
1000
0100
1000
0000
0100
0000
,
0001
0000
0001
0010
0001
0000
0010
0000
,
1000
0000
1000
0010
1000
0000
0010
0000
,
0001
0000
1000
0010
1000
0000
0001
0010
,
0001
0000
0100
0000
1000
0100
0001
0000
,
1000
0000
0001
0010
0001
0000
1000
0010
,
1000
0000
0100
0000
0001
0100
1000
0000
,
0001
0000
0000
0100
0000
0010
0000
0000
,
1000
0100
0001
0100
,
2000
0000
0000
3000
,
0100
0100
0100
0100
,
1100
0000
0010
0001
,
0101
0000
0010
1000
,
1100
0000
0011
0000
,
0101
0101
1010
1010
,
0220
0000
0000
0000
,
0330
0000
0000
0000
;

//---------------dance-single - Marten-DSP----------------
#NOTES:
     dance-single:
     Marten:
     Medium:
     13:
     :
0000
0000
0000
0000
,
0000
0000
0000
0000
,
0000
0000
0000
0000
,
0000
0000
0000
0000
,
0000
0000
0000
0000
,
0000
0000
0000
0000
,
1000
1000
0100
0100
,
0001
0001
0010
0010
,
1000
1000
0001
0001
,
0100
0100
0110
1001
,
0001
0100
0001
1000
0000
0100
0100
0000
,
1000
0100
1000
0000
0001
0100
0001
0000
,
1000
0100
0010
0000
0001
0100
0010
0000
,
0110
0001
0110
1000
,
0001
0100
1000
0000
1000
0100
0001
0000
,
0001
0010
1000
0000
1000
0010
0001
0000
,
1000
0100
1000
0100
0010
0001
0010
0001
,
0100
0010
1000
0100
0010
0010
0010
0010
,
0200
0000
0000
0000
0300
0000
1000
0010
,
1000
0010
0000
0100
0000
0001
0100
0001
,
0200
0000
0000
0000
0300
0000
0001
0010
,
0001
0010
0000
0100
0000
1000
0100
1000
,
0200
0000
0300
1000
,
0000
0001
0000
0000
0100
0000
0010
0000
,
2010
0000
0000
3001
,
0100
0010
0100
0000
0010
0000
0000
0000
,
1001
0000
1000
0100
0000
1000
0100
0000
,
0010
0001
0000
0010
0001
0000
0100
1000
,
0100
0001
0000
0010
0001
0000
0100
0020
,
0000
1000
1000
1030
,
1001
0000
0001
0100
0000
0001
0100
0000
,
0010
1000
0000
0010
1000
0000
0100
0001
,
0100
1000
0000
0010
1000
0000
0100
0020
,
0000
0001
0001
0031
,
1010
0000
0100
0100
0000
0001
0001
0000
,
0010
0010
0000
1000
1000
0000
0010
0010
,
0001
0100
0000
1000
0100
0000
0001
0020
,
0000
0100
0100
0130
,
0011
0000
0100
0100
0000
1000
1000
0000
,
0010
0010
0000
0001
0001
0000
0010
0010
,
1000
0100
0000
0001
0100
0000
1000
0020
,
0000
0000
0000
0000
0100
0100
0130
0000
,
0001
0100
1000
0100
0001
0100
0010
0000
,
1000
0100
0001
0100
1000
0100
0010
0000
,
0001
0100
1000
0001
0010
1000
0010
0200
,
0000
1300
0100
0001
0010
0100
1000
0000
,
1000
0100
0001
0100
1000
0100
0010
0000
,
0001
0100
1000
0100
0001
0100
0010
0000
,
1000
0100
0001
1000
0010
0001
0010
0200
,
0000
0010
0010
0310
,
1001
0100
0011
0100
,
1000
0010
0001
0010
1000
0100
0010
0000
,
0011
0101
1100
1010
,
0210
0000
0001
0000
0010
0010
0310
0000
,
1001
0100
1010
0100
,
0011
0100
1000
0000
1010
0100
0001
0000
,
0011
0001
0100
0010
1000
0100
0001
0100
,
1000
1000
1000
1000
0001
0001
0001
0001
,
0100
0000
0100
0001
0010
0000
0010
1000
,
0100
0000
0100
0001
0010
1000
0010
0000
,
0100
0000
0100
1000
0010
0000
0010
0001
,
0100
0000
0100
1000
0010
0001
0010
0000
,
1000
0000
1000
0100
0001
0000
0001
0010
,
1000
0000
1000
0100
0001
0100
1000
0010
,
0100
0000
0001
0100
1000
0000
1000
0010
,
0001
0000
0001
0100
1000
0100
0001
0010
,
0100
0000
1000
0100
0000
0001
0100
0000
,
1000
0100
0001
0000
0100
1000
0010
0100
,
0001
0011
1000
1010
,
0100
0000
0110
0000
0001
0100
1000
0100
,
0001
0001
0010
0000
1000
1000
0010
0000
,
0001
0001
0100
0000
1000
1000
0100
0000
,
0001
0101
0000
1000
1100
0000
0010
0110
,
0000
1000
0001
0001
0100
0100
0010
0010
,
0220
0000
0000
0000
,
0330
0000
0000
0000
;

//---------------dance-single - Marten-ESP----------------
#NOTES:
     dance-single:
     Marten:
     Hard:
     15:
     :
0000
0000
0000
0000
,
0000
0000
0000
0000
,
0000
0000
0000
0000
,
0000
0000
0000
0000
,
0000
0000
0000
0000
,
0000
0000
0000
0000
,
0001
0000
0001
0100
1000
0000
1000
0100
,
0010
0000
0010
1000
0100
0001
0010
1000
,
0001
0000
0001
0010
1000
0000
1000
0010
,
0100
0000
0000
0000
0100
0000
1000
0000
0010
0000
0001
0000
0100
0000
1000
0010
,
1000
0000
1000
0010
0001
0010
0100
0000
,
0101
0000
0001
0010
0100
0000
1000
0000
,
1001
0000
0001
0010
1000
0010
0100
0000
,
0100
0000
1000
0001
1000
0000
0100
0000
0001
1000
0001
0000
0010
0000
1000
0000
,
0001
0000
0100
0001
0010
0000
0001
0010
,
1000
0000
1000
0100
0010
0000
0010
1000
,
0001
0100
1000
0001
0010
1000
0001
0010
,
1000
0000
0001
0000
0100
0000
1000
0000
0010
0100
0001
0100
0010
1000
0010
0100
,
0002
0000
0000
0000
0000
0000
1000
1000
,
0000
0100
0100
0000
0010
0000
1000
2003
,
0000
0000
0000
0000
0000
0000
0001
0001
,
0000
0100
0100
0000
0010
0000
0100
3200
,
0000
0000
0000
0000
0000
0000
0010
0010
,
0000
0001
0001
0000
1000
0000
0010
0320
,
0000
0000
0000
0000
0000
0000
0001
0001
,
0002
0000
0000
0033
,
1001
0000
0001
0100
0000
0100
1000
0000
,
1000
0010
0000
0010
0001
0000
0001
0010
,
1000
0100
0000
0100
0001
0000
0001
2000
,
0000
0000
0100
0000
3100
0000
0010
0000
0001
0000
0010
0000
0100
0000
1000
0001
,
1000
0000
1000
0100
0000
0100
0001
0000
,
0001
0010
0000
0010
1000
0000
1000
0010
,
0001
0100
0000
0100
1000
0000
1000
0002
,
0000
0000
1000
0000
0010
0000
0103
0001
,
1001
0000
1000
0010
0001
0100
1000
0000
,
0001
0000
0010
0000
1000
0000
0100
0000
0001
0000
0000
0000
1000
0000
0010
1000
,
0010
0100
0001
0100
1000
0100
0010
2000
,
0000
0000
0001
0000
0100
0000
3010
1000
,
1001
0000
0001
0100
1000
0010
0001
0000
,
1000
0000
0100
0000
0001
0000
0010
0000
1000
0000
0000
0000
0001
0000
0010
0001
,
0010
0010
0000
0001
0001
0000
1000
1000
,
2002
0000
0000
0000
0000
0000
0000
0000
3003
0000
0000
0000
0001
1000
0001
1000
,
0001
0000
1000
0100
0010
1000
0010
0000
,
0001
0000
0100
0000
0010
0000
0001
0000
0010
0000
0000
0000
1000
0000
0100
0010
,
0001
0100
0100
0001
0010
1000
0100
0002
,
0000
0000
1003
0000
0100
0000
0010
0000
0001
0000
0010
0000
0100
0000
1000
0010
,
1000
0000
0001
0100
1000
0100
0010
0000
,
1000
0000
0100
0000
0001
0000
0100
0000
0010
0000
0000
0000
0001
0000
0100
0010
,
1000
0100
0100
1000
0010
0001
0100
2000
,
0000
0000
0001
0000
0010
0000
3001
1000
,
1001
0000
0100
0000
0011
0000
0100
1000
,
0001
0100
0001
1000
1010
0000
0001
1000
,
0101
1010
1001
0011
,
0001
0000
1000
0000
0001
1000
0010
0010
,
0110
0100
0001
0010
,
0011
0100
1000
0010
,
1010
1010
0000
0101
0101
0000
1001
2002
,
0000
0000
0000
0000
3003
0000
0000
0000
0001
0010
0100
0010
0001
1000
0010
1000
,
0100
0000
0100
1000
1010
0000
1010
1000
,
1001
0000
1001
0001
0010
0001
0100
0010
,
0110
0000
0110
0100
0101
0000
0101
0001
,
1001
0000
1001
1000
0100
0001
0100
1000
,
1010
0000
1010
1000
1001
0000
1001
0001
,
0011
0000
0011
0010
0100
0010
0001
0100
,
0110
0000
0110
0010
1010
0000
1001
0001
,
0101
0000
0000
0000
1100
0000
1000
0000
0010
0000
0001
0000
0100
0000
1000
0001
,
1000
0000
0010
1000
0100
0001
0100
1000
,
1001
0000
0001
0100
0101
0000
0110
0000
,
1010
0000
1001
0001
0010
1000
0010
0001
,
0101
0000
0001
0010
0001
0000
1000
0000
0010
1000
0010
0000
0100
0001
1000
0001
,
0010
0000
0001
0010
0100
0000
0001
1000
,
0100
0000
0010
0100
0001
0000
1000
0001
,
0011
1001
0000
1010
1001
0000
0110
0110
,
0000
0000
0100
0000
0001
0000
1000
0000
0010
1000
0010
0100
0001
1000
0100
0010
,
0002
0000
0000
0000
,
0003
0000
0000
0000
;

//---------------dance-single - Marten-CSP----------------
#NOTES:
     dance-single:
     Marten:
     Challenge:
     17:
     :
0000
0000
0000
0000
,
0000
0000
0000
0000
,
0000
0000
0000
0000
,
0000
0000
0000
0000
,
0000
0000
0000
0000
,
0000
0000
0000
0000
,
1000
MMMM
0010
0001
0100
MMMM
1000
0010
,
0100
MMMM
1000
0100
0001
1000
0010
0100
,
1000
MMMM
0100
0001
0010
MMMM
1000
0001
,
0010
0000
MMMM
0000
1000
0000
0010
0000
0001
0000
1000
0000
0100
0010
1000
0001
,
2000
0000
3001
0200
0310
0002
0013
0000
,
0120
0000
0130
0001
2000
3100
0002
0103
,
2000
0000
3001
0020
0130
0020
0031
1000
,
0010
0100
0001
1000
0100
0000
0010
0001
1000
0010
0100
0000
0001
0100
0010
0100
,
0002
0010
0013
0000
0011
0000
1100
0000
,
2000
0010
3010
0000
1010
0000
0101
0000
,
1001
0100
0010
0100
1001
0100
0010
0100
,
1001
0000
0100
0000
0100
0000
0100
0000
0001
0010
0001
0100
0001
1000
0010
1000
,
0200
0000
0000
0000
0000
0000
0010
0010
,
0000
0001
0001
0000
1000
0000
0010
0320
,
0000
0000
0000
0000
0000
0000
0001
0001
,
0000
1000
1000
0000
0100
0000
0001
0032
,
0000
0000
0000
0000
0000
0000
0100
0100
,
0000
0010
0010
0000
0100
0000
1000
2003
,
0000
0000
0000
0000
0000
0000
0010
0010
,
0000
0100
0100
0000
0001
0000
0100
0100
,
3100
MMMM
0001
0100
MMMM
1000
0100
MMMM
,
0001
0010
MMMM
1000
0010
MMMM
0001
0010
,
0100
1000
MMMM
0100
0001
MMMM
0100
2000
,
0000
0000
0100
0000
3100
0000
0010
0000
0001
0000
0100
0000
0001
0000
1000
0001
,
0010
MMMM
1000
0010
MMMM
0001
0010
MMMM
,
1000
0100
MMMM
0001
0100
MMMM
1000
0100
,
0010
0001
MMMM
0010
1000
MMMM
0010
0002
,
0000
1003
0010
0010
1000
0001
0010
0100
,
1000
MMMM
1000
0100
MMMM
0001
0100
MMMM
,
1000
0010
MMMM
0001
0010
MMMM
1000
0010
,
0100
0001
MMMM
0100
1000
MMMM
0100
0002
,
0000
0013
0100
0010
1000
0001
0100
1000
,
0001
MMMM
0001
0010
MMMM
1000
0010
MMMM
,
0001
0100
MMMM
1000
0100
MMMM
0001
0100
,
0010
1000
MMMM
0010
0001
MMMM
0010
2000
,
0000
0000
0001
0000
0001
0000
3001
0000
0001
0100
0010
0100
0001
1000
0100
0010
,
0100
MMMM
0001
0100
MMMM
0001
0010
MMMM
,
0001
0010
MMMM
0001
0100
MMMM
0001
0010
,
0100
1000
MMMM
0100
1000
MMMM
0010
2000
,
0000
0000
3010
0000
0100
0000
0100
0000
0001
0000
0010
0000
0100
0000
1000
0001
,
0010
MMMM
1000
0100
MMMM
1000
0010
MMMM
,
1000
0010
MMMM
1000
0100
MMMM
1000
0010
,
0100
0001
MMMM
0100
0001
MMMM
0010
0002
,
0000
0000
1003
0000
1100
0000
0011
0010
,
0210
1300
1002
0103
,
0010
0001
0010
0100
0002
0000
1003
0100
,
1100
0101
0110
1001
,
1020
0000
0130
0000
0001
0010
1000
0010
,
0012
0000
1003
0100
1100
0000
1001
0000
,
2010
0000
3001
0100
0101
0000
1001
0000
,
0011
0100
0100
1001
0010
0010
0110
2001
,
0000
0000
0100
0000
0100
0000
3100
0000
1000
0010
1000
0100
0010
0001
0100
0001
,
1000
MMMM
0100
0001
1000
MMMM
0010
0100
,
1000
MMMM
0100
0001
0010
1000
0010
0001
,
0100
MMMM
1000
0010
0100
MMMM
1000
0100
,
0010
MMMM
1000
0001
0010
1000
0010
0001
,
1000
MMMM
0001
0010
1000
MMMM
1000
0100
,
0001
MMMM
0010
0001
0100
0100
0001
1000
,
0001
MMMM
1000
0010
0001
MMMM
0001
0100
,
1000
0000
MMMM
0000
0010
0000
1000
0000
0001
0000
0010
0000
0100
0010
0001
1000
,
0002
0000
1003
0020
0031
0020
0130
0000
,
0102
0000
0000
0000
1003
0000
0000
0000
1200
0000
0000
0000
0310
0001
0010
0001
,
2000
0000
3010
0200
0301
2000
3100
0000
,
0010
0001
1000
0010
0100
0000
0001
1000
0100
0010
0001
0000
1000
0010
0100
0010
,
2000
0000
3001
0010
0110
0000
0011
0000
,
1002
0000
1003
0010
0110
0000
1010
0000
,
1001
0010
0010
1001
0100
0100
0110
1002
,
0000
0000
0100
0000
0100
0000
0103
0000
0001
0010
0001
0100
0010
1000
0100
1000
,
0020
0000
0000
0000
,
0030
0000
0000
0000
;

//---------------dance-double - NewbStepper-BDP----------------
#NOTES:
     dance-double:
     NewbStepper:
     Easy:
     10:
     :
00000000
00000000
00000000
00000000
,
00000000
00000000
00000000
00000000
,
00000000
00000000
00000000
00000000
,
00000000
00000000
00000000
00000000
,
00000000
00000000
00000000
00000000
,
00000000
00000000
00000000
00000000
,
10000000
10000000
10000000
00000000
,
00010000
00010000
00010000
00000000
,
00000010
00000100
00000010
00000100
,
00000001
00001000
00000001
00000000
,
00001000
00000000
00000000
00000100
00000000
00000010
00000000
00000000
,
00000001
00000100
00001000
00010000
,
00200000
00000000
00000000
00300000
,
01000000
01000000
01000000
01000000
,
00001000
00010000
00110000
10100000
,
00010000
00001000
00001010
00000011
,
00000100
00001010
00000100
00000011
,
00000100
00010000
00000100
00010000
00001000
00010000
00001000
00000000
,
02000000
00000000
00000000
03010000
,
00100000
00010000
00000000
10000000
00000000
01000000
00010000
00000000
,
00000200
00000000
00000000
00001300
,
00000010
00001000
00000000
00000001
00000000
00000100
00001000
00000000
,
00200000
00000000
00000000
00310000
,
00000000
00010000
00000000
00000000
00001000
00000000
00000010
00001000
,
00000200
00000000
00000000
00001300
,
00000000
00001000
00000000
00000000
00010000
00000000
00100000
00010000
,
01000000
00000000
00000000
01000000
00000000
00000000
00100000
00000000
,
10000000
00000000
00000000
10000000
00000000
00000000
01000000
00000000
,
00010000
00000000
00000000
00001000
00000000
00000000
00000010
00000002
,
00000000
00002000
00000000
00003003
,
00000100
00000000
00000000
00000100
00000000
00000000
00000010
00000000
,
00000001
00000000
00000000
00000001
00000000
00000000
00000010
00000000
,
00001000
00000000
00000000
00010000
00000000
00000000
00100000
20000000
,
00000000
00000000
00000000
30000000
,
00010000
00100000
10000000
00100000
,
00010000
01000000
00010000
00001000
,
00000001
00000001
00000000
00001000
00001000
00000000
00000100
00000020
,
00000000
00000000
00000001
00000031
,
00001000
00000010
00000001
00000010
,
00001000
00000100
00001000
00010000
,
10000000
10000000
00000000
00010000
00010000
00000000
01000000
00200000
,
02000000
00000000
00000000
03300000
,
00010000
00000000
01000000
00010000
00000000
01000000
00100000
00000000
,
01000000
10000000
00000000
01000000
00010000
00000000
00001000
00000000
,
00000010
00001000
00000000
00000010
00000100
00000000
00000100
00000002
,
00000000
00000000
00000000
00000003
,
00001000
00000000
00000100
00001000
00000000
00000100
00000010
00000000
,
00000100
00000001
00000000
00000100
00001000
00000000
00010000
00000000
,
00100000
00010000
00000000
00100000
01000000
00000000
01000000
20000000
,
00000000
00000000
00000000
30000000
,
00200000
00000000
20300000
00000000
,
00000000
30000000
01000000
00010000
,
00002000
00003200
00000320
00000032
,
00000023
00000000
00000000
00000030
,
00001010
00000000
00000100
00000001
,
00000011
00000000
00000100
00001000
,
00001100
00000000
00000001
00000100
00000000
00001000
00010000
00000000
,
00100000
20000000
00000000
00000000
00000000
00000000
30000000
00000000
,
10000000
00000000
10000000
01000000
10000000
00000000
01000000
00000000
,
00010000
00000000
00010000
00001000
00010000
00000000
00001000
00000000
,
00000010
00000000
00000010
00000001
00000010
00000000
00000001
00000000
,
00000100
00000000
00000100
00001000
00000100
00000000
00001000
00000000
,
00010000
00000000
00100000
10000000
00100000
00000000
01000000
00010000
,
01000000
00000000
00001000
00000000
00010000
00001000
00000100
00000000
,
00000010
00000001
00000010
00000000
00000100
00001000
00000100
00000000
,
00010000
00000000
00001000
00010000
01000000
00000000
00000000
00000000
,
00100000
00000000
00000000
10000000
00000000
01000000
00000000
00000000
,
00010000
00001000
00000100
00000001
,
00000020
00000000
00000000
00000030
,
00000100
00000100
00000100
00000100
,
00000110
00000000
00000010
00000001
,
00000101
00000000
00000010
00001000
,
00001100
00000000
00011000
00000000
,
01010000
01010000
10100000
10100000
,
02200000
00000000
00000000
00000000
,
03300000
00000000
00000000
00000000
;

//---------------dance-double - NewbStepper-DDP----------------
#NOTES:
     dance-double:
     NewbStepper:
     Medium:
     13:
     :
00000000
00000000
00000000
00000000
,
00000000
00000000
00000000
00000000
,
00000000
00000000
00000000
00000000
,
00000000
00000000
00000000
00000000
,
00000000
00000000
00000000
00000000
,
00000000
00000000
00000000
00000000
,
10000000
10000000
01000000
01000000
,
00010000
00010000
00001000
00001000
,
00000010
00000010
00000001
00000001
,
00000100
00000100
00000110
00001001
,
00000001
00000100
00001000
00010000
00000000
01000000
01000000
00000000
,
10000000
01000000
00001000
00000100
,
00000001
00000100
00001000
00000000
00000010
00001000
00000100
00000000
,
00000110
00001000
00010000
01000000
,
10000000
01000000
00010000
00000000
00001000
00000100
00000001
00000000
,
00000001
00000010
00001000
00000000
00010000
00100000
10000000
00000000
,
10000000
01000000
10000000
01000000
00100000
00010000
00100000
00010000
,
00001000
00000100
00000010
00000001
00000010
00000010
00000010
00000000
,
00000200
00000000
00000000
00000000
00000300
00000000
00000010
00001000
,
00000010
00001000
00000000
00010000
00000000
00001000
00010000
00000000
,
02000000
00000000
00000000
00000000
03000000
00000000
00100000
00010000
,
00100000
00010000
00000000
00001000
00000000
00010000
00001000
00000000
,
00000200
00000000
00000300
00000010
,
00000000
00000001
00000000
00000000
00000100
00000000
00000010
00000000
,
00002010
00000000
00000000
00013000
,
01000000
00100000
10000000
00000000
,
10010000
00000000
10000000
01000000
00000000
10000000
01000000
00000000
,
00100000
00010000
00000000
00100000
00010000
00000000
00001000
00000100
,
00000010
00000001
00000000
00000100
00000001
00000000
00000100
00000020
,
00000000
00001000
00001000
00001030
,
00001001
00000000
00000001
00000100
00000000
00000001
00000100
00000000
,
00000010
00001000
00000000
00000010
00001000
00000000
00010000
01000000
,
00100000
10000000
00000000
01000000
10000000
00000000
01000000
00200000
,
00000000
00010000
00010000
00310000
,
10000000
00000000
10000000
01000000
00000000
01000000
00010000
00000000
,
00010000
00001000
00000000
00001000
00000010
00000000
00000010
00000001
,
00001000
00000010
00000000
00000001
00000010
00000000
00001000
00000200
,
00000000
00000010
00000010
00000310
,
00000001
00000000
00000001
00000100
00000000
00000100
00001000
00000000
,
00001000
00010000
00000000
00010000
00100000
00000000
00100000
10000000
,
00010000
00100000
00000000
10000000
00100000
00000000
00010000
02000000
,
00000000
00000000
00200000
03300000
,
10000000
01000000
00100000
01000000
00010000
00001000
00000010
00000000
,
00000001
00000100
00000010
00000100
00001000
00010000
00100000
00000000
,
10000000
01000000
00010000
00001000
00000100
00000001
00000010
00000200
,
00000000
00010300
00001000
00000010
00000001
00000100
00000010
00001000
,
00000001
00000100
00000010
00000100
00001000
00010000
00100000
00000000
,
10000000
01000000
00100000
01000000
00010000
00001000
00000010
00000000
,
00000001
00000100
00001000
00010000
01000000
10000000
00100000
02000000
,
00000000
00100000
00100000
03100000
,
10010000
01000000
10000000
00100000
,
00010000
00001000
00000010
00001000
00010000
00001000
00000100
00000000
,
00001010
00000011
00000101
00001100
,
00000201
00000010
00000010
00000310
,
00002000
00000010
00000001
00000100
,
00023000
00100000
10000000
01000000
,
00031000
00000100
00000010
00000001
00000100
00001000
00010000
01000000
,
10000000
10000000
10000000
10000000
00010000
00010000
00010000
00010000
,
01000000
00000000
01000000
00001000
00010000
00000000
00010000
00100000
,
10000000
00000000
10000000
01000000
00010000
00001000
00000100
00000001
,
00000010
00000000
00000100
00010000
00001000
00000000
00001000
00000010
,
00000001
00000000
00000001
00000100
00001000
00010000
01000000
10000000
,
00100000
00000000
01000000
00010000
00100000
00000000
01000000
10000000
,
00100000
00000000
10000000
00100000
00010000
00001000
00000010
00000001
,
00001000
00000000
00000100
00001000
00000010
00000000
00000100
00000001
,
00000010
00000000
00000001
00000010
00001000
00010000
00100000
10000000
,
00010000
00000000
10000000
01000000
00000000
00010000
01000000
00000000
,
10000000
01000000
00010000
00000000
00001000
00000100
00000001
00000010
,
00000001
00000011
00001000
00001010
,
00000100
00000000
00000110
00000000
00000001
00000100
00001000
00010000
,
00100000
11000000
00100000
01010000
,
00000010
00001100
00000010
00000101
,
00001000
00001100
00000000
00000001
00000101
00000000
00000010
00000110
,
00000000
00001000
00010000
00010000
01000000
01000000
00100000
00100000
,
02200000
00000000
00000000
00000000
,
03300000
00000000
00000000
00000000
;

//---------------dance-double - NewbStepper-EDP----------------
#NOTES:
     dance-double:
     NewbStepper:
     Hard:
     16:
     :
00000000
00000000
00000000
00000000
,
00000000
00000000
00000000
00000000
,
00000000
00000000
00000000
00000000
,
00000000
00000000
00000000
00000000
,
00000000
00000000
00000000
00000000
,
00000000
00000000
00000000
00000000
,
10000000
00000000
10000000
01000000
00010000
00000000
00001000
00000100
,
00000001
00000000
00001000
00000010
00000100
00010000
00001000
00000100
,
00000010
00000000
00000001
00000100
00001000
00000000
00010000
01000000
,
10000000
00000000
00010000
00100000
01000000
00001000
00010000
01000000
,
00100000
00000000
10000000
00100000
00001000
00000100
00010000
00000000
,
00001000
00000100
00000001
00000000
00000010
00001000
00010000
00001000
,
00000100
00010000
00100000
01000000
10000000
00000000
00100000
00010000
,
00000010
00010000
01000000
00001000
00010000
00001000
00000100
00000010
,
00000001
00000000
00000000
00000000
00000100
00000000
00010000
00000000
00001000
00000000
00010000
00000000
01000000
00000000
00100000
01000000
,
00100000
00000000
00000000
00000000
10000000
00000000
01000000
00000000
00010000
00000000
00000010
00000000
00010000
00000000
00001000
00010000
,
00001000
00000100
00000001
00000100
00010000
00100000
10000000
00100000
,
00001000
00000000
00010000
00000000
00100000
00000000
10000000
00000000
00010000
00100000
00010000
00100000
01000000
00100000
01000000
00100000
,
00020000
00000000
00000000
00000000
00000000
00000000
01000000
01000000
,
00000000
10000000
10000000
00000000
00100000
00000000
00001000
00032000
,
00000000
00000000
00000000
00000000
00000000
00000000
00000100
00000100
,
00000000
00000001
00000001
00000000
00000010
00000000
00010000
00023000
,
00000000
00000000
00000000
00000000
00000000
00000000
00100000
00100000
,
00000000
00001000
00001000
00000000
01000000
00000000
10000000
20030000
,
00000000
00000000
00000000
00000000
00000000
00000000
31000000
00010000
,
00001000
00000200
00000000
00000000
00000000
00000300
00000010
00000100
,
00001001
00000000
00000001
00000100
00000000
00000100
00010000
00000000
,
00010000
00100000
00000000
00100000
00001000
00000000
00001000
00000010
,
00000001
00000100
00000000
00000100
00010000
00000000
00010000
20000000
,
00000000
31000000
00010000
00000010
00001000
00100000
01000000
00010000
,
10000000
00000000
10000000
01000000
00000000
01000000
00001000
00000000
,
00001000
00000010
00000000
00000010
00010000
00000000
00010000
00100000
,
10000000
01000000
00000000
01000000
00001000
00000000
00001000
00000002
,
00000000
00000100
00000100
00000103
,
00000001
00000100
00010000
00001000
00100000
10000000
01000000
00001000
,
00010000
00001000
00000010
00010000
01000000
00100000
00010000
00001000
,
00000010
00001000
00000100
00010000
01000000
10000000
00100000
01000000
,
00020000
00000000
01000000
00000000
01000000
00000000
01030000
00010000
,
10000000
01000000
00001000
00010000
00000010
00000001
00000100
00010000
,
00001000
00010000
00100000
00001000
00000100
00000010
00001000
00010000
,
00100000
00010000
01000000
00001000
00000100
00000001
00000010
00000100
,
00002002
00000000
00000000
00000000
00003003
00000000
00000100
00000100
,
00001001
00001000
00000010
00010000
00100000
00010000
00000010
00001000
,
00010000
01000000
00100000
00010000
00001000
00000010
00001000
01000000
,
10000000
01000000
00010000
00001000
00000010
00010000
01000000
20000000
,
30000000
01000000
00010000
00000100
00001000
00010000
10000000
00000000
,
10010000
00010000
00100000
00001000
00000010
00001000
00100000
00010000
,
00001000
00000100
00000010
00001000
00010000
00100000
00010000
00000100
,
00000001
00000100
00001000
00010000
00100000
00001000
00000100
00000002
,
00000000
00000000
00000010
00000000
00000010
00000000
00000013
00000001
,
00001001
00000100
00000011
00000100
,
00001000
00010000
00100000
00010000
00001000
00000010
00001000
00010000
,
00011000
00110000
10100000
11000000
,
01010000
00000000
00100000
00000000
00001000
00010000
01100000
00000000
,
10010000
01000000
10100000
01000000
,
00010000
00001000
00000010
00010000
00100000
00010000
00001000
00000100
,
00000110
00000110
00000000
00001001
00001001
00000000
00000101
00000101
,
00000000
00000001
00000010
00000100
00001000
00010000
00100000
01000000
,
10000000
00000000
01100000
00010000
00001000
00000000
00000110
00001000
,
00010000
00000000
00000000
00000000
00100000
00000000
10000000
00000000
01000000
00000000
00010000
00000000
00001000
00000000
00000100
00000001
,
00000100
00000000
00000110
00001000
00010000
00000000
01100000
00010000
,
00001000
00000000
00000000
00000000
00000010
00000000
00000001
00000000
00000100
00000000
00001000
00000000
00010000
00000000
01000000
10000000
,
01000000
00000000
10000000
00100000
00010000
00001000
01000000
00010000
,
00001000
00000000
00100000
00000000
00010000
00000000
00001000
00000000
00000010
00000000
00000100
00000000
00010000
00000000
00001000
00010000
,
00001000
00000000
00000010
00001000
00010000
00000100
00001000
00010000
,
00000010
00001000
00010000
00100000
00010000
00001000
00000010
00000001
,
00000100
00010000
00001000
00000010
00001000
00000100
00000001
00000100
,
00010000
00001000
00100000
10000000
00010000
01000000
00100000
00010000
,
10000000
00100000
00010000
00000010
00010000
00001000
00000010
00010000
,
00001000
00000100
00010000
01000000
00001000
00010000
00100000
00000000
,
00001000
01000000
00010000
00001000
00000010
00000001
00000010
00000000
,
00010000
00000100
00001000
00010000
00100000
10000000
00100000
00000000
,
11000000
11000000
00000000
01010000
01010000
00000000
00011000
00011000
,
00000000
00000000
00000100
00000000
00000001
00000000
00000010
00000000
00000100
00001000
00000100
00001000
00000001
00001000
00000001
00001000
,
00000200
00000000
00000000
00000000
,
00000300
00000000
00000000
00000000
;

//---------------dance-double - NewbStepper-CDP----------------
#NOTES:
     dance-double:
     NewbStepper:
     Challenge:
     17:
     :
00000000
00000000
00000000
00000000
,
00000000
00000000
00000000
00000000
,
00000000
00000000
00000000
00000000
,
00000000
00000000
00000000
00000000
,
00000000
00000000
00000000
00000000
,
00000000
00000000
00000000
00000000
,
10000000
MMMMMMMM
00100000
00010000
01000000
MMMMMMMM
00010000
00001000
,
00000010
MMMMMMMM
00010000
00001000
00000100
00000010
00001000
00000100
,
00000010
MMMMMMMM
00010000
00000100
00001000
MMMMMMMM
00010000
00100000
,
10000000
MMMMMMMM
01000000
00010000
00001000
00010000
00100000
00001000
,
00000200
00000000
00000301
00000100
00000010
00001000
0001MMMM
00001000
,
MMMM0100
00010000
0100MMMM
00010000
00001000
00000010
00000100
00001000
,
00020000
00000000
00130000
10000000
01000000
00010000
10000000
00100000
,
00010000
00000000
00001000
01000000
00010000
00000000
00100000
00000000
00001000
00010000
00001000
00000000
00000100
00000010
00000100
00000001
,
00002000
MMMM0100
MMMM0001
MMMM0010
,
00023000
0100MMMM
1000MMMM
0010MMMM
,
00031000
00000100
0001MMMM
MMMM0010
0001MMMM
MMMM1000
00100000
10000000
,
00100000
00000000
00010000
00000000
01000000
00000000
00100000
00000000
10000000
01000000
10000000
00100000
01000000
00010000
00100000
00001000
,
00020000
00000000
00000000
00000000
00000000
00000000
00100000
00100000
,
00000000
00001000
00001000
00000000
00000010
00000000
00001000
00032000
,
00000000
00000000
00000000
00000000
00000000
00000000
00000010
00000010
,
00000000
00010000
00010000
00000000
00100000
00000000
00010000
00023000
,
00000000
00000000
00000000
00000000
00000000
00000000
01000000
01000000
,
00000000
00001000
00001000
00000000
00000100
00000000
00001000
00032000
,
00000000
00000000
00000000
00000000
00000000
00000000
00000100
00000100
,
00000000
00010000
00010000
00000000
01000000
00000000
00010000
00013000
,
00001000
MMMMMMMM
00000001
00001000
MMMMMMMM
00000100
00000010
MMMMMMMM
,
00001000
00010000
MMMMMMMM
00100000
00010000
MMMMMMMM
01000000
10000000
,
01000000
00010000
MMMMMMMM
00001000
00010000
MMMMMMMM
00100000
20000000
,
00000000
31000000
00010000
MMMM1000
0010MMMM
00001000
00000100
00001000
,
00010000
MMMMMMMM
10000000
00010000
MMMMMMMM
01000000
00100000
MMMMMMMM
,
00010000
00001000
MMMMMMMM
00000010
00001000
MMMMMMMM
00000100
00000001
,
00000100
00001000
MMMMMMMM
00010000
00001000
MMMMMMMM
00000010
00000002
,
00000000
00000000
00001003
00000000
00000100
00001000
00011000
00000000
,
00100000
MMMMMMMM
10000000
01000000
MMMMMMMM
00001000
00010000
MMMMMMMM
,
00100000
01000000
MMMMMMMM
00010000
10000000
MMMMMMMM
00100000
00010000
,
00001000
00000010
MMMMMMMM
00001000
00000001
MMMMMMMM
00000100
00002000
,
00000000
00000001
00000100
00003001
,
00000010
MMMMMMMM
00000001
00000100
MMMMMMMM
00010000
00001000
MMMMMMMM
,
00000010
00000100
MMMMMMMM
00001000
00000001
MMMMMMMM
00000010
00001000
,
00010000
00100000
MMMMMMMM
00010000
10000000
MMMMMMMM
01000000
00010000
,
00210000
00000000
00000000
00000000
00000000
00000000
00000000
00000000
00301000
00010000
00001000
00010000
00000100
00001000
00000100
00001000
,
00000001
MMMMMMMM
00001000
00010000
MMMMMMMM
00001000
00000010
MMMMMMMM
,
00001000
00010000
MMMMMMMM
00100000
00010000
MMMMMMMM
01000000
10000000
,
00100000
00010000
MMMMMMMM
00001000
00000001
MMMMMMMM
00001000
00020000
,
00000000
00030010
00001000
00010000
00100000
01000000
10000000
00100000
,
10000000
MMMMMMMM
00010000
00001000
MMMMMMMM
00010000
00100000
MMMMMMMM
,
00010000
00001000
MMMMMMMM
00000010
00001000
MMMMMMMM
00000100
00000001
,
00000010
00001000
MMMMMMMM
00010000
10000000
MMMMMMMM
00010000
00002000
,
00000000
00100000
00100000
00103000
,
00101000
00001000
00021000
00000000
00030200
00000000
00002300
00000000
,
00003001
00000100
00010000
00001000
00000020
00000000
00000130
00001000
,
00011000
01010000
11000000
10100000
,
00120000
00000000
00031000
00000000
00100000
00010000
00001000
00010000
,
00210000
00000000
00301000
00010000
00011000
00000000
01000000
00000000
,
20010000
00000000
30100000
00010000
00011000
00000000
00001010
00000000
,
00000011
00000101
00000000
00001010
00001100
00000000
00010100
00012000
,
00000000
00000000
00100000
00000000
00100000
00000000
00103000
00000000
00010000
00100000
00010000
10000000
00100000
01000000
00010000
00100000
,
01000000
MMMMMMMM
00001000
00010000
00100000
MMMMMMMM
00001000
01000000
,
00010000
MMMMMMMM
00001000
00000100
00000001
00000010
00001000
00000010
,
00000001
MMMMMMMM
00000100
00000010
00001000
MMMMMMMM
00010000
00100000
,
00001000
MMMMMMMM
01000000
10000000
00100000
00010000
00001000
00000010
,
00000001
MMMMMMMM
00000010
00001000
00000100
MMMMMMMM
00001000
00010000
,
00100000
MMMMMMMM
00001000
00010000
01000000
00100000
00001000
01000000
,
00100000
MMMMMMMM
00001000
01000000
00010000
MMMMMMMM
00001000
00000010
,
00000001
MMMMMMMM
00000100
00001000
00010000
00001000
00000010
00010000
,
02000000
00000000
13000000
01000000
00100000
00010000
MMMM1000
00010000
,
0100MMMM
00001000
MMMM0100
00001000
00010000
00100000
01000000
00010000
,
00002000
00000000
00003010
00000001
00000100
00001000
00000001
00000010
,
00001000
00000000
00010000
00000100
00001000
00000000
00000010
00000000
00010000
00001000
00010000
00000000
01000000
00100000
01000000
10000000
,
00020000
0100MMMM
1000MMMM
0010MMMM
,
00032000
MMMM0100
MMMM0001
MMMM0010
,
00013000
01010000
00100000
10000000
11000000
00100000
00010000
00001000
,
00010000
00000000
00100000
00000000
00001000
00000000
00000010
00000000
00000001
00000010
00000001
00000100
00000010
00001000
00000100
00010000
,
00002000
00000000
00000000
00000000
,
00003000
00000000
00000000
00000000
;
